开启辅助访问 切换到窄版

HD一条街论坛

 找回密码
 加入我们
查看: 2264|回复: 57

[其它] [迅雷快传][倩女幽魂 2003版 全40集][MKV版/5G][国语 英文字幕][2003年/徐熙媛/陈晓东/宣萱/吴京/罗嘉良主演的香港古装爱情剧]

  [复制链接]
发表于 2013-12-8 20:34:00 | 显示全部楼层 |阅读模式
1XmDK.jpg
% q+ U- D" d+ M( S0 M. n* G0 G* o* `8 q, Y7 r) n+ l
导演: 陈十三0 r2 w) K2 x0 E- M$ R
主演: 徐熙媛 / 陈晓东 / 宣萱 / 吴京 / 罗嘉良 / 邓萃雯 / 吕颂贤 / 元华 / 麦家琪 / 聂远
8 |9 _4 ^7 C* J3 K% ~' R类型: 爱情 / 武侠 / 古装- u% O# Z& n6 b- T6 C
制片国家/地区: 香港
: D( e, r- J) l语言: 普通话/国语, t& h$ G4 a& J4 @- S3 S! l
集数: 40+ l! I4 ^5 E+ V1 u$ x  a3 |
又名: 천녀유혼
& C6 H$ Q/ d' X9 c7 g+ Y/ ~+ p0 e% e1 b  }
倩女幽魂的剧情简介  ·  ·  ·  ·  ·  ·* z) y0 f6 S# v3 U
  大唐元年,天下繁盛。然而一段有关“七世怨侣”的预言,却使众人惶惶不得终日。传说魔道将凭七世怨侣的力量而得天下,人间从此化作无间地狱。玄心正宗的宗主燕赤霞(元华饰)尽展平生所学和魔君六道(罗嘉良饰)大战,魔君六道被燕赤霞杀死,留下一子七夜(聂远饰)。二十年后,一介书生宁采臣(陈晓东饰)来到有妖孽作崇的南郭镇。在入镇以前,宁采臣就接连遇见了很多离奇之事。先是被装神弄鬼的狐妖聂小倩(徐熙媛饰)吓个半死,然后又遇到一个叫人摸不着头脑的神秘少女马红叶(宣萱饰)。入镇以后,更被一个自称燕赤霞首席弟子的诸葛流云(吴京饰)苦缠。因缘际会,在冥冥中的安排下,一场凄美的人鬼情悲情上演。
* }# U0 u: u! a( x* b  由亚视著名鬼才编剧陈十三执导的古装奇幻电视剧《倩女幽魂》,根据我国经典名著聊斋的故事《聂小倩》改编。这部多地区合拍版剧集,两岸三地众星加盟,重新演绎一段至死不渝的真爱故事。( z: f  `; z& k  W

4 `( i, S  U( p- U8 Y; c5 xTitle: 倩女幽魂 / Qian Nv You Hun1 Q+ i6 z5 M  [& c4 r
Also known as: Eternity: A Chinese Ghost Story
. {- Z5 Y# b9 V! U, MEpisodes: 40
+ b4 i! ]5 n1 cBroadcast network: CTS4 n7 Y, R4 J: ?3 T9 m5 A' t
Broadcast year: 2003
& y" }8 V3 R" Q& `: }- M! Q+ W+ HOpening theme song: Qian Nv You Hun by Daniel Chan$ d+ m7 p3 |; C2 H* A
Ending theme song: What Can I Do by Daniel Chan( `& B. \" A, w( l/ G% x9 `; F
4 @7 T; g0 N* V2 G
Subtitles: English/ Y% s$ k+ Q2 S' h* X
Language: Mandarin
  1. Format                           : mkv
    4 y! s* o2 F% u0 c5 _. p( s1 L
  2. Format/Info                      : Advanced Video Codec
    6 o2 w$ W0 t3 P  c4 c
  3. Format profile                   : [email protected]9 n, A: [; r' W) A0 R  A+ C. u; r6 Z) Q
  4. Format settings, CABAC           : Yes
    ! x9 H! S' ~% `1 r( A3 s
  5. Format settings, ReFrames        : 8 frames! @- l2 Y8 J8 y" h" o& [2 n
  6. Codec ID                         : V_MPEG4/ISO/AVC. x' }& L' k7 U  D( c
  7. Duration                         : 49mn 42s# ]7 f6 k0 S8 \2 e, G
  8. Bit rate                         : 178 Kbps& g" M+ X# T. K& I4 X5 K( Z
  9. Width                            : 352 pixels
    ' E) G7 e5 i8 \: |' R* Q) Z% ]
  10. Height                           : 288 pixels
    ' M' z3 j8 @0 I' ~. e( S( `' @
  11. Display aspect ratio             : 1.222
    8 M; b% X, d, N. J8 w
  12. Frame rate mode                  : Variable0 [- K4 t% J; O; M+ F: g
  13. Frame rate                       : 25.000 fps
    ! l4 I8 o* y% g0 v7 U2 L, ]
  14. Standard                         : PAL
    $ }2 b6 ~' x/ ~  V/ `6 G
  15. Color space                      : YUV3 S3 o. a' Y3 t! s' w% H
  16. Chroma subsampling               : 4:2:0
    2 n( I2 R7 e& P% V7 U/ D- E
  17. Bit depth                        : 8 bits
    ) T6 J' j# P# {5 Q3 e
  18. Scan type                        : Progressive
    7 h3 |* a( V" V/ D- V; U0 n  e" T
  19. Bits/(Pixel*Frame)               : 0.070
    * Y" s* A4 X7 O* v/ Y2 D$ q
  20. Stream size                      : 63.3 MiB (52%)9 `% E. g: N# R7 k+ r
  21. Writing library                  : x264 core 122
      G! V2 I( \$ d) a1 S: F3 Q% N& ~
  22. Encoding settings                : cabac=1 / ref=8 / deblock=1:1:1 / analyse=0x3:0x133 / me=umh / subme=10 / psy=1 / psy_rd=0.00:0.00 / mixed_ref=1 / me_range=16 / chroma_me=1 / trellis=2 / 8x8dct=1 / cqm=0 / deadzone=21,11 / fast_pskip=1 / chroma_qp_offset=0 / threads=6 / sliced_threads=0 / nr=0 / decimate=1 / interlaced=0 / bluray_compat=0 / constrained_intra=0 / bframes=5 / b_pyramid=2 / b_adapt=2 / b_bias=0 / direct=1 / weightb=1 / open_gop=0 / weightp=2 / keyint=250 / keyint_min=25 / scenecut=40 / intra_refresh=0 / rc_lookahead=50 / rc=crf / mbtree=1 / crf=26.0 / qcomp=0.60 / qpmin=3 / qpmax=69 / qpstep=4 / ip_ratio=1.40 / aq=1:0.60
    2 m" K* k/ H7 s2 R9 j* v; [
  23. Language                         : English. s% \6 |# @" h( a
  24. Color primaries                  : BT.470-6 System B, BT.470-6 System G, BT.601-6 625, BT.1358 625, BT.1700 625 PAL, BT.1700 625 SECAM+ x/ ^& {5 n8 P% M
  25. Transfer characteristics         : BT.709-5, BT.1361
    * ~2 h4 k- Z# s: d. ^, G4 J" s$ ^/ j
  26. Matrix coefficients              : BT.601-6 525, BT.1358 525, BT.1700 NTSC, SMPTE 170M
    ; N( b7 m$ }5 w& S, y

  27. ( a7 |: k6 ?0 Z# ~
  28. Audio" R+ P2 n# T' m) d( w# \3 i+ l
  29. ID                               : 2
    4 e3 q$ \* x! W" p+ \- O9 S
  30. Format                           : Vorbis
    0 F# v+ c9 Y' x2 Y1 e3 _9 ~% _
  31. Format settings, Floor           : 1' S' ^( }, a. i( ?# q* f* C  u8 O
  32. Codec ID                         : A_VORBIS
    7 ]: y( T0 V& N8 Q1 V: p1 o
  33. Duration                         : 49mn 42s' L' ]/ V" E; M0 n# K" U
  34. Bit rate                         : 160 Kbps
    0 l8 z/ l8 C  f2 ~+ p9 c! d9 m+ t
  35. Channel(s)                       : 1 channel3 g$ P$ }0 v. L
  36. Sampling rate                    : 48.0 KHz
    # D: H, T- @' m6 y. o
  37. Stream size                      : 56.9 MiB (46%)- Y4 B: \# \/ J# S
  38. Writing library                  : aoTuV 20110424 (UTC 2011-04-24)8 |) ?, m* c: T. @% U+ V7 _8 X
  39. Language                         : un
复制代码

0 @, K8 l  c* N: _# Q) h
! Q3 i! I/ N2 l【下载地址】6 M" K, u3 H4 V# g* D2 f
游客,如果您要查看本帖隐藏内容请回复  捐助论坛可免回复查看隐藏内容 详情请点击
最近访问 头像模式 列表模式
HD一条街,身边的一条街。
脑残箭请问i 该用户已被删除
发表于 2013-12-8 20:38:16 | 显示全部楼层
提示: 作者被禁止或删除 内容自动屏蔽
HD一条街,身边的一条街。
xbfn24 该用户已被删除
发表于 2013-12-8 20:41:50 来自手机 | 显示全部楼层
提示: 作者被禁止或删除 内容自动屏蔽
HD一条街,身边的一条街。
barret7824 该用户已被删除
发表于 2013-12-8 22:51:29 | 显示全部楼层
提示: 作者被禁止或删除 内容自动屏蔽
HD一条街,身边的一条街。
联威科技 该用户已被删除
发表于 2013-12-8 23:57:28 | 显示全部楼层
提示: 作者被禁止或删除 内容自动屏蔽
HD一条街,身边的一条街。
活着的死人 该用户已被删除
发表于 2013-12-9 03:16:10 来自手机 | 显示全部楼层
提示: 作者被禁止或删除 内容自动屏蔽
HD一条街,身边的一条街。
发表于 2013-12-9 08:12:18 | 显示全部楼层
喜欢陈晓东,谢谢楼主分享!
HD一条街,身边的一条街。
发表于 2013-12-9 09:44:04 | 显示全部楼层
感谢楼主分享!!!
HD一条街,身边的一条街。
jicemoon 该用户已被删除
发表于 2013-12-9 11:00:54 | 显示全部楼层
提示: 作者被禁止或删除 内容自动屏蔽
HD一条街,身边的一条街。
飞扬 该用户已被删除
发表于 2013-12-9 12:00:23 | 显示全部楼层
提示: 作者被禁止或删除 内容自动屏蔽
HD一条街,身边的一条街。
您需要登录后才可以回帖 登录 | 加入我们

本版积分规则

手机版|小黑屋|有问题发邮件到admin#(换成@)hd1tj.org|微博|免责申明|HD一条街

GMT+8, 2017-1-18 03:17

Powered by Discuz! X3.1

© 2001-2013 Comsenz Inc.

快速回复 返回顶部 返回列表