开启辅助访问 切换到窄版

HD一条街论坛

 找回密码
 立即注册
搜索
查看: 2492|回复: 57

[其它] [迅雷快传][倩女幽魂 2003版 全40集][MKV版/5G][国语 英文字幕][2003年/徐熙媛/陈晓东/宣萱/吴京/罗嘉良主演的香港古装爱情剧]

  [复制链接]
发表于 2013-12-8 20:34:00 | 显示全部楼层 |阅读模式
1XmDK.jpg 9 i! p& j2 v$ v: I! S1 _: Z: i

( A9 g- k" V# L导演: 陈十三
' D3 ~1 C! i+ v/ B2 h8 X主演: 徐熙媛 / 陈晓东 / 宣萱 / 吴京 / 罗嘉良 / 邓萃雯 / 吕颂贤 / 元华 / 麦家琪 / 聂远4 k1 z5 a8 N8 j2 i7 S4 m2 G6 p
类型: 爱情 / 武侠 / 古装
; w% R' W8 P+ q# Q制片国家/地区: 香港. C% I/ T- w! q. E! ]: g$ S. o$ h
语言: 普通话/国语) n# v. L' ~: J! S% @1 I  X* e
集数: 40
6 e4 ~; E& w7 U又名: 천녀유혼
& }" v+ E( m8 _! z
2 `- ]- n$ t; B/ D3 f3 V! J8 {& ?- N1 C倩女幽魂的剧情简介  ·  ·  ·  ·  ·  ·4 ?) _2 i' j# o% U) i* k
  大唐元年,天下繁盛。然而一段有关“七世怨侣”的预言,却使众人惶惶不得终日。传说魔道将凭七世怨侣的力量而得天下,人间从此化作无间地狱。玄心正宗的宗主燕赤霞(元华饰)尽展平生所学和魔君六道(罗嘉良饰)大战,魔君六道被燕赤霞杀死,留下一子七夜(聂远饰)。二十年后,一介书生宁采臣(陈晓东饰)来到有妖孽作崇的南郭镇。在入镇以前,宁采臣就接连遇见了很多离奇之事。先是被装神弄鬼的狐妖聂小倩(徐熙媛饰)吓个半死,然后又遇到一个叫人摸不着头脑的神秘少女马红叶(宣萱饰)。入镇以后,更被一个自称燕赤霞首席弟子的诸葛流云(吴京饰)苦缠。因缘际会,在冥冥中的安排下,一场凄美的人鬼情悲情上演。 ; e0 S7 j" t$ T$ W7 {% e9 _, m
  由亚视著名鬼才编剧陈十三执导的古装奇幻电视剧《倩女幽魂》,根据我国经典名著聊斋的故事《聂小倩》改编。这部多地区合拍版剧集,两岸三地众星加盟,重新演绎一段至死不渝的真爱故事。
8 r- D. F! Z# y' G5 ~: n1 P0 S3 t' [) [# n" {% r. A$ a! Z
Title: 倩女幽魂 / Qian Nv You Hun& J2 H  }' B' x/ H% N! [; j; s
Also known as: Eternity: A Chinese Ghost Story- f' P. n& D! [/ b4 T: \5 H: k
Episodes: 40
4 |* d- e  Y5 M8 U6 j% RBroadcast network: CTS: T" z+ Z, i8 X2 s, _; [3 `. ?4 c1 J
Broadcast year: 2003: p7 l/ N' R! H2 r& P7 H
Opening theme song: Qian Nv You Hun by Daniel Chan5 T& ]. O2 e  M* c3 p+ x1 ?, |2 @" {
Ending theme song: What Can I Do by Daniel Chan
3 T; H. n, C! U  ^* D/ w, c/ ?7 m0 q$ d  F
Subtitles: English
! i' t' u; N/ u# M# D) `Language: Mandarin
  1. Format                           : mkv" v  t6 h/ Q1 W( W7 E% F
  2. Format/Info                      : Advanced Video Codec
    ) T' {- `" a" p# q( e
  3. Format profile                   : [email protected]2 C( S  ^* k; x  s, ~
  4. Format settings, CABAC           : Yes. u1 j" H0 I/ ]
  5. Format settings, ReFrames        : 8 frames  I" J( @% d3 \& x' Y3 n2 |
  6. Codec ID                         : V_MPEG4/ISO/AVC0 B" K; |6 }9 G: `# b1 S
  7. Duration                         : 49mn 42s; \0 l: p8 X# O) ~4 }2 x% u( h
  8. Bit rate                         : 178 Kbps
    # }" R$ ~( b  o
  9. Width                            : 352 pixels
    ( G, |& E) ]: P3 J$ G
  10. Height                           : 288 pixels
    $ q# j3 D! [/ x  b) H  s) B
  11. Display aspect ratio             : 1.2224 f6 W; e/ R$ L! R  i
  12. Frame rate mode                  : Variable
    " C! [2 f: p. M1 t# R
  13. Frame rate                       : 25.000 fps" N4 O; P( H) O9 A$ H% x$ q7 e5 g* n7 I
  14. Standard                         : PAL6 ?7 `5 z3 H  i
  15. Color space                      : YUV# L: l' n0 E! u* }1 M$ A& j
  16. Chroma subsampling               : 4:2:0
    ' J7 {2 J$ S4 g) k3 S3 {
  17. Bit depth                        : 8 bits+ l  d: Q; m% o9 ^7 F
  18. Scan type                        : Progressive
    " P5 f6 V4 D% E+ k
  19. Bits/(Pixel*Frame)               : 0.070$ w1 _/ F! K5 p* ^! p& e7 V
  20. Stream size                      : 63.3 MiB (52%)
    0 `9 y6 J# e5 l! w
  21. Writing library                  : x264 core 1225 q) p9 s* m) w
  22. Encoding settings                : cabac=1 / ref=8 / deblock=1:1:1 / analyse=0x3:0x133 / me=umh / subme=10 / psy=1 / psy_rd=0.00:0.00 / mixed_ref=1 / me_range=16 / chroma_me=1 / trellis=2 / 8x8dct=1 / cqm=0 / deadzone=21,11 / fast_pskip=1 / chroma_qp_offset=0 / threads=6 / sliced_threads=0 / nr=0 / decimate=1 / interlaced=0 / bluray_compat=0 / constrained_intra=0 / bframes=5 / b_pyramid=2 / b_adapt=2 / b_bias=0 / direct=1 / weightb=1 / open_gop=0 / weightp=2 / keyint=250 / keyint_min=25 / scenecut=40 / intra_refresh=0 / rc_lookahead=50 / rc=crf / mbtree=1 / crf=26.0 / qcomp=0.60 / qpmin=3 / qpmax=69 / qpstep=4 / ip_ratio=1.40 / aq=1:0.60
    ! X0 P4 `/ q& ?9 {
  23. Language                         : English3 x+ x5 t8 h# @& X
  24. Color primaries                  : BT.470-6 System B, BT.470-6 System G, BT.601-6 625, BT.1358 625, BT.1700 625 PAL, BT.1700 625 SECAM! |* \7 h! {) e/ k% [2 W5 t
  25. Transfer characteristics         : BT.709-5, BT.13619 _2 t! p! |& J6 c2 {
  26. Matrix coefficients              : BT.601-6 525, BT.1358 525, BT.1700 NTSC, SMPTE 170M, t4 [& ]# B2 W0 I. y: ]

  27. ! J5 I% ~2 C. D* o! d
  28. Audio1 F; U' E! s4 D% K
  29. ID                               : 2. l0 L4 {7 p; X& _& V
  30. Format                           : Vorbis9 f% j, f' p& v2 H0 z5 z1 U# Q
  31. Format settings, Floor           : 1
    & X. Y+ E3 T: x" y0 @/ l! A
  32. Codec ID                         : A_VORBIS0 ~4 ^% Q* k% ^8 g
  33. Duration                         : 49mn 42s
    ' i& d/ V; U1 F5 H3 g
  34. Bit rate                         : 160 Kbps
    ) p4 K- @& G& c( t+ c2 h9 p: H
  35. Channel(s)                       : 1 channel
    9 E" g) g/ V' t' }) ^; p
  36. Sampling rate                    : 48.0 KHz; ~1 v# s! N: |4 z
  37. Stream size                      : 56.9 MiB (46%)
    5 I$ l/ i$ j# ]' z+ v1 q' z5 X
  38. Writing library                  : aoTuV 20110424 (UTC 2011-04-24)
    3 z/ O4 S$ v  z: Q0 v$ P" o
  39. Language                         : un
复制代码

* }( y+ Q* H, R/ N! i* d2 L6 X" x: }$ F7 a( V' B7 X8 b9 _
【下载地址】
2 l6 f2 A: v. L9 [. L3 F: W
游客,如果您要查看本帖隐藏内容请回复  捐助论坛可免回复查看隐藏内容 详情请点击
最近访问 头像模式 列表模式
HD一条街,身边的一条街。
脑残箭请问i 该用户已被删除
发表于 2013-12-8 20:38:16 | 显示全部楼层
提示: 作者被禁止或删除 内容自动屏蔽
HD一条街,身边的一条街。
xbfn24 该用户已被删除
发表于 2013-12-8 20:41:50 来自手机 | 显示全部楼层
提示: 作者被禁止或删除 内容自动屏蔽
HD一条街,身边的一条街。
barret7824 该用户已被删除
发表于 2013-12-8 22:51:29 | 显示全部楼层
提示: 作者被禁止或删除 内容自动屏蔽
HD一条街,身边的一条街。
联威科技 该用户已被删除
发表于 2013-12-8 23:57:28 | 显示全部楼层
提示: 作者被禁止或删除 内容自动屏蔽
HD一条街,身边的一条街。
活着的死人 该用户已被删除
发表于 2013-12-9 03:16:10 来自手机 | 显示全部楼层
提示: 作者被禁止或删除 内容自动屏蔽
HD一条街,身边的一条街。
发表于 2013-12-9 08:12:18 | 显示全部楼层
喜欢陈晓东,谢谢楼主分享!
HD一条街,身边的一条街。
发表于 2013-12-9 09:44:04 | 显示全部楼层
感谢楼主分享!!!
HD一条街,身边的一条街。
jicemoon 该用户已被删除
发表于 2013-12-9 11:00:54 | 显示全部楼层
提示: 作者被禁止或删除 内容自动屏蔽
HD一条街,身边的一条街。
飞扬 该用户已被删除
发表于 2013-12-9 12:00:23 | 显示全部楼层
提示: 作者被禁止或删除 内容自动屏蔽
HD一条街,身边的一条街。

手机版|小黑屋|有问题发邮件到admin#(换成@)hd1tj.org|微博|免责申明|HD一条街

GMT+8, 2017-4-30 03:21

Powered by Discuz! X3.1

© 2001-2013 Comsenz Inc.

快速回复 返回顶部 返回列表