开启辅助访问 切换到窄版

HD一条街论坛

 找回密码
 加入我们
查看: 2323|回复: 57

[其它] [迅雷快传][倩女幽魂 2003版 全40集][MKV版/5G][国语 英文字幕][2003年/徐熙媛/陈晓东/宣萱/吴京/罗嘉良主演的香港古装爱情剧]

  [复制链接]
发表于 2013-12-8 20:34:00 | 显示全部楼层 |阅读模式
1XmDK.jpg
% s: U( X, w: E* [2 R5 p/ t& H, F% [- f2 }7 E! b2 \1 \. ^7 \9 {
导演: 陈十三
8 w6 j  m* i7 D8 d' W$ g+ y6 V/ R: [主演: 徐熙媛 / 陈晓东 / 宣萱 / 吴京 / 罗嘉良 / 邓萃雯 / 吕颂贤 / 元华 / 麦家琪 / 聂远
( n* V0 [# v" w. l4 I( k. G- [类型: 爱情 / 武侠 / 古装- ?6 p, c( K" h+ O! j; |
制片国家/地区: 香港
+ }7 _  T/ T7 Z) t5 g语言: 普通话/国语
) D: s0 }5 w6 I3 E集数: 403 u( Q! x8 N5 C1 f( ?9 j
又名: 천녀유혼4 g* a- E9 X' {( t

. ?) k. ?: D; y# ^9 R2 a倩女幽魂的剧情简介  ·  ·  ·  ·  ·  ·
+ T$ t$ Z! m' E# \; m4 C7 m  大唐元年,天下繁盛。然而一段有关“七世怨侣”的预言,却使众人惶惶不得终日。传说魔道将凭七世怨侣的力量而得天下,人间从此化作无间地狱。玄心正宗的宗主燕赤霞(元华饰)尽展平生所学和魔君六道(罗嘉良饰)大战,魔君六道被燕赤霞杀死,留下一子七夜(聂远饰)。二十年后,一介书生宁采臣(陈晓东饰)来到有妖孽作崇的南郭镇。在入镇以前,宁采臣就接连遇见了很多离奇之事。先是被装神弄鬼的狐妖聂小倩(徐熙媛饰)吓个半死,然后又遇到一个叫人摸不着头脑的神秘少女马红叶(宣萱饰)。入镇以后,更被一个自称燕赤霞首席弟子的诸葛流云(吴京饰)苦缠。因缘际会,在冥冥中的安排下,一场凄美的人鬼情悲情上演。 . M. `$ C& w3 F) c3 G- o/ n
  由亚视著名鬼才编剧陈十三执导的古装奇幻电视剧《倩女幽魂》,根据我国经典名著聊斋的故事《聂小倩》改编。这部多地区合拍版剧集,两岸三地众星加盟,重新演绎一段至死不渝的真爱故事。
1 F: D  j2 C( t! s( j& |: @
! B% S# }+ ~- q2 o. g. y5 `+ K, j, a8 D! XTitle: 倩女幽魂 / Qian Nv You Hun
; O1 W6 M- y9 g1 H+ o; Q  m# @Also known as: Eternity: A Chinese Ghost Story
9 v; P0 i; a$ Q% ~0 QEpisodes: 40
1 I2 y# Y7 L. w; U' I, N9 yBroadcast network: CTS! M$ ]- S5 o- y/ @
Broadcast year: 2003
8 J9 H* u' M6 @& uOpening theme song: Qian Nv You Hun by Daniel Chan3 O2 p0 A  J3 N2 r- X
Ending theme song: What Can I Do by Daniel Chan( S8 w+ ]( T/ s2 x5 T
0 E7 Q. e  M  N! Q* L4 N: W, A
Subtitles: English
, x, l( x* H# Y  @8 F5 n, ]. WLanguage: Mandarin
  1. Format                           : mkv
    / t1 m0 `+ _; ]) g$ H# I9 c& M
  2. Format/Info                      : Advanced Video Codec1 W/ P' A: M2 J
  3. Format profile                   : [email protected]
    : j" S3 L$ E7 x* a/ p  {& K
  4. Format settings, CABAC           : Yes
    , l: _# ?1 E$ |, v- P% c
  5. Format settings, ReFrames        : 8 frames
    / X1 v, R% r5 O  X7 O( M. ]
  6. Codec ID                         : V_MPEG4/ISO/AVC
    % [; d* w' X$ a9 L1 V; _
  7. Duration                         : 49mn 42s: A5 O$ u+ X- a  `
  8. Bit rate                         : 178 Kbps
    8 s- v8 W: F2 p+ J( i6 O
  9. Width                            : 352 pixels; M4 \) G1 K! `9 a0 W3 h
  10. Height                           : 288 pixels
    / b/ \. D2 I9 A7 K
  11. Display aspect ratio             : 1.222
      R. _# U/ z  |
  12. Frame rate mode                  : Variable: K% f5 h' L: h2 n! E* T! l
  13. Frame rate                       : 25.000 fps
    9 W" k& m% d$ K1 X
  14. Standard                         : PAL3 Q. s3 Z0 Z5 w3 W# X) |5 q/ D
  15. Color space                      : YUV
    " Q, G% p2 U4 B2 T5 F
  16. Chroma subsampling               : 4:2:0# G6 K; v- g1 H( |' |
  17. Bit depth                        : 8 bits1 k* f4 ^, J( k2 G: ]& V
  18. Scan type                        : Progressive
    * K$ r" Y2 K# ?8 C1 }) T# [
  19. Bits/(Pixel*Frame)               : 0.0709 Z7 S( Q+ a' j  x0 B8 O
  20. Stream size                      : 63.3 MiB (52%)$ }( \% p" _+ |* p& O( ^0 O& [7 E
  21. Writing library                  : x264 core 122
    ! o' ]& Z( U* a0 N
  22. Encoding settings                : cabac=1 / ref=8 / deblock=1:1:1 / analyse=0x3:0x133 / me=umh / subme=10 / psy=1 / psy_rd=0.00:0.00 / mixed_ref=1 / me_range=16 / chroma_me=1 / trellis=2 / 8x8dct=1 / cqm=0 / deadzone=21,11 / fast_pskip=1 / chroma_qp_offset=0 / threads=6 / sliced_threads=0 / nr=0 / decimate=1 / interlaced=0 / bluray_compat=0 / constrained_intra=0 / bframes=5 / b_pyramid=2 / b_adapt=2 / b_bias=0 / direct=1 / weightb=1 / open_gop=0 / weightp=2 / keyint=250 / keyint_min=25 / scenecut=40 / intra_refresh=0 / rc_lookahead=50 / rc=crf / mbtree=1 / crf=26.0 / qcomp=0.60 / qpmin=3 / qpmax=69 / qpstep=4 / ip_ratio=1.40 / aq=1:0.606 q3 k3 E. C5 I. U1 z* ?
  23. Language                         : English5 `# K! \7 V* |7 }( U
  24. Color primaries                  : BT.470-6 System B, BT.470-6 System G, BT.601-6 625, BT.1358 625, BT.1700 625 PAL, BT.1700 625 SECAM2 D5 V9 O8 t  D$ E
  25. Transfer characteristics         : BT.709-5, BT.13610 n' i0 M- e( {0 }$ [0 f/ V4 u. [
  26. Matrix coefficients              : BT.601-6 525, BT.1358 525, BT.1700 NTSC, SMPTE 170M
    + [+ a* @1 f0 u

  27. 5 v" Y" A/ H" L- p. L7 ~) l  w( E
  28. Audio
      g. [. F; }1 U# {6 G
  29. ID                               : 2! O+ E* d8 \) ]" \  y+ d5 n/ c; D
  30. Format                           : Vorbis* T; C$ g  B- }0 I2 w
  31. Format settings, Floor           : 1* G# h4 Q- ?* ^. l( l7 T" c
  32. Codec ID                         : A_VORBIS- h1 D% x  ]) y
  33. Duration                         : 49mn 42s
    - |$ S( t4 Q: m  ~- X. G
  34. Bit rate                         : 160 Kbps
    0 G8 b. _% ?( V2 E; M9 m- Y6 s1 M
  35. Channel(s)                       : 1 channel! p4 J! m6 C" c- J. V. @/ E& a
  36. Sampling rate                    : 48.0 KHz
    $ c1 b) j) X+ F& K6 @2 {2 X
  37. Stream size                      : 56.9 MiB (46%)5 g9 m: @- ]7 p  [7 @
  38. Writing library                  : aoTuV 20110424 (UTC 2011-04-24)
    9 \! p" W1 Z9 h
  39. Language                         : un
复制代码
. f& ^/ t4 @+ u4 a

+ X3 j( D6 B, w1 Q0 Y3 `【下载地址】8 C0 Q) Y3 M( H3 z5 m: x1 z
游客,如果您要查看本帖隐藏内容请回复  捐助论坛可免回复查看隐藏内容 详情请点击
最近访问 头像模式 列表模式
HD一条街,身边的一条街。
脑残箭请问i 该用户已被删除
发表于 2013-12-8 20:38:16 | 显示全部楼层
提示: 作者被禁止或删除 内容自动屏蔽
HD一条街,身边的一条街。
xbfn24 该用户已被删除
发表于 2013-12-8 20:41:50 来自手机 | 显示全部楼层
提示: 作者被禁止或删除 内容自动屏蔽
HD一条街,身边的一条街。
barret7824 该用户已被删除
发表于 2013-12-8 22:51:29 | 显示全部楼层
提示: 作者被禁止或删除 内容自动屏蔽
HD一条街,身边的一条街。
联威科技 该用户已被删除
发表于 2013-12-8 23:57:28 | 显示全部楼层
提示: 作者被禁止或删除 内容自动屏蔽
HD一条街,身边的一条街。
活着的死人 该用户已被删除
发表于 2013-12-9 03:16:10 来自手机 | 显示全部楼层
提示: 作者被禁止或删除 内容自动屏蔽
HD一条街,身边的一条街。
发表于 2013-12-9 08:12:18 | 显示全部楼层
喜欢陈晓东,谢谢楼主分享!
HD一条街,身边的一条街。
发表于 2013-12-9 09:44:04 | 显示全部楼层
感谢楼主分享!!!
HD一条街,身边的一条街。
jicemoon 该用户已被删除
发表于 2013-12-9 11:00:54 | 显示全部楼层
提示: 作者被禁止或删除 内容自动屏蔽
HD一条街,身边的一条街。
飞扬 该用户已被删除
发表于 2013-12-9 12:00:23 | 显示全部楼层
提示: 作者被禁止或删除 内容自动屏蔽
HD一条街,身边的一条街。
您需要登录后才可以回帖 登录 | 加入我们

本版积分规则

手机版|小黑屋|有问题发邮件到admin#(换成@)hd1tj.org|微博|免责申明|HD一条街

GMT+8, 2017-2-26 11:18

Powered by Discuz! X3.1

© 2001-2013 Comsenz Inc.

快速回复 返回顶部 返回列表