开启辅助访问 切换到窄版

HD一条街论坛

 找回密码
 立即注册
查看: 2176|回复: 57

[其它] [迅雷快传][倩女幽魂 2003版 全40集][MKV版/5G][国语 英文字幕][2003年/徐熙媛/陈晓东/宣萱/吴京/罗嘉良主演的香港古装爱情剧]

  [复制链接]
发表于 2013-12-8 20:34:00 | 显示全部楼层 |阅读模式
1XmDK.jpg
; U4 k8 {& G0 |: f
$ H2 [" b6 E' ]) f& v9 z- ~导演: 陈十三
+ y3 H4 `& _( E4 U. m6 B+ {主演: 徐熙媛 / 陈晓东 / 宣萱 / 吴京 / 罗嘉良 / 邓萃雯 / 吕颂贤 / 元华 / 麦家琪 / 聂远' T. S. d8 g# R2 E3 v' m7 T
类型: 爱情 / 武侠 / 古装
( l( h+ ~3 L+ o; v% r& N7 c制片国家/地区: 香港
" d5 K+ d$ h$ t: S3 i0 N语言: 普通话/国语% s. ]: i3 g& `0 C4 ~
集数: 40
2 }- `( n$ N5 k- y' |又名: 천녀유혼
8 i9 X) J& `5 s  g0 R& p; \2 a) [# L, e$ I% l! {# T9 d1 B( s
倩女幽魂的剧情简介  ·  ·  ·  ·  ·  ·
% f+ b6 |" @  Y7 H9 o  大唐元年,天下繁盛。然而一段有关“七世怨侣”的预言,却使众人惶惶不得终日。传说魔道将凭七世怨侣的力量而得天下,人间从此化作无间地狱。玄心正宗的宗主燕赤霞(元华饰)尽展平生所学和魔君六道(罗嘉良饰)大战,魔君六道被燕赤霞杀死,留下一子七夜(聂远饰)。二十年后,一介书生宁采臣(陈晓东饰)来到有妖孽作崇的南郭镇。在入镇以前,宁采臣就接连遇见了很多离奇之事。先是被装神弄鬼的狐妖聂小倩(徐熙媛饰)吓个半死,然后又遇到一个叫人摸不着头脑的神秘少女马红叶(宣萱饰)。入镇以后,更被一个自称燕赤霞首席弟子的诸葛流云(吴京饰)苦缠。因缘际会,在冥冥中的安排下,一场凄美的人鬼情悲情上演。 6 g3 i3 V0 _5 M$ D( p6 ^( ], ^8 c) g
  由亚视著名鬼才编剧陈十三执导的古装奇幻电视剧《倩女幽魂》,根据我国经典名著聊斋的故事《聂小倩》改编。这部多地区合拍版剧集,两岸三地众星加盟,重新演绎一段至死不渝的真爱故事。
" y/ U: C/ Z/ D/ t; r, w  R
) s9 k; Q/ J1 @+ FTitle: 倩女幽魂 / Qian Nv You Hun) F# J  @. [. d, ?
Also known as: Eternity: A Chinese Ghost Story
7 I6 u3 n4 ^$ x& HEpisodes: 40
3 {3 D9 ]9 K3 z! Y3 y1 ~3 vBroadcast network: CTS
: }5 W4 U" L: [* x% vBroadcast year: 2003
7 V0 I. K1 m3 B1 u% `; pOpening theme song: Qian Nv You Hun by Daniel Chan
/ E' B. a) X2 y0 u) o4 AEnding theme song: What Can I Do by Daniel Chan
. A9 P) @. `' _# Z& G
' ?: }& z" ~, c; _% w  [Subtitles: English
6 c' U3 V2 F4 \+ CLanguage: Mandarin
  1. Format                           : mkv0 V8 H0 j; h8 S+ G+ Q' S
  2. Format/Info                      : Advanced Video Codec
    / F7 z4 R: P( S
  3. Format profile                   : [email protected]" z1 n, F" ^3 q4 q
  4. Format settings, CABAC           : Yes
    & f3 V9 T9 n, @) O/ A" M) z
  5. Format settings, ReFrames        : 8 frames' G: S9 ^- B4 f+ h1 e+ N
  6. Codec ID                         : V_MPEG4/ISO/AVC* L  a' B. ^6 X$ b
  7. Duration                         : 49mn 42s6 F6 r( j; |, x
  8. Bit rate                         : 178 Kbps
    4 P; Z" r7 g1 w* N6 t! X4 d
  9. Width                            : 352 pixels: @3 H  E6 F7 S  {" H( E* l
  10. Height                           : 288 pixels+ }# I- H8 n0 }; E3 j
  11. Display aspect ratio             : 1.222
    ( H- @. R% c; X" x, J( U% q
  12. Frame rate mode                  : Variable
    * {) J2 V9 l, \+ s: L0 B" S9 m2 T
  13. Frame rate                       : 25.000 fps
    2 Y3 ?3 ~: k) L' Y
  14. Standard                         : PAL
    4 O: R; }- l+ t6 p+ K! L6 ]
  15. Color space                      : YUV3 \1 @' _2 m, s- \1 r
  16. Chroma subsampling               : 4:2:0% B8 i% W" e& r( `' M
  17. Bit depth                        : 8 bits5 r: u7 Q9 ]9 S) r: D' Z
  18. Scan type                        : Progressive6 Y  V) T$ }6 j3 a) w! Z
  19. Bits/(Pixel*Frame)               : 0.0707 K# \( J8 `5 V! \1 I, L- h
  20. Stream size                      : 63.3 MiB (52%)' z; l/ U1 o4 }/ ?4 T
  21. Writing library                  : x264 core 122( x& L  W3 k/ }9 U2 X8 s  M
  22. Encoding settings                : cabac=1 / ref=8 / deblock=1:1:1 / analyse=0x3:0x133 / me=umh / subme=10 / psy=1 / psy_rd=0.00:0.00 / mixed_ref=1 / me_range=16 / chroma_me=1 / trellis=2 / 8x8dct=1 / cqm=0 / deadzone=21,11 / fast_pskip=1 / chroma_qp_offset=0 / threads=6 / sliced_threads=0 / nr=0 / decimate=1 / interlaced=0 / bluray_compat=0 / constrained_intra=0 / bframes=5 / b_pyramid=2 / b_adapt=2 / b_bias=0 / direct=1 / weightb=1 / open_gop=0 / weightp=2 / keyint=250 / keyint_min=25 / scenecut=40 / intra_refresh=0 / rc_lookahead=50 / rc=crf / mbtree=1 / crf=26.0 / qcomp=0.60 / qpmin=3 / qpmax=69 / qpstep=4 / ip_ratio=1.40 / aq=1:0.60/ v: Q% d% Q% Y- V' V  ^
  23. Language                         : English  f$ X, p$ V4 r2 ~7 M
  24. Color primaries                  : BT.470-6 System B, BT.470-6 System G, BT.601-6 625, BT.1358 625, BT.1700 625 PAL, BT.1700 625 SECAM
    $ v% Z- a) i# D! d1 ?
  25. Transfer characteristics         : BT.709-5, BT.1361* I' A, s' o, W, b( G- ~
  26. Matrix coefficients              : BT.601-6 525, BT.1358 525, BT.1700 NTSC, SMPTE 170M2 O9 F1 x' C* u2 M: }8 w% J
  27. 3 b8 S# Q- t! a* u8 U
  28. Audio
    ) M* M# U  T( j6 h) b
  29. ID                               : 2
    / L$ n; x& L+ v! ]9 P$ b
  30. Format                           : Vorbis
    & y, o1 M1 I' C' L
  31. Format settings, Floor           : 16 a0 p9 f6 d% c( d1 h5 P+ n5 H- Y
  32. Codec ID                         : A_VORBIS- `0 }8 J( k' L% n2 ^
  33. Duration                         : 49mn 42s
    * F, F2 g% H, A; o% g& E1 C
  34. Bit rate                         : 160 Kbps
    6 w8 R) @" {) A
  35. Channel(s)                       : 1 channel3 O  v& q' z, W  T2 C$ S" v
  36. Sampling rate                    : 48.0 KHz
    % z; s2 W' {. ]) a9 v( `+ w
  37. Stream size                      : 56.9 MiB (46%)( v% c* K) v' }% c
  38. Writing library                  : aoTuV 20110424 (UTC 2011-04-24)
    2 G; q) V6 e1 u+ X# m
  39. Language                         : un
复制代码

" L0 K+ [) ~# C" ~: \) p" ~8 j4 e
【下载地址】
4 q( z$ J& P  j, t
游客,如果您要查看本帖隐藏内容请回复  捐助论坛可免回复查看隐藏内容详情请点击
最近访问 头像模式 列表模式
HD一条街,身边的一条街。
脑残箭请问i 该用户已被删除
发表于 2013-12-8 20:38:16 | 显示全部楼层
提示: 作者被禁止或删除 内容自动屏蔽
HD一条街,身边的一条街。
xbfn24 该用户已被删除
发表于 2013-12-8 20:41:50 来自手机 | 显示全部楼层
提示: 作者被禁止或删除 内容自动屏蔽
HD一条街,身边的一条街。
barret7824 该用户已被删除
发表于 2013-12-8 22:51:29 | 显示全部楼层
提示: 作者被禁止或删除 内容自动屏蔽
HD一条街,身边的一条街。
联威科技 该用户已被删除
发表于 2013-12-8 23:57:28 | 显示全部楼层
提示: 作者被禁止或删除 内容自动屏蔽
HD一条街,身边的一条街。
活着的死人 该用户已被删除
发表于 2013-12-9 03:16:10 来自手机 | 显示全部楼层
提示: 作者被禁止或删除 内容自动屏蔽
HD一条街,身边的一条街。
发表于 2013-12-9 08:12:18 | 显示全部楼层
喜欢陈晓东,谢谢楼主分享!
HD一条街,身边的一条街。
发表于 2013-12-9 09:44:04 | 显示全部楼层
感谢楼主分享!!!
HD一条街,身边的一条街。
jicemoon 该用户已被删除
发表于 2013-12-9 11:00:54 | 显示全部楼层
提示: 作者被禁止或删除 内容自动屏蔽
HD一条街,身边的一条街。
飞扬 该用户已被删除
发表于 2013-12-9 12:00:23 | 显示全部楼层
提示: 作者被禁止或删除 内容自动屏蔽
HD一条街,身边的一条街。
您需要登录后才可以回帖 登录 | 立即注册

本版积分规则

手机版|小黑屋|有问题发邮件到admin#(换成@)hd1tj.org|微博|免责申明|HD一条街

GMT+8, 2016-12-6 18:15

Powered by Discuz! X3.1

© 2001-2013 Comsenz Inc.

快速回复 返回顶部 返回列表