开启辅助访问 切换到窄版

HD一条街论坛

 找回密码
 加入我们
查看: 2368|回复: 57

[其它] [迅雷快传][倩女幽魂 2003版 全40集][MKV版/5G][国语 英文字幕][2003年/徐熙媛/陈晓东/宣萱/吴京/罗嘉良主演的香港古装爱情剧]

  [复制链接]
发表于 2013-12-8 20:34:00 | 显示全部楼层 |阅读模式
1XmDK.jpg 7 |% {6 u1 x; P. w" e1 h

5 x/ [) Z: j" r; |+ Y, n8 a4 W7 s导演: 陈十三/ l5 g6 c" b2 n2 n# U
主演: 徐熙媛 / 陈晓东 / 宣萱 / 吴京 / 罗嘉良 / 邓萃雯 / 吕颂贤 / 元华 / 麦家琪 / 聂远8 }9 j+ w- Y5 M! ~
类型: 爱情 / 武侠 / 古装
. H% v: _, T: {制片国家/地区: 香港, f* c4 V8 K( g
语言: 普通话/国语# \9 G2 ^, Y  E! x2 f/ x$ Y
集数: 40
( \, S+ c1 n3 p1 z) a又名: 천녀유혼) r8 G6 m$ e% r$ S

& Z; [% q9 Q! F. J' ~+ K3 p9 u* d倩女幽魂的剧情简介  ·  ·  ·  ·  ·  ·
' O  e8 \! P$ N  大唐元年,天下繁盛。然而一段有关“七世怨侣”的预言,却使众人惶惶不得终日。传说魔道将凭七世怨侣的力量而得天下,人间从此化作无间地狱。玄心正宗的宗主燕赤霞(元华饰)尽展平生所学和魔君六道(罗嘉良饰)大战,魔君六道被燕赤霞杀死,留下一子七夜(聂远饰)。二十年后,一介书生宁采臣(陈晓东饰)来到有妖孽作崇的南郭镇。在入镇以前,宁采臣就接连遇见了很多离奇之事。先是被装神弄鬼的狐妖聂小倩(徐熙媛饰)吓个半死,然后又遇到一个叫人摸不着头脑的神秘少女马红叶(宣萱饰)。入镇以后,更被一个自称燕赤霞首席弟子的诸葛流云(吴京饰)苦缠。因缘际会,在冥冥中的安排下,一场凄美的人鬼情悲情上演。
: _3 k' M0 q8 R" R) J% M0 L  由亚视著名鬼才编剧陈十三执导的古装奇幻电视剧《倩女幽魂》,根据我国经典名著聊斋的故事《聂小倩》改编。这部多地区合拍版剧集,两岸三地众星加盟,重新演绎一段至死不渝的真爱故事。; F4 J6 Z( k' H' ?2 v9 W- j
) C- g1 x. r( G6 C3 c& X- J
Title: 倩女幽魂 / Qian Nv You Hun
6 i6 w: m2 O: i& o* r3 RAlso known as: Eternity: A Chinese Ghost Story
1 z% D$ f& e+ XEpisodes: 409 B$ p& r; k) J) u6 i4 x
Broadcast network: CTS
7 o- m8 M' u6 ?- A5 v# qBroadcast year: 2003
$ m; C, o) b$ X6 K  {Opening theme song: Qian Nv You Hun by Daniel Chan
. ?2 P$ X& ~& W4 I) EEnding theme song: What Can I Do by Daniel Chan
+ m3 {$ z1 D0 |5 ~+ m1 W: a1 ?2 ?/ J4 E
Subtitles: English& _" w+ h' @7 A3 K
Language: Mandarin
  1. Format                           : mkv
    : P* S4 k4 U( u* l; W9 {$ I9 w3 m/ s
  2. Format/Info                      : Advanced Video Codec; Q* f+ P/ G" v% C% e
  3. Format profile                   : [email protected]9 A: l3 i! X8 G, |2 c- a
  4. Format settings, CABAC           : Yes) f# \& y% M% i; Q9 {/ ^; J
  5. Format settings, ReFrames        : 8 frames8 G2 ^5 ]7 n4 R# G, {$ L; [6 |; ^& J
  6. Codec ID                         : V_MPEG4/ISO/AVC
    . x5 o% w" H; M% p8 r5 d! \" \
  7. Duration                         : 49mn 42s2 b2 j2 o8 n0 V" \2 Q  P
  8. Bit rate                         : 178 Kbps
    ! O- _. A( k& h' [* e) Y1 v2 J5 y2 k
  9. Width                            : 352 pixels6 f* E  k  Y0 o# ]8 O! X
  10. Height                           : 288 pixels9 U' G# ]! c+ s: g9 w
  11. Display aspect ratio             : 1.2221 a) s8 k9 [# q- V5 U& _# ?, Q/ S: b
  12. Frame rate mode                  : Variable
    " }" m5 R9 d5 l3 }
  13. Frame rate                       : 25.000 fps
    4 ^& v5 K' X2 H) t% u
  14. Standard                         : PAL
    5 ]2 P0 o, x( ], R- L0 v
  15. Color space                      : YUV
    " w" F( a. [- k
  16. Chroma subsampling               : 4:2:0) i. w8 p' f: G7 [0 D
  17. Bit depth                        : 8 bits
    2 [: ?+ P& R1 i- v
  18. Scan type                        : Progressive0 e: |6 i+ e' B" U* o" }
  19. Bits/(Pixel*Frame)               : 0.070
    : V9 q! }6 e8 o7 b9 L* k1 I& B# [
  20. Stream size                      : 63.3 MiB (52%)! G' N* X2 M" d# \, ?
  21. Writing library                  : x264 core 122
    , J, y% \' z* r- R8 P
  22. Encoding settings                : cabac=1 / ref=8 / deblock=1:1:1 / analyse=0x3:0x133 / me=umh / subme=10 / psy=1 / psy_rd=0.00:0.00 / mixed_ref=1 / me_range=16 / chroma_me=1 / trellis=2 / 8x8dct=1 / cqm=0 / deadzone=21,11 / fast_pskip=1 / chroma_qp_offset=0 / threads=6 / sliced_threads=0 / nr=0 / decimate=1 / interlaced=0 / bluray_compat=0 / constrained_intra=0 / bframes=5 / b_pyramid=2 / b_adapt=2 / b_bias=0 / direct=1 / weightb=1 / open_gop=0 / weightp=2 / keyint=250 / keyint_min=25 / scenecut=40 / intra_refresh=0 / rc_lookahead=50 / rc=crf / mbtree=1 / crf=26.0 / qcomp=0.60 / qpmin=3 / qpmax=69 / qpstep=4 / ip_ratio=1.40 / aq=1:0.60( S$ Z  q3 K. @+ B3 b
  23. Language                         : English) L: b& H8 y  v& }" @" f) B" E! @
  24. Color primaries                  : BT.470-6 System B, BT.470-6 System G, BT.601-6 625, BT.1358 625, BT.1700 625 PAL, BT.1700 625 SECAM
    . S+ [' z( T. m1 D2 M* Y
  25. Transfer characteristics         : BT.709-5, BT.1361
    , E/ e# U* R+ e' S
  26. Matrix coefficients              : BT.601-6 525, BT.1358 525, BT.1700 NTSC, SMPTE 170M( m9 ?/ `* `  ?2 O5 ]9 A
  27. % t% N! x: x9 i- V8 ]/ f* e
  28. Audio
    + e- A6 l# d" }' I
  29. ID                               : 2
    5 Q7 ~2 u6 H% o4 o, f6 x" J
  30. Format                           : Vorbis
    , k# n) f. k& w! I* x
  31. Format settings, Floor           : 1
    9 [2 l5 s& i" p9 I. a. K1 w
  32. Codec ID                         : A_VORBIS$ s2 ~  z. q7 j9 y
  33. Duration                         : 49mn 42s. O/ _" \& Y! H3 f: [+ z8 ]! y
  34. Bit rate                         : 160 Kbps0 G9 ~+ K; k% R3 P& [4 y" E5 O8 k
  35. Channel(s)                       : 1 channel' k5 x% d6 B) |# X0 D
  36. Sampling rate                    : 48.0 KHz
    8 O1 Z2 v3 k- K$ C( |9 O' v. E
  37. Stream size                      : 56.9 MiB (46%)
    / h  w! O7 S; v/ c6 ~# D1 x& O
  38. Writing library                  : aoTuV 20110424 (UTC 2011-04-24)
    ( b# U3 }5 W) Y& Q: K5 ]8 o3 u0 D
  39. Language                         : un
复制代码

6 i. {% J; _& \* U
  q1 r2 }" X8 N8 k5 [  Y【下载地址】  N- Z/ c7 C# @( s* ~) h2 u+ O# p
游客,如果您要查看本帖隐藏内容请回复  捐助论坛可免回复查看隐藏内容 详情请点击
最近访问 头像模式 列表模式
HD一条街,身边的一条街。
脑残箭请问i 该用户已被删除
发表于 2013-12-8 20:38:16 | 显示全部楼层
提示: 作者被禁止或删除 内容自动屏蔽
HD一条街,身边的一条街。
xbfn24 该用户已被删除
发表于 2013-12-8 20:41:50 来自手机 | 显示全部楼层
提示: 作者被禁止或删除 内容自动屏蔽
HD一条街,身边的一条街。
barret7824 该用户已被删除
发表于 2013-12-8 22:51:29 | 显示全部楼层
提示: 作者被禁止或删除 内容自动屏蔽
HD一条街,身边的一条街。
联威科技 该用户已被删除
发表于 2013-12-8 23:57:28 | 显示全部楼层
提示: 作者被禁止或删除 内容自动屏蔽
HD一条街,身边的一条街。
活着的死人 该用户已被删除
发表于 2013-12-9 03:16:10 来自手机 | 显示全部楼层
提示: 作者被禁止或删除 内容自动屏蔽
HD一条街,身边的一条街。
发表于 2013-12-9 08:12:18 | 显示全部楼层
喜欢陈晓东,谢谢楼主分享!
HD一条街,身边的一条街。
发表于 2013-12-9 09:44:04 | 显示全部楼层
感谢楼主分享!!!
HD一条街,身边的一条街。
jicemoon 该用户已被删除
发表于 2013-12-9 11:00:54 | 显示全部楼层
提示: 作者被禁止或删除 内容自动屏蔽
HD一条街,身边的一条街。
飞扬 该用户已被删除
发表于 2013-12-9 12:00:23 | 显示全部楼层
提示: 作者被禁止或删除 内容自动屏蔽
HD一条街,身边的一条街。

手机版|小黑屋|有问题发邮件到admin#(换成@)hd1tj.org|微博|免责申明|HD一条街

GMT+8, 2017-3-24 06:14

Powered by Discuz! X3.1

© 2001-2013 Comsenz Inc.

快速回复 返回顶部 返回列表