HD一条街

 找回密码
 立即注册
搜索
查看: 282|回复: 7

[1080p] 怪客 Stranger.from.Canton.1973.CHINESE.1080p.AMZN.WEBRip.DDP2.0.x264-tG1R0 9.18G

[复制链接]
发表于 2020-9-26 01:28:28 | 显示全部楼层 |阅读模式

马上注册,结交更多好友,享用更多功能,让你轻松玩转社区。

您需要 登录 才可以下载或查看,没有帐号?立即注册

x
: m0 l  ^6 E2 I$ F4 P/ i! W7 z
                               
登录/注册后可看大图
3 ]' S/ ]5 L) f) m+ C

' [( O! y' S1 z& m* g) \& v- |◎译  名 Stranger from Canton / The Karate Killers
. F# J# S: x/ k/ i- p' f◎片  名 怪客; Q5 W6 T7 J7 L+ Q5 o; |4 D- K
◎年  代 1973
4 y4 Q4 C8 Y2 J7 Q+ ~  E◎产  地 中国香港
8 w; U0 |: V7 e  s' F) W◎类  别 动作
1 v/ s2 k. F$ k! x" F# g" [◎语  言 粤语
! j6 F4 e- [$ \4 x# \6 T5 X◎上映日期 1973-12-13
9 Y% E$ U; x( M7 a% [3 N◎豆瓣链接 https://movie.douban.com/subject/21340780/  S5 H7 I2 X: _- U
◎演  员 白彪 / Jason Pai. E) \/ E6 b" @! o
      鲁俊谷 / Chin-Ku Lu
- L  |" ]7 \  f9 \9 c& [9 z      薛家燕 / Nancy Sit
# p3 U4 J3 ~# l: T6 T8 [* w      石修 / Sau Sek
+ r; H9 a  V/ a8 Y( E◎编  剧 倪匡 / Kuang Ni) [& A$ J$ P( Q% W2 j3 I

+ X( l2 R1 L6 p; E6 b- w◎标  签 魯俊谷 | 薛家燕 | 白彪
1 w! E4 Q% c  }3 O7 p+ U1 j8 S6 t* f

5 I/ d' G. }% H6 Q; x# q: M' P$ r, o, B0 n  E* R
4 V. o2 q4 B" t! F" B
ID : 1
' D: G) |5 I) ?; k4 m; L: RFormat : AVC& I$ g! |8 [  y- N3 }1 E9 W: O
Format/Info : Advanced Video Codec
1 `% V" L. W/ KFormat profile : High@L4
5 f8 d% D- B3 Y, UFormat settings : CABAC / 4 Ref Frames& G, O5 n! p" l/ i  R: X
Format settings, CABAC : Yes
: K- d5 T" b7 q$ ]9 T7 x+ eFormat settings, Reference frames : 4 frames
% E- j3 ]7 a/ vCodec ID : V_MPEG4/ISO/AVC
9 O; Q% e2 I& r7 @! bDuration : 1 h 28 min
9 m( Z, ~8 e3 }' G7 p3 @- X. y; mBit rate : 14.6 Mb/s
6 _; z$ u0 b! a  O/ ]Width : 1 920 pixels
; x9 p* |  r) [8 G5 eHeight : 816 pixels( o* W* ^  W  q0 v1 j
Display aspect ratio : 2.35:1
: e! i& d& A  t. i4 }/ M, qFrame rate mode : Constant! Z8 w' a# F5 e, {' A1 U( `* _
Frame rate : 23.976 (24000/1001) FPS( B* w  v4 e6 F, F) h7 `5 `
Color space : YUV
, \# Q2 y% c! |" x# j! }: Q" J/ DChroma subsampling : 4:2:0
* u" o! A1 ~: M$ pBit depth : 8 bits; x$ S. T$ R- N, r
Scan type : Progressive. E. j7 m8 W0 ]' y" _/ D
Bits/(Pixel*Frame) : 0.3899 h7 T- _. O8 j6 s, a% |/ w
Stream size : 9.04 GiB (98%)
* h2 v+ n: L" bTitle : Bodigaado Kiba Hissatsu sankaku tobi (1973) [Amazon JP]/ X* u% i# l' L+ D4 N7 |% M3 ~
Language : Japanese
" a+ `. I% h# |* s; I9 WDefault : Yes
/ m9 p+ b. }7 X$ fForced : No
6 K6 _7 [# h3 m8 m5 mColor range : Limited; U  T' k1 b6 r! H! W0 I
Color primaries : BT.709( V. W# E/ S5 ^  D4 }8 w
Transfer characteristics : BT.709
- R7 U% q5 W4 _0 d1 ?4 v1 _1 TMatrix coefficients : BT.709
5 ^% I' B# t8 @( y8 M
; x3 z  a) e7 C- M+ R- T! NAudio! Y: F& f: b  Z& Y
ID : 2
7 j2 R/ N1 d2 ~Format : E-AC-3% R5 X3 x: I5 w- A: j# c
Format/Info : Enhanced AC-35 K& {' g" e6 L3 O0 m
Commercial name : Dolby Digital Plus; x: F- B3 \$ k( l0 b) e6 ?( ^
Codec ID : A_EAC3
5 v, [) |3 b% _' n8 u6 D. _" \Duration : 1 h 28 min! V2 t  ^' E1 w8 X1 T. K8 \
Bit rate mode : Constant$ T  {, g* I; {6 C
Bit rate : 224 kb/s' w0 [8 U$ Z! _! P
Channel(s) : 2 channels* u1 Z% E4 s! n
Channel layout : L R
! g$ Q* z, X& s2 q: G- n6 ?Sampling rate : 48.0 kHz
; H: K$ ?/ G/ c+ y. S% B% ^Frame rate : 31.250 FPS (1536 SPF)$ d9 z' a  g% u7 U
Compression mode : Lossy& ]) h7 H5 r( e- T- U& b
Stream size : 142 MiB (2%)" S1 }/ j( W  D
Language : Japanese
! {& |; c/ I$ v7 p9 U" v2 f8 Z4 n2 S0 LService kind : Complete Main
; H2 Q3 f5 L# y" Q4 aDefault : Yes9 R" g5 {; _# E7 j
Forced : No
8 |( l3 m( s# X( j. Z; l  l7 ?8 q3 l* L) _! c7 o& _
Text
1 Y% l& w+ i: f, rID : 3
1 ?( _: b/ A0 t0 R& i2 y! ]Format : UTF-8
8 y2 A9 N' v, P) dCodec ID : S_TEXT/UTF86 g5 q" h* @7 V9 H
Codec ID/Info : UTF-8 Plain Text
" g% M- Y$ l, X# g% ODuration : 1 h 28 min% J5 u# |% k6 K! ]# j( \) ?) p
Bit rate : 24 b/s* f0 W% F' R( ~' l* P5 L' B  A& G
Count of elements : 556
0 O5 V* B5 W7 O3 v9 zStream size : 16.1 KiB (0%)
) r/ G8 p2 R8 ?( }* jLanguage: English7 A8 a3 C! ]" ]* H3 s/ f
Default : Yes3 M: L3 K, V3 T& K. r4 Z
Forced : No
$ A8 s' s- p; {: d) N& o9 ^; f+ w1 t2 a
8 B% B; N+ l" j- ?
游客,如果您要查看本帖隐藏内容请回复  VIP可免回复查看隐藏内容 详情请点击
发表于 2020-9-26 19:39:20 | 显示全部楼层
thank you very much
发表于 2020-9-27 08:21:11 | 显示全部楼层
谢谢楼主发布资源。
发表于 2020-9-27 18:26:03 | 显示全部楼层
邵氏出品,必属佳品
发表于 2020-9-28 00:04:21 | 显示全部楼层
thanks for share
发表于 2020-10-4 22:11:42 | 显示全部楼层
喜欢看这类型电影
发表于 2020-10-7 00:32:09 | 显示全部楼层
感谢分享老电影!
发表于 2020-10-8 19:07:39 | 显示全部楼层
thank you very much
, a7 }" _; E, {6 d
您需要登录后才可以回帖 登录 | 立即注册

本版积分规则

QQ|封号公示|手机版|有问题发邮件到admin#(换成@)hd1tj.org|微博|免责申明|HD一条街

GMT+8, 2020-11-25 16:19

快速回复 返回顶部 返回列表