HD一条街

 找回密码
 立即注册
搜索
查看: 167|回复: 15

[1080p] 富贵逼人[粤语 简繁中文字幕]Its.A.Mad.Mad.Mad.World.1987.CHINESE.1080p.BluRay.x264.DD5.1-PTer 8.78G

[复制链接]
发表于 2020-8-22 02:23:59 | 显示全部楼层 |阅读模式

马上注册,结交更多好友,享用更多功能,让你轻松玩转社区。

您需要 登录 才可以下载或查看,没有帐号?立即注册

x
$ n2 T8 o$ q+ x1 c
                               
登录/注册后可看大图
) L, V7 G1 O' K

( a" X5 {  t8 b9 ~, {& K◎译  名 富贵逼人/It's a Mad, Mad, Mad World/富贵迫人) R3 Y5 a2 ?6 `) E: A0 G
◎片  名 富貴逼人
7 R2 a5 w/ M' {$ [+ q2 N◎年  代 1987
- b: b0 u' f' {! a0 B! B◎产  地 中国香港" E( n, r7 `! |# n; q! p& r
◎类  别 喜剧 / 家庭 / 奇幻- a) z$ Y+ z2 A6 G, g- n) w
◎语  言 粤语6 C' W/ q: U! n. D, X0 D  A2 G0 ~
◎上映日期 1987-01-28- B9 z) x3 b# A3 q' G' ~
◎IMDb评分  6.6/10 from 204 users! \* I3 K4 e$ S9 o& _
◎IMDb链接  https://www.imdb.com/title/tt0091090/
* {( p& }) I+ L* B& l◎豆瓣评分 7.6/10 from 18936 users: E  }4 K7 h; O
◎豆瓣链接 https://movie.douban.com/subject/1302927/$ V2 D8 q$ \, H* ?
◎片  长 90分钟
. f0 n! {% D/ p1 U8 F* G◎导  演 高志森 Clifton Ko8 ?) A4 c9 a7 [1 E: f
◎编  剧 高志森 Clifton Ko / 黎国明 Kwok-ming Lai: C* P; _) s( }
◎主  演 沈殿霞 Lydia Shum
; G! T5 s! a/ p2 o( |, a5 E" t& z       董骠 Bill Tung0 Y+ g, p' [- Q: b
       曾志伟 Eric Tsang
* [; [$ W: ]& B  G. u/ {( z       姜大卫 David Chiang: ^5 n" G1 x: f- ~2 v8 R
       陈奕诗 Elsie Chan/ ?8 u$ c9 k/ |6 e5 r5 y- L- ~8 d
       李丽珍 Loletta Lee; w0 m# G8 H- @6 u, ~' a$ @& U5 B6 r( Q
       关佩琳 Pauline Kwan
% X- q1 c! X" ], p# {; H       叶荣祖 Wing-Cho Yip" h1 ]7 b$ L  y
       梁珊 Shan Leung
4 B) Q4 b. a" p       许莹英 Ying-Ying Hui# v2 N# k0 Q, t2 N( g# o6 x
       潘雁英 An-Ying Poon. I( }8 F8 A" Q( T) x0 G3 j
       梁克逊 Hak Shun Leung
1 i# q- e, w5 B& l8 v. d% C+ r       王书麒 Jimmy Wong Shu-Kei  h+ o9 p. x+ B5 R# E; v/ ^' {
       陈加玲 Charine Chan9 }- s. N% q7 D# w% w
       温文杰 Derek Wan9 s$ N+ ^* R4 x3 X
       刘嘉蔚 Catherine Lau9 v* r* ]0 Q- k; M# y2 u! q
       郭善玙 Zeny Kwok
: b3 }* {' X4 E' P( m1 f2 n3 W) J. e: T
◎标  签 喜剧 | 香港 | 香港电影 | 沈殿霞 | 曾志伟 | 搞笑 | 1987 | 高志森2 ]" m/ Q" Q2 b$ [- X5 u. o

. z. ^6 q; O, J/ ^. j$ ?4 r◎简  介
) I9 h: y3 e- e' Z1 U  \
8 z" T" q% {' T, \, k  骠叔(董骠 饰)在电视台当新闻主播,一家五口都靠他糊口,生活拮据。妻子骠婶(沈殿霞 饰)十分热衷买六合彩,总期待着有中奖的一天。
9 P- t, T- f; |2 H" T4 e1 s1 X8 X  # C: j8 V- M" y# E' D
  他们每天都梦想自己能变成富人,搬到宽大的屋子居住。他们终于中了六合彩头奖,本来一家人想好好利用这一笔横财,没想到他们存放巨款的银行突然倒闭了。更祸不单行的是,他们变富人的消息招来了恶手——他们的小女儿被绑架了,全家人着急得不得了。他们又变回了穷人,该如何拯救至亲呢?. [% Z2 f- W/ V, p" f* t7 F) K
, v) o$ h# n3 u
  1. Video
    9 A( c6 J1 O* j# M& D3 B" h  R
  2. ID : 1! M0 Z* ~& I  {' n# I0 R/ W
  3. Format : AVC0 h* D3 x& I+ M2 f
  4. Format/Info : Advanced Video Codec7 }* x2 ^  ~. N# U3 C2 A
  5. Format profile : High@L4.1' S# G! l+ D; I& p! _
  6. Format settings : CABAC / 4 Ref Frames( M3 E$ _7 k6 f( [
  7. Format settings, CABAC : Yes; H+ B( a5 `! W% t' H! H5 ~
  8. Format settings, Reference frames : 4 frames
      P( U! Q1 T1 _: j( Q
  9. Codec ID : V_MPEG4/ISO/AVC
    , u" y' Q% m$ ~" F
  10. Duration : 1 h 35 min
    + S1 D; T! r5 d" B1 ?
  11. Bit rate : 12.5 Mb/s  W7 g# {% Q, Y) b/ O% D# ~$ c
  12. Width : 1 918 pixels
    0 \! [% n# V% S! a4 [. X
  13. Height : 1 034 pixels
    4 u! V1 @- A2 p5 o- g
  14. Display aspect ratio : 1.85:1
    - ?% o1 }0 K* t4 j4 o
  15. Frame rate mode : Constant9 t9 k6 i( {( C3 k! |  V
  16. Frame rate : 24.000 FPS
    5 A9 v9 q. T1 |8 `* @: }
  17. Color space : YUV* K7 }( L; W8 ^
  18. Chroma subsampling : 4:2:0/ F) X+ W8 g9 m
  19. Bit depth : 8 bits
    $ U3 k+ p0 ^% J+ g
  20. Scan type : Progressive
    + ~* U7 B: @5 p9 U
  21. Bits/(Pixel*Frame) : 0.262
    ! E( V2 W7 E  i& x: l
  22. Stream size : 8.32 GiB (95%)
    - f! ^2 x8 g2 K: ~7 g0 T& p
  23. Writing library : x264 core 158 r2984 3759fcb
    5 B0 ]) `2 |) U2 a) J  s
  24. Encoding settings : cabac=1 / ref=4 / deblock=1:-3:-3 / analyse=0x3:0x133 / me=umh / subme=11 / psy=1 / psy_rd=1.02:0.00 / mixed_ref=1 / me_range=32 / chroma_me=1 / trellis=2 / 8x8dct=1 / cqm=0 / deadzone=21,11 / fast_pskip=0 / chroma_qp_offset=-2 / threads=32 / lookahead_threads=5 / sliced_threads=0 / nr=0 / decimate=0 / interlaced=0 / bluray_compat=0 / constrained_intra=0 / bframes=7 / b_pyramid=2 / b_adapt=2 / b_bias=0 / direct=3 / weightb=1 / open_gop=0 / weightp=2 / keyint=250 / keyint_min=24 / scenecut=40 / intra_refresh=0 / rc_lookahead=250 / rc=crf / mbtree=0 / crf=18.2 / qcomp=0.60 / qpmin=0 / qpmax=69 / qpstep=4 / vbv_maxrate=62500 / vbv_bufsize=78125 / crf_max=0.0 / nal_hrd=none / filler=0 / ip_ratio=1.30 / pb_ratio=1.20 / aq=3:0.80
    : w( a5 k! v4 x' |
  25. Language : English
    . I6 Z! A) X5 k( Q/ F: h
  26. Default : Yes
    ' @# o# u: r/ s
  27. Forced : No4 ]3 ]0 L+ B. w$ E& o$ P  v
  28. Color range : Limited$ c$ X3 ^6 c" y
  29. Color primaries : BT.709
    5 Y1 R0 e, ^+ v# Q. i
  30. Matrix coefficients : BT.709
    ) ^; s8 j+ w% p# }1 j! e7 r# e, Q
  31. 9 x% _. W: v2 g& P2 B
  32. Audio
    9 s5 c3 }4 F6 m9 y  v, t$ x
  33. ID : 2
    & L7 c3 _" ^3 R! ?6 r0 u) I7 O
  34. Format : AC-3% Y& o' [& ^, B8 [
  35. Format/Info : Audio Coding 38 @! i0 q& p0 a; H
  36. Commercial name : Dolby Digital( x' I# J- G. d  w
  37. Codec ID : A_AC34 M! E4 D/ X7 g& A- k9 q5 c
  38. Duration : 1 h 35 min
    " a& z: }2 i8 Y: }/ N6 p$ q  M* P
  39. Bit rate mode : Constant
    ' e! h4 F4 _- H* i3 |& i
  40. Bit rate : 640 kb/s2 X4 V; W1 W9 H3 N4 b' l
  41. Channel(s) : 6 channels
    $ l6 Q7 A+ |* J. t9 h$ e
  42. Channel layout : L R C LFE Ls Rs: Z. C' e& x6 u. H% U+ t! H
  43. Sampling rate : 48.0 kHz
    & p0 o' \% W" h7 O
  44. Frame rate : 31.250 FPS (1536 SPF)$ p1 `! V/ E/ o) u
  45. Compression mode : Lossy
      e) S3 S1 p* L6 ~
  46. Stream size : 437 MiB (5%)
    5 v& u$ v% d5 Y6 q- V
  47. Title : Cantonese  Q3 f5 L0 N$ i" R6 y" g
  48. Language : Chinese# Q! L( b# k4 N. C3 I  c: O
  49. Service kind : Complete Main" y* N5 z2 W" X' @; [
  50. Default : No7 U7 A) @9 I  e, V
  51. Forced : No
    6 R" X- V( M7 w8 S  y9 e8 D
  52. * q3 r1 X% A) a* q
  53. Text #17 y4 n0 n! u# i- p: d* }1 q2 H
  54. ID : 3; C  Y- s4 F6 a  `1 W7 M+ c
  55. Format : UTF-8
    2 q- _( }/ _' }+ u  i
  56. Codec ID : S_TEXT/UTF8
    : l$ ?1 _4 M1 m9 X/ P* W' }
  57. Codec ID/Info : UTF-8 Plain Text; J/ J# G% T8 k: J; R7 A
  58. Duration : 1 h 31 min
    ( j# E  H2 f/ p: O: o; ]
  59. Bit rate : 76 b/s' i9 J8 D1 }/ U, n% i
  60. Count of elements : 1813& \! {: z# v7 S! K" y7 H
  61. Stream size : 51.1 KiB (0%)
    : ^1 b& {, m1 E+ G/ A" F+ ]0 `
  62. Language : English8 n- N1 Q3 v3 ?8 A! {
  63. Default : Yes
    : x! k& W$ S" W7 b
  64. Forced : No
    : P; J' z& @1 W- K4 |
  65. # v' A* s, j: L7 \* q0 Z- {
  66. Text #2% ~! [! F. h8 f
  67. ID : 47 }% F' m8 I8 |
  68. Format : PGS
    * \+ U, u" a% f* `8 L$ a9 G
  69. Muxing mode : zlib
    ! r5 e/ g; I! ?5 z2 i' m
  70. Codec ID : S_HDMV/PGS0 ~! a0 ~4 |/ w( F- }
  71. Codec ID/Info : Picture based subtitle format used on BDs/HD-DVDs' r. v8 C+ d' W1 z& ?' Y, c; w; ?
  72. Duration : 1 h 31 min
    / T- t9 E5 Q" Y! h" [# _
  73. Bit rate : 60.9 kb/s
    ' L; [* e, v+ {- d& v/ ~1 a
  74. Count of elements : 36143 n/ T$ n* y2 y- L* l! w2 `
  75. Stream size : 40.0 MiB (0%)
      r- \7 k& L% ]* W# C
  76. Language : English/ ^# N7 K* g, l( H8 K! J& j
  77. Default : No! Z- I# i' h0 H6 [' m1 y9 _
  78. Forced : No, }5 \: W* A! X8 q8 b& h3 X) p

  79. " q( X7 p3 F2 J  D/ F
  80. Text #3
    $ N  ]8 ^+ l5 E* d! p3 j# f
  81. ID : 54 {6 L2 F5 r: A( ~9 `4 V4 e
  82. Format : PGS
    ; ~. H9 F  K1 _( l; P. _1 M% B
  83. Muxing mode : zlib
    # I$ _+ t) A0 r5 \- m+ I5 f' W
  84. Codec ID : S_HDMV/PGS
    ! u' I4 H2 g8 z* P5 N
  85. Codec ID/Info : Picture based subtitle format used on BDs/HD-DVDs
    ( [3 D3 o" Y% p' e7 k5 H* q' W
  86. Duration : 1 h 31 min
    ' _8 n+ u, O# J/ S
  87. Bit rate : 48.9 kb/s
    , J5 V: s1 ^) W
  88. Count of elements : 3614/ ~- F7 x, M% `8 |
  89. Stream size : 32.1 MiB (0%)8 E7 `# S/ Q; z: c  H! w
  90. Title : CHS% o  K- F0 O4 Z4 F9 L6 e7 x
  91. Language : Chinese& \" s0 u. k- i, j8 t9 k
  92. Default : No0 b6 Z: D; c' I6 r! [! v: v( _$ v
  93. Forced : No  F, v& Q3 N" [' j+ E
  94. 5 H' U& O9 P$ L, U- N
  95. Text #4
    9 p) J1 O+ a+ O% K
  96. ID : 6
    , O7 \, J) g, j/ F" [4 g9 J
  97. Format : PGS% J) j5 ~- M  d4 @8 C
  98. Muxing mode : zlib
    5 @4 S) M$ m, j
  99. Codec ID : S_HDMV/PGS) y: t3 i* n; h( A6 t! a; s
  100. Codec ID/Info : Picture based subtitle format used on BDs/HD-DVDs
      f2 B0 Q$ a& k& `
  101. Duration : 1 h 31 min+ w3 w' f$ |3 l  A2 ?7 N
  102. Bit rate : 49.9 kb/s
    5 W& w; Y% g* B
  103. Count of elements : 3612
    ' a2 t3 d* O$ O( \" f" B( j' {
  104. Stream size : 32.8 MiB (0%)5 ]" K" h5 a' f: h0 B! g
  105. Title : CHT- j2 Q. T% b3 j8 O& [! W1 L
  106. Language : Chinese' G5 Y4 W1 x) B1 p8 z; \  ~# p7 C
  107. Default : No
    0 P' w* l( d+ ?
  108. Forced : No7 |$ N. M, F: m8 ]( s( ]

  109. % I' {& n: ]0 v5 u0 W- X+ H8 V
  110. Menu$ ~# r, W$ N* A+ D1 |
  111. 00:00:00.000 : en:Chapter 1
    " m% V  }& y# v5 [% R
  112. 00:07:27.708 : en:Chapter 2( ~; v4 e; R0 M. t
  113. 00:15:59.000 : en:Chapter 3
    5 |& J; a% M1 f
  114. 00:24:46.666 : en:Chapter 4) T; R' k5 U! q0 Y
  115. 00:32:26.416 : en:Chapter 5/ ~( y7 j+ v0 H0 D
  116. 00:40:16.791 : en:Chapter 6! V- g) b; @( d8 O
  117. 00:46:41.458 : en:Chapter 7, K" b( o7 T4 J8 N$ n& v! E+ u
  118. 00:53:40.416 : en:Chapter 8
    2 s# F; g: s  A9 _
  119. 01:04:00.375 : en:Chapter 9+ _1 ]+ A, h2 ?# i
  120. 01:10:00.666 : en:Chapter 102 u  {3 o% w% J0 o/ ]& l/ V, Z- R
  121. 01:19:22.750 : en:Chapter 11
    - q3 z$ q8 t" J  v0 `
  122. 01:27:31.583 : en:Chapter 12
复制代码

3 [2 T( Q7 E. F- G& D4 p* k: ^) o" F3 c

( ?6 c0 w4 O, R4 Z
9 ~; `; g) Y' J$ k
0 A  g' |* u4 x+ M
游客,如果您要查看本帖隐藏内容请回复  VIP可免回复查看隐藏内容 详情请点击
发表于 2020-8-22 08:26:40 | 显示全部楼层
多謝楼主分享
发表于 2020-8-22 08:28:34 | 显示全部楼层
多謝楼主分享!
发表于 2020-8-22 23:23:12 | 显示全部楼层
骠叔好出名的片啊~值得睇睇
发表于 2020-8-23 00:50:05 | 显示全部楼层
很经典,画质修复很棒
发表于 2020-8-23 10:45:52 | 显示全部楼层
经典喜剧我喜欢
发表于 2020-8-23 10:47:02 | 显示全部楼层
感谢楼主分享。
您需要登录后才可以回帖 登录 | 立即注册

本版积分规则

QQ|封号公示|手机版|有问题发邮件到admin#(换成@)hd1tj.org|微博|免责申明|HD一条街

GMT+8, 2020-9-22 02:42

快速回复 返回顶部 返回列表