HD一条街

 找回密码
 立即注册
搜索
查看: 163|回复: 7

[欧美] 真人秀:与扎克·埃夫隆环游地球 第一季[自带中文字幕]Down.To.Earth.With.Zac.Efron.S01.1080p.NF.WEBRip.DDP5.1.x264-ASCENDANCE 17G

[复制链接]
发表于 2020-7-11 11:57:47 | 显示全部楼层 |阅读模式

马上注册,结交更多好友,享用更多功能,让你轻松玩转社区。

您需要 登录 才可以下载或查看,没有帐号?立即注册

x
  @9 r# B" ]) {" G  u5 P1 B1 ?
                               
登录/注册后可看大图

! @2 }' `5 Q+ i) J7 \4 H: g5 P  `1 o
◎译  名 与扎克·埃夫隆环游地球
6 Q% D; G1 j, c( ~! r0 t. E◎片  名 Down to Earth with Zac Efron
5 e5 g' J2 f- A8 v◎年  代 2020" \2 X2 m; ?+ |! @
◎产  地 美国
- P  U1 L( k) O5 I◎类  别 真人秀
3 R7 `0 V  k1 u9 k6 S( n1 s◎语  言 英语
/ H% e8 N) f* u2 ^3 L◎上映日期 2020-07-10(美国)5 k. A- Z3 z# e
◎IMDb链接  https://www.imdb.com/title/tt12585152
( g" ?( U! r1 R7 j7 l% ^) G! H◎豆瓣评分 0/10 from 0 users% S8 U( |, e% s, I0 r
◎豆瓣链接 https://movie.douban.com/subject/35117571/7 |3 ~8 W6 F$ J4 b2 X$ b, p
◎主  演 扎克·埃夫隆 Zac Efron
2 g- p' z( z& v! ?) ^4 k& d& Q       Darin Olien# D4 W1 I  l0 i" Z

# N$ N: \* E) N! ]( j+ E
1 T( c* s# L( M◎标  签 netflix
9 K/ a: A8 ]; x! y5 x# u) e# ]% s: a7 a6 u$ b8 y/ A9 g8 X
◎简  介  ( T" E  f& J& i1 K
5 L; N  F& _/ H! w8 q+ K7 F
  扎克·埃夫隆主持的Netflix旅游节目《与扎克·埃夫隆环游地球》(Down to Earth with Zac Efron,暂译)首曝剧照!扎克将与健康专家Darin Olien开启环球之旅,寻找健康、可持续的生活方式。该节目将于7月10日登陆Netflix。
  1. Video8 m4 R4 T* H3 U: o# o
  2. ID : 1+ k: B5 @, Z: s
  3. Format : AVC4 B4 B2 F! P1 Y6 o, D
  4. Format/Info : Advanced Video Codec
    ) w+ o) a7 N9 H
  5. Format profile : Main@L4* U, _5 C" f" ^; ~1 G  d: [+ J: `
  6. Format settings : CABAC / 3 Ref Frames* Z, o8 R/ @2 |1 r& f
  7. Format settings, CABAC : Yes
    * Q/ n2 N" L$ y! {) W/ A
  8. Format settings, Reference frames : 3 frames* c% _# A- @7 n! C% r' G
  9. Codec ID : V_MPEG4/ISO/AVC8 T# A  T6 U, s. T* V) u: n1 E& g
  10. Duration : 43 min 10 s
    9 `. H& Y: _* r' T  @9 A
  11. Bit rate mode : Variable
    ; W; M9 k# P- d/ f& d
  12. Bit rate : 7 500 kb/s/ q/ f/ _' l- U* k* |7 D' X# T* ~
  13. Maximum bit rate : 11.2 Mb/s% ]( w: H. l. U9 \5 s
  14. Width : 1 920 pixels# `0 J6 }) K4 S! h
  15. Height : 1 080 pixels" a$ z& F* M, [, \+ U
  16. Display aspect ratio : 16:9
    + S4 f( l9 g2 d
  17. Frame rate mode : Constant& K) P9 H+ K) c0 e4 d4 H; ~: a
  18. Frame rate : 23.976 (24000/1001) FPS
    ; h3 G  u2 H* ]' t
  19. Color space : YUV2 e8 [8 G) f  f. y! L6 P
  20. Chroma subsampling : 4:2:0
    % u& |, W! g) D# t$ ?" H
  21. Bit depth : 8 bits
    5 F! X9 [1 D- |
  22. Scan type : Progressive
    - J: z: R! G& p4 p- p
  23. Bits/(Pixel*Frame) : 0.1511 R4 ]4 G3 H. o$ t. i' d6 w7 \' t& {
  24. Stream size : 2.21 GiB (92%)) Q% Y( |: r+ R, E' v
  25. Writing library : x264 core 148 r2717 0d2410d
    2 W4 i7 F) J) Y6 w4 t$ a
  26. Encoding settings : cabac=1 / ref=3 / deblock=1:0:0 / analyse=0x1:0x111 / me=umh / subme=10 / psy=1 / psy_rd=1.00:0.00 / mixed_ref=1 / me_range=24 / chroma_me=1 / trellis=2 / 8x8dct=0 / cqm=0 / deadzone=21,11 / fast_pskip=1 / chroma_qp_offset=-2 / threads=8 / lookahead_threads=1 / sliced_threads=0 / nr=0 / decimate=1 / interlaced=0 / bluray_compat=0 / stitchable=1 / constrained_intra=0 / bframes=2 / b_pyramid=0 / b_adapt=2 / b_bias=0 / direct=3 / weightb=1 / open_gop=0 / weightp=2 / keyint=250 / keyint_min=23 / scenecut=0 / intra_refresh=0 / rc_lookahead=48 / rc=2pass / mbtree=1 / bitrate=7500 / ratetol=1.0 / qcomp=0.50 / qpmin=6 / qpmax=51 / qpstep=4 / cplxblur=20.0 / qblur=0.5 / vbv_maxrate=11250 / vbv_bufsize=15000 / nal_hrd=vbr / filler=0 / ip_ratio=1.40 / aq=1:1.00
    / V0 E7 J3 O0 O# h  g2 f
  27. Default : Yes
    8 V; k6 `' R2 n/ Q
  28. Forced : No+ c; `- D; s5 `, k

  29. * o, D) R" K* p8 X5 r) T$ v. X
  30. Audio
    + a0 g) J( _, V$ b. F8 R
  31. ID : 2$ r- d: W* O0 e, q# t# t
  32. Format : E-AC-3; [. ?2 V. Y) k) h" A/ B
  33. Format/Info : Enhanced AC-3. U: \* W5 @" g% j" n& n
  34. Commercial name : Dolby Digital Plus$ a' u+ p0 F5 Q" E) v
  35. Codec ID : A_EAC3- c  V0 o$ Z3 T* S( k
  36. Duration : 43 min 11 s+ c3 {5 S% }- q+ b* k( k. T
  37. Bit rate mode : Constant
    4 }$ _8 r( U9 w  x
  38. Bit rate : 640 kb/s
    : N. M& S9 L: s: R0 a4 T; Z! ]. e+ A
  39. Channel(s) : 6 channels/ _1 t  A- L* K4 c+ ]( s/ r3 g5 }* L
  40. Channel layout : L R C LFE Ls Rs9 g8 ?' ~) _, }, |- S
  41. Sampling rate : 48.0 kHz
    + T, g! q0 y* i9 r' i, c
  42. Frame rate : 31.250 FPS (1536 SPF)* H! _9 Q6 f, h7 E
  43. Compression mode : Lossy( t. m5 L  u1 {( j. K. w
  44. Stream size : 198 MiB (8%)
    9 D5 i9 J& H/ P- ], }  g& Z
  45. Title : English1 n9 b+ M+ Z0 W/ W2 R8 g
  46. Language : English
    + t8 F& }& Z0 ]
  47. Service kind : Complete Main- M: G# p% v- A: [! N3 l' Q
  48. Default : Yes5 Y* W! ]$ e, @
  49. Forced : No, ]# Y3 D; V, O

  50. / |: \1 B, V0 ^- T2 U
  51. Text #1
    + C3 d& }5 h) y$ z
  52. ID : 3
    6 @$ x! r+ w% ^1 A* d, o" @
  53. Format : UTF-8
    . H: \, i8 y% y0 G
  54. Codec ID : S_TEXT/UTF8- O6 Y1 I3 E! K5 k! D7 C( f
  55. Codec ID/Info : UTF-8 Plain Text
    ' |1 C. g" i# ~' H' {
  56. Duration : 32 min 24 s0 z" [% A$ E( V+ n
  57. Bit rate : 4 b/s
    " ^9 _' X* T! ^: U7 w  {# Q9 \
  58. Count of elements : 28
    8 Y1 K  |9 \$ R5 @% F! h# I
  59. Stream size : 1 005 Bytes (0%)# ^( u6 ^8 j6 p& n- C# t( @
  60. Title : English [Forced]
    $ q' U4 T" Z; ?
  61. Language : English1 ^8 Z9 G/ I: D, s$ ]
  62. Default : No4 a4 d6 ^2 s2 {5 t% K% O
  63. Forced : Yes3 N+ v  W, m% ?* z, r6 K
  64. . G+ K! \: `9 a8 h1 W
  65. Text #20 D: o( R+ l; Z# ~5 f3 d( I7 z
  66. ID : 4
    1 i6 G/ ?% t: f# R$ m3 I, c0 h. r; q3 z
  67. Format : UTF-8. ^; x: n8 _8 V1 ~, |& |0 \0 Z+ n  t
  68. Codec ID : S_TEXT/UTF8
    : M! L; U, I2 O3 ]8 m9 _  j9 e) K% j5 }
  69. Codec ID/Info : UTF-8 Plain Text! m# K. A% [+ L/ z) P
  70. Duration : 41 min 33 s# s2 S& `$ G6 O: s- V
  71. Bit rate : 109 b/s0 ]3 b5 G" v9 q( v; e  H
  72. Count of elements : 823: b& `% ?2 c9 x: b8 E0 z; S
  73. Stream size : 33.4 KiB (0%)
    * U6 b# J3 y& a- K8 W! l7 G
  74. Title : English [Full]  V) c' |4 S6 F( P( R. X2 x' N" V
  75. Language : English
    ' S4 d6 E+ l! d- X" F$ S
  76. Default : No" ~4 ]- q  O4 Q, a$ P
  77. Forced : No
    # S0 j, s7 ], m7 w0 v& q5 G

  78. ! U1 [* C& e' j, C
  79. Text #3' T$ m; s/ I  c% Y( n) O
  80. ID : 5
    5 _# i4 }2 S0 r/ k% I4 F
  81. Format : UTF-81 {5 w" e/ A2 t2 a
  82. Codec ID : S_TEXT/UTF8
      n; p& g/ g: M3 \6 p
  83. Codec ID/Info : UTF-8 Plain Text
    / N. D( ~' r: z8 B
  84. Duration : 42 min 4 s
    , L/ M* ]6 q7 O. p; K7 M
  85. Bit rate : 87 b/s" V5 s# h/ J7 o& C& i( |
  86. Count of elements : 749: h" h/ e( Y5 u" j: `0 i
  87. Stream size : 27.0 KiB (0%)
    + n- D: ]4 o, y  n1 B
  88. Title : Castilian [Full]5 }% {# ~  r4 z' k$ L
  89. Language : Spanish* l2 `/ H/ W0 I8 f% S3 F
  90. Default : No' n, g+ h& G7 O) w$ T( A! ^
  91. Forced : No; [' b5 h" P2 S) p7 C
  92. 4 j; Z. ?6 I+ X$ q' G$ U! w" c3 Q# \
  93. Text #4' y5 w2 Q7 l; d7 Y! @
  94. ID : 6
    : L( H- s4 s( n8 H
  95. Format : UTF-8
    9 W/ B: `- s( y( A
  96. Codec ID : S_TEXT/UTF8
    9 [* z# ^+ l+ n8 f# a8 E/ g
  97. Codec ID/Info : UTF-8 Plain Text  h+ ^2 \. F! ?& \/ Q; f
  98. Duration : 42 min 4 s2 [6 |0 U2 E2 @9 a
  99. Bit rate : 84 b/s
    - ]; ^8 X: D  Y8 O
  100. Count of elements : 703' d5 f0 I! Z$ S7 S# m2 O1 p
  101. Stream size : 25.9 KiB (0%)2 h( U, i- k& m" @. a) }. H. n: M3 J
  102. Title : Spanish [Full]! x4 t% L3 `' b0 A
  103. Language : Spanish
    9 {+ c0 c/ v- n$ @
  104. Default : No
    . n' z1 V4 `( h: l/ ^* ^5 R: j
  105. Forced : No
    8 q. J: P8 ~0 W. V
  106. 6 A% G7 G: ^% K# i
  107. Text #58 T; w  ~9 Z2 d3 a1 c2 d7 f# `9 k
  108. ID : 7
    % `* Q: g  {6 h7 @4 c+ d: Y
  109. Format : UTF-8" N8 l; W* B2 k% S: \; _7 K: t
  110. Codec ID : S_TEXT/UTF8
    : ^  O0 l: ]; s0 @; `
  111. Codec ID/Info : UTF-8 Plain Text
    . V: J, S6 P- ^: R/ h& a( w
  112. Duration : 42 min 4 s
    $ J# t. U1 [" G; r9 ]% a6 K
  113. Bit rate : 86 b/s. A4 M6 b% {, Z$ |: I
  114. Count of elements : 723
    9 B4 I0 g) K- }* [4 @
  115. Stream size : 26.6 KiB (0%)
    3 a% X/ Q  F" v/ Z& U
  116. Title : French [Full]& D6 o* a& n+ [; [3 f$ {! ^
  117. Language : French
    1 c+ m; c, q0 ]/ M( O1 j
  118. Default : No: G& L5 {( ^9 A
  119. Forced : No
    7 J2 Z' T4 T3 l6 x& B+ h& f

  120. $ w7 ^* w7 P( l: _0 x4 \) A
  121. Text #6
    . ~5 }! {6 N: z  F
  122. ID : 82 m# T+ p4 Z- n- m$ m
  123. Format : UTF-8$ m2 w- B3 u- F
  124. Codec ID : S_TEXT/UTF8
    $ q! x5 t/ P( L+ [' ^
  125. Codec ID/Info : UTF-8 Plain Text
    + r3 Y9 N3 ?* p# W: X
  126. Duration : 42 min 4 s5 h4 P$ m8 Q( c1 a
  127. Bit rate : 92 b/s9 F0 D$ h6 T$ `% s' J
  128. Count of elements : 751
    5 }! X  E+ p# J& a* X: M. L
  129. Stream size : 28.6 KiB (0%)
      q* C% D3 R, \7 X: w, I1 A% I
  130. Title : German [Full]# e$ t. V+ c7 Q  H! \2 C2 M
  131. Language : German) B6 H( j: _, ^% t# P0 E0 a0 }( q
  132. Default : No
    # ?9 ^3 ]# E0 B2 _1 ?( E
  133. Forced : No
    3 b$ i$ K' K. u9 g% c
  134. $ V: I# f; N0 Q2 l+ S
  135. Text #7) M! G6 O1 b  P# s% ]3 l
  136. ID : 9
    # B; r9 y) e$ @+ i- k6 v
  137. Format : UTF-85 u5 F! r  I* z4 a0 P. t
  138. Codec ID : S_TEXT/UTF8
    5 q1 B- Q) z% x
  139. Codec ID/Info : UTF-8 Plain Text
    9 Y' w0 H7 Q3 {$ ?3 e) {
  140. Duration : 42 min 4 s
    5 b( m8 @, P! c0 @1 n% }/ G3 Y
  141. Bit rate : 90 b/s
    , a9 M6 L+ D" M& a6 e) w4 y/ Z
  142. Count of elements : 694( G) U- P$ w( S% d, n
  143. Stream size : 27.7 KiB (0%)
    # r" f9 p, _  f% y+ [
  144. Title : Italian [Full]
    6 d3 I4 [* g# a2 ~3 H5 E
  145. Language : Italian
    . o6 _0 J* m6 K0 K7 p. U; N- k
  146. Default : No9 M1 W. x6 L2 N
  147. Forced : No
    * ^1 A" {. C3 h; a6 r4 i: D& [

  148. ( m( ]8 ~. n5 R) _/ k, s, \
  149. Text #8
    0 p4 s, C: G& q# T! G8 t) P
  150. ID : 10' o& a6 r) W: z" H
  151. Format : UTF-8- \- D# Q7 |( q# G, U
  152. Codec ID : S_TEXT/UTF85 v, r  A+ I7 i+ _
  153. Codec ID/Info : UTF-8 Plain Text  e5 P3 m! S4 p: _' _, P, t
  154. Duration : 42 min 4 s
    + m- n7 _( ]# W& g! t
  155. Bit rate : 89 b/s- t) N1 L; Z$ k& h
  156. Count of elements : 717
    1 ?* s! j; c0 X6 E$ w
  157. Stream size : 27.7 KiB (0%)
    / Z6 f2 e6 Z9 L
  158. Title : Portuguese [Full]
    + G5 G: V( a" W) J
  159. Language : Portuguese
    ! D4 l* H# o3 E0 G: [3 A1 d* g/ W0 a
  160. Default : No6 Q: E2 ?# f$ [0 I; [! N
  161. Forced : No% a$ T' [9 U* I7 f9 \, Z/ @5 Z
  162. ! B8 e4 `0 V5 ?0 x
  163. Text #9
    0 l3 {0 U  v0 z. ^" v/ j
  164. ID : 119 _! h2 t# [6 F9 @, v
  165. Format : UTF-84 e+ P6 Q1 c3 V! D8 g
  166. Codec ID : S_TEXT/UTF81 Z, w4 ~1 V7 O3 S1 L, x
  167. Codec ID/Info : UTF-8 Plain Text1 ?# g1 O9 i) R
  168. Duration : 42 min 4 s
    3 i' l! z. B8 i6 B# V/ p
  169. Bit rate : 88 b/s
    % Z1 \! n9 D  A; W. Z
  170. Count of elements : 7494 J' d/ j' s* r3 x; L
  171. Stream size : 27.3 KiB (0%)
    # H0 j+ ?: K% v+ q
  172. Title : Brazilian Portuguese [Full]
    2 {7 ?& {/ s: L+ B  R! |
  173. Language : Portuguese( z4 I  e5 x* L" d1 f; k
  174. Default : No
    ' f3 p2 j& h9 x' r
  175. Forced : No
    * g; n' t; t2 C4 u3 D1 B% c

  176. 9 H. r/ c+ q+ F) o8 b! L5 m: n8 g7 p6 ~
  177. Text #10
    # f7 `" V5 U- Y2 c0 Z, |$ L2 b
  178. ID : 12# R# g2 Z+ j) i" a# {! ~
  179. Format : UTF-8
    ( N: i4 [7 @) v) d. u- u/ R
  180. Codec ID : S_TEXT/UTF84 }; w9 a" u- ^" h7 I6 }) [* }
  181. Codec ID/Info : UTF-8 Plain Text" u6 @; `" w; r
  182. Duration : 42 min 13 s3 r9 j3 i+ B' x1 n
  183. Bit rate : 77 b/s5 X* d: S) ^' Q5 e/ p+ [6 h
  184. Count of elements : 647
    * G7 `" G2 J" }' x9 A4 |: D; }6 b
  185. Stream size : 24.1 KiB (0%)
    ; v% L4 D0 l4 P- \0 e
  186. Title : Polish [Full]
    " {; ]/ b+ e; Q
  187. Language : Polish/ ~8 \# i( o$ U; }+ _8 g
  188. Default : No/ H# v7 e7 H0 r" C9 b+ O
  189. Forced : No7 Q* ]3 F! Q. p9 U9 D" I6 O/ m

  190. 2 n& T/ t: V" ?; Y1 l" O
  191. Text #11
    / q* L' }; {9 [# X! F! t
  192. ID : 13
    % [9 E+ i" V2 ]( {* s
  193. Format : UTF-8/ D: K) @! ?3 d) a$ b( r
  194. Codec ID : S_TEXT/UTF8
    % K3 t& `) J+ x4 d
  195. Codec ID/Info : UTF-8 Plain Text, t5 e: d7 I/ f5 d9 Z" J1 W
  196. Duration : 42 min 4 s
    ! ^+ |+ y* \1 j" n# d6 [
  197. Bit rate : 84 b/s6 y6 q# w2 u* j6 z+ d# T7 z4 t7 Q
  198. Count of elements : 753
    $ Y. U- ?, H- E5 h  F
  199. Stream size : 26.1 KiB (0%)# c+ G4 b+ z0 n* m; d- H) |- t
  200. Title : Turkish [Full]+ a7 B, x; R- o' N- I
  201. Language : Turkish. {5 _7 F, I0 m" v
  202. Default : No+ B* v  K9 S; L2 N7 ?/ L, s5 K
  203. Forced : No' Y9 Y! b: E7 O# W* p
  204.   c- P4 L8 F; q& C' U( ]1 E) s
  205. Text #12
    5 {) J0 @/ e0 O% s; E( f) r
  206. ID : 14
    / H) }) P% a. t/ ~' U
  207. Format : UTF-8
    * M7 l0 l' M9 U2 g# v: O/ b3 Q! e
  208. Codec ID : S_TEXT/UTF87 F, W9 t( I& R/ A# D. X3 f8 D
  209. Codec ID/Info : UTF-8 Plain Text
    - F' s0 q, P. e5 I: f5 I
  210. Duration : 42 min 4 s9 j" O, E" I- f, p- _( z1 S$ _: Q
  211. Bit rate : 80 b/s4 q2 k( ]8 Q: N1 U" l* |
  212. Count of elements : 721
    5 j8 l4 ]$ `; J* O
  213. Stream size : 24.9 KiB (0%): c, V, Q: ^0 l: C2 o4 n% n
  214. Title : Swedish [Full]5 `8 W% H  k1 ^+ W( ]# g1 N
  215. Language : Swedish8 O) }8 Y. h. ?2 A0 x
  216. Default : No
    8 i. ]/ o6 o) e5 b4 N
  217. Forced : No' D* s+ m5 c- m- m# ?. d/ W* k
  218. 8 w6 H# ]) |# H& r) [
  219. Text #13
    1 `2 P8 O& B% p1 {+ O
  220. ID : 15
    7 |/ f/ m' z. k$ W4 R( P& s& I! r& X
  221. Format : UTF-8- s) g, j+ u2 K. o: n: k3 C
  222. Codec ID : S_TEXT/UTF8, a% q8 t! d  n& c
  223. Codec ID/Info : UTF-8 Plain Text7 g6 o" n/ b0 H; S: W+ V
  224. Duration : 42 min 4 s: E& P7 q) t- @* _3 F0 T4 \, q
  225. Bit rate : 85 b/s
    & I* R+ r1 g' h! W# a
  226. Count of elements : 665" o9 o& U# \9 w( n; O; l
  227. Stream size : 26.2 KiB (0%)6 Y7 W* r# S; d1 z' q% i) S. J
  228. Title : Danish [Full]
    ) q5 M1 x5 a3 F* j/ u
  229. Language : Danish
    7 C* t8 X7 ~. G
  230. Default : No4 g. Y, y- h5 T, U( o+ F- z& a' I
  231. Forced : No
    , A. L' N. G$ ^6 b
  232. 2 N' t( D: a1 `; u8 P! }
  233. Text #14
    ; w7 I# q7 P7 ]% {
  234. ID : 165 J3 u  _0 X9 x) U  l
  235. Format : UTF-8- _1 [9 g  A3 N1 \0 D
  236. Codec ID : S_TEXT/UTF8
    8 {& s3 w7 c$ H9 }  ]3 K5 t: ^- l
  237. Codec ID/Info : UTF-8 Plain Text/ `% d# A3 J3 v$ A+ b% r- ~
  238. Duration : 42 min 4 s
    % Y5 J2 c  a9 b3 [& V7 i3 C' Z( {
  239. Bit rate : 82 b/s6 U! U: D- E& l+ h3 \. G& |) S
  240. Count of elements : 552) P* I9 v5 O0 Z( t
  241. Stream size : 25.4 KiB (0%)( ~5 ]; e7 Z, n! a$ o
  242. Title : Finnish [Full]
    & P% W* c; h( I* v
  243. Language : Finnish
    ) V7 O3 v# C0 i( o) c
  244. Default : No
    ' ?# q% A# i- N1 A! Q  T4 t# c' k4 U
  245. Forced : No
    * s: j0 A+ a+ O. R& w8 N

  246. 7 W. D0 T0 I' ~1 y
  247. Text #15
    : u* k  _* K  y) R8 p( X  p, h
  248. ID : 175 X. q' i) N3 N
  249. Format : UTF-8
    % v, \* I5 G: |1 k  m
  250. Codec ID : S_TEXT/UTF8- G# L5 r5 T0 Q+ t
  251. Codec ID/Info : UTF-8 Plain Text
    " \1 A( T0 H- v2 E6 {1 S3 \
  252. Duration : 42 min 4 s
    , d& F0 t2 A' `9 j1 l# H" q4 S
  253. Bit rate : 72 b/s
    # i) k: t' f. B6 Z" q
  254. Count of elements : 615
    ) W1 C  H1 o" m) y$ O1 H
  255. Stream size : 22.3 KiB (0%)
    ! N5 B9 Z& h# }# U* s
  256. Title : Dutch [Full]
    4 E% T0 l" k8 G
  257. Language : Dutch
      o3 f9 K+ ]# G$ W+ \
  258. Default : No
    - M( e' y( `, |2 W. b- Z7 }
  259. Forced : No
    3 G( I  C# O4 B3 J) o
  260. . y) n4 v6 N* |' {/ w% j* y* H2 Z
  261. Text #16
    ( H, D8 s& y* ~" k
  262. ID : 182 x, p" d# v; G# ^8 r
  263. Format : UTF-81 R; ^9 r" D$ ]: s6 ]1 S: y( }
  264. Codec ID : S_TEXT/UTF8. ]" [3 q* A% v6 m% l$ A1 b
  265. Codec ID/Info : UTF-8 Plain Text6 Z+ u+ }4 n6 _& S7 K" a* P2 p* D' o
  266. Duration : 42 min 4 s
    . O& @: x" I0 K. ^, x
  267. Bit rate : 82 b/s
    ' c% m) g2 ^/ Q' q3 j3 m  @
  268. Count of elements : 7389 o! _2 p! ~* C6 Z# @  ?# G6 B! o$ O
  269. Stream size : 25.5 KiB (0%)
    : t9 |6 l1 {6 C2 X- c# w
  270. Title : Norwegian [Full]
    ! O! ]. V5 f; s) z1 O- V" L
  271. Language : Norwegian! y! J" P; B) e+ v/ ~" s, Y
  272. Default : No9 {5 m! I& f$ F9 H
  273. Forced : No
    , l$ Q- n- v1 B4 {

  274. ; e. l' H: G$ m+ h; O
  275. Text #173 h  d4 d8 s6 M' b
  276. ID : 197 G- `' t$ h- [+ |6 G$ o! o! O
  277. Format : UTF-8% `. {: P& U8 j; e" R/ u0 h
  278. Codec ID : S_TEXT/UTF8; o0 D* }. o5 Q- O3 v, W
  279. Codec ID/Info : UTF-8 Plain Text
    , e/ {6 s1 j4 m4 L9 r2 R; ~- ?
  280. Duration : 42 min 4 s% H) f5 W, @5 b$ p9 K. a
  281. Bit rate : 134 b/s
    6 ?0 W- F( I8 f
  282. Count of elements : 748
    $ h/ w: \% G/ a" g6 {
  283. Stream size : 41.3 KiB (0%)
    ' X3 A- H; ~% C# d! v5 {
  284. Title : Russian [Full]
    , Q6 }3 d- |7 F: N9 s6 U
  285. Language : Russian- ^3 l& m  H+ g0 N% ~. Z
  286. Default : No
    6 |$ |3 x  L7 s4 V5 h! T( e1 k
  287. Forced : No
    ) a3 q$ p9 Q$ ^6 U0 v4 s

  288. 4 d  }0 A. ^- K$ z# d0 n
  289. Text #18/ y) L4 s& G( x2 F
  290. ID : 20; \& w- m9 ^; ?. b& x( A
  291. Format : UTF-8% }$ u& S" @" f. r2 o4 @2 R5 c; @
  292. Codec ID : S_TEXT/UTF8
    * Z6 @+ O. V' l
  293. Codec ID/Info : UTF-8 Plain Text" ?4 ?- A# `- S. z
  294. Duration : 42 min 5 s  \1 ]7 C% h: r
  295. Bit rate : 86 b/s
    * x& N1 j! b" F6 u8 X% A' O* i! h
  296. Count of elements : 727" V  A& C  w7 r+ s0 B$ z
  297. Stream size : 26.7 KiB (0%)8 ]. o+ y( @3 A
  298. Title : Hungarian [Full]1 {$ Z3 V! y( V1 Z% W; l) ^
  299. Language : Hungarian
    0 E; ^) @6 Q# E3 P9 q/ j+ A: j3 z
  300. Default : No
    + r0 \7 t4 V# C" H& a- \) F; N% n  [
  301. Forced : No
    9 |  n8 L: n0 {2 `" c4 F2 t

  302. 0 o$ H) l7 x' ?5 K5 o
  303. Text #19
    % S: E3 b8 [$ u9 ]! K1 A. I
  304. ID : 21
    - u, T- Y7 _* C) m# K# y
  305. Format : UTF-81 t5 `& q8 I; |  [: P+ W9 _& l/ [5 e
  306. Codec ID : S_TEXT/UTF8
    " {: b* G# l7 w: H. o' Y% N
  307. Codec ID/Info : UTF-8 Plain Text5 T* E# A% z, D
  308. Duration : 42 min 4 s
    1 [: M# j% S6 p- i+ b9 t9 U" r. N
  309. Bit rate : 133 b/s
    8 L  z$ z7 ]4 \, C. a/ l
  310. Count of elements : 7388 b$ P6 i0 ~2 {4 S  x
  311. Stream size : 41.1 KiB (0%)
    ; o" T& }0 Y; j& N0 k
  312. Title : Greek [Full]2 x5 L1 \4 ~: {& |: q
  313. Language : Greek
    # W0 V# `$ c# p2 _* k! K( ^
  314. Default : No- P. y# w+ e7 X  ]$ ]2 a( \
  315. Forced : No/ }& v* A3 D* X
  316. ) ^" G) Z( `6 b, f+ E/ `
  317. Text #20
    $ Z* o8 r/ |  ?. `1 C
  318. ID : 22
    . l& K, g, ?  _! Z
  319. Format : UTF-8
    2 L0 [5 Z- c" w# _# A& N
  320. Codec ID : S_TEXT/UTF8
    % C/ [# ~$ A# O
  321. Codec ID/Info : UTF-8 Plain Text! @0 v  [7 |  K% b" j" L
  322. Duration : 42 min 10 s' T- T  n* j# t: K
  323. Bit rate : 126 b/s2 q. ?7 ^3 i( f  }9 [
  324. Count of elements : 734
    + R4 m% S9 y5 W
  325. Stream size : 38.9 KiB (0%)
    ( _7 H  f5 _4 M( W# ]. @0 F% F
  326. Title : Hebrew [Full]
    ! C; Z6 v% h. B# ~$ B+ B8 y
  327. Language : Hebrew* l) [/ C2 s- F: c1 y. C
  328. Default : No1 `) z( l8 m# q- q
  329. Forced : No0 u4 _2 e; D0 ~- u
  330. ( o; u5 r' G% [5 t! y
  331. Text #21
    ' t: v2 I  ~3 f! h$ ^
  332. ID : 23
    ) S- a$ q, U7 A
  333. Format : UTF-8
    & _0 W: Q9 m3 d
  334. Codec ID : S_TEXT/UTF8
    ' ~" Q# h6 y6 ~8 H
  335. Codec ID/Info : UTF-8 Plain Text5 r& h1 a; V3 j4 `% ^* |
  336. Duration : 42 min 4 s
      ]$ J% G  @* M& o/ N2 B3 R
  337. Bit rate : 162 b/s2 T" a; Q9 `3 N/ S. Y; ]
  338. Count of elements : 763
    3 @8 I/ R$ s+ _. b% K. X
  339. Stream size : 49.9 KiB (0%): P$ i8 X0 F. _  L
  340. Title : Arabic [Full]
    / ]! e! J; l4 n
  341. Language : Arabic& n. j9 _, r7 C0 ~6 i. c
  342. Default : No
    0 }4 ?* n# d0 l# V" h6 t* y
  343. Forced : No
    & B2 G( X  g+ C1 x9 G' e

  344. & M+ M: k) Y0 k; {6 P* |
  345. Text #22
    , O. e  j( F- @( f
  346. ID : 24
    . W& r/ p: l: f9 p6 V+ j5 b
  347. Format : UTF-8
    % t, k8 T- K4 i  y0 c% A
  348. Codec ID : S_TEXT/UTF8# [- L3 T3 {/ z0 H) a3 C0 q
  349. Codec ID/Info : UTF-8 Plain Text8 c* w9 I/ T5 Z! C, i4 Q
  350. Duration : 42 min 4 s
    & T. H- |8 F1 n1 P+ `' M
  351. Bit rate : 102 b/s
    , x# `, ^/ n; E
  352. Count of elements : 725
    ! G( r* K8 O8 z  G# |6 ]; |
  353. Stream size : 31.5 KiB (0%)
    2 K- }- k  Q1 X1 {. m0 X
  354. Title : Romanian [Full]
    " }' j3 ?8 q* Y% y
  355. Language : Romanian
    9 j* _2 ~% |$ D( l
  356. Default : No7 P( _- j; S# h$ ]$ x
  357. Forced : No" E" `) l" b2 W( m) C- @" i& y5 H& ^

  358. % y' n* Q# Q% c
  359. Text #23
    2 Z3 p2 @9 @' v8 [3 ~
  360. ID : 25  D+ H$ [* d! a6 f5 Z# M+ X
  361. Format : UTF-8) r, Y( w( n: Z# e! M: l9 j
  362. Codec ID : S_TEXT/UTF8
    9 I. e8 I7 O8 o6 `4 {: [7 `4 A
  363. Codec ID/Info : UTF-8 Plain Text& C: H  l; }1 D! z( B: |. S* w0 H
  364. Duration : 42 min 4 s
    ! c- h1 ]- a2 V
  365. Bit rate : 92 b/s
    ( s% {* }, F0 O& i' s3 T$ Y" e
  366. Count of elements : 754( k+ \: f1 ]$ B& f
  367. Stream size : 28.4 KiB (0%)7 x2 X8 l# f- Q/ |
  368. Title : Czech [Full]
    + E5 O- e6 P; I1 V# y! _1 g
  369. Language : Czech
    . P$ \  w- |) A( H
  370. Default : No
    / U+ n" U! k. J8 i1 O
  371. Forced : No; h" Z; Q+ K. N  S. `2 t

  372. : Z; E- I+ m% F8 j, {# Q
  373. Text #24' V# F/ \: d1 S/ F' d
  374. ID : 262 Y  t2 L4 l: ~2 b0 W/ ~: h
  375. Format : UTF-89 b0 c3 Q# m; F' w
  376. Codec ID : S_TEXT/UTF8: r* g6 ?; c+ f8 F5 R5 ^& B
  377. Codec ID/Info : UTF-8 Plain Text
    1 g/ [8 D1 |8 [
  378. Duration : 42 min 4 s
    : v4 n7 b( U0 i: H" h
  379. Bit rate : 85 b/s" G3 ?, D5 t( g  {" |: Y
  380. Count of elements : 744
    / D. G; \4 I7 Q) @' ~' s" b3 Z
  381. Stream size : 26.2 KiB (0%)! E1 q0 w6 h: ~! q# z
  382. Title : Indonesian [Full]9 U! ]( ?( j2 t
  383. Language : Indonesian
    . C& Q0 X9 i# m1 ~& X  o) {% K# J
  384. Default : No& W, u8 ^! c# l  M
  385. Forced : No) b# `. S- z( c* w' {, u, p
  386. 0 ]! O# Z( ^0 b& N4 i
  387. Text #25
    3 w( T8 W) ]: @5 |8 Z  q% |& A
  388. ID : 27
    # _& Y8 K0 u5 h% D4 x, ^) Q5 A" \
  389. Format : UTF-8
    " m8 l! p# b0 a- E
  390. Codec ID : S_TEXT/UTF8
    1 e8 P! ~0 X( y
  391. Codec ID/Info : UTF-8 Plain Text
    $ k' s. J6 V. N' s: t0 @, T
  392. Duration : 42 min 4 s- \, _+ p9 E; T
  393. Bit rate : 119 b/s
    4 v, h# u- P) e6 r; B
  394. Count of elements : 755
    - J; I0 C+ ]" ~* n5 N* u
  395. Stream size : 36.7 KiB (0%)
    2 w1 C, k5 N: f( b  ?5 C. V
  396. Title : Vietnamese [Full]
    1 I' M% A$ p3 B$ U
  397. Language : Vietnamese
    0 c' S: E- w8 `' F' J# N- `% p. l
  398. Default : No
    / f6 U+ K0 w7 {
  399. Forced : No: N. k* s: z, R
  400.   ~1 t) F3 v0 u0 I6 M" \
  401. Text #26: E7 ~2 c: ?4 T1 P
  402. ID : 28& @9 I% Q9 @. W& `8 H- g, K
  403. Format : UTF-8
    5 {- [, l7 y& [
  404. Codec ID : S_TEXT/UTF8. ^. d8 m/ |+ C" @+ |
  405. Codec ID/Info : UTF-8 Plain Text- M' A9 _% B9 u' B  A5 t- T! U
  406. Duration : 42 min 4 s2 }: c. ]  r3 u9 B% a! N
  407. Bit rate : 230 b/s
    1 A3 ^* y% m5 U% B! r
  408. Count of elements : 755
    1 B; j  L( t7 x- C. Q3 i
  409. Stream size : 71.2 KiB (0%)
    3 S$ F8 k7 L0 F2 |' |- s
  410. Title : Thai [Full]
    ! u3 z1 w1 ?- X" P: L* M
  411. Language : Thai
    ! T) a: f1 C+ m
  412. Default : No5 w6 w. b, T0 K% L) [& r3 V; s* p' |
  413. Forced : No4 j- E: T" b* q: x+ ?
  414. / v7 _7 p$ a, A7 a+ x; B# w4 v* ~
  415. Text #27/ W% O$ N; z9 Q+ l
  416. ID : 295 p) z1 X. {( i+ Z$ L0 Y# o* ~
  417. Format : UTF-8: v! h2 }' p4 o1 D  B
  418. Codec ID : S_TEXT/UTF8
    8 G/ y1 U* a+ j: [* ~2 }/ D
  419. Codec ID/Info : UTF-8 Plain Text" C0 N2 }2 N( e# j; G% J
  420. Duration : 42 min 4 s- I' t+ z3 y% @. ^
  421. Bit rate : 109 b/s
      i; ]! z* z1 U+ n0 ]+ m) ?
  422. Count of elements : 753+ V6 c7 Q* D/ a8 T$ f' ?
  423. Stream size : 33.7 KiB (0%)
    6 z$ p6 s" A* x" ?6 y
  424. Title : Korean [Full]
    - N, q" V3 [/ r* \
  425. Language : Korean
    & b( Q% T1 b( ]6 R0 q. `7 a( L
  426. Default : No6 |  a: i6 o; R
  427. Forced : No
    & a: M9 m9 N+ h4 `$ Z8 S6 M+ {
  428. & x- u, X1 n' C$ r; T
  429. Text #28
    / M5 V0 m" ^  R+ g
  430. ID : 30
    3 u# C9 g# S% Q. B, f- }) l0 t
  431. Format : UTF-8% c( `  Q$ m3 ^- k6 V
  432. Codec ID : S_TEXT/UTF8: {7 A6 y/ U+ A: t4 s) @
  433. Codec ID/Info : UTF-8 Plain Text( r1 K, ]) B- |
  434. Duration : 42 min 4 s' b5 J5 P% L- g! x, P+ K1 M! _9 |
  435. Bit rate : 92 b/s7 M9 E5 z, A: S8 U) w) X! |
  436. Count of elements : 7505 f9 M+ l( }0 V% @: m& T! R
  437. Stream size : 28.6 KiB (0%)
    $ @+ z/ r" P# i. T; a
  438. Title : Chinese (Simplified) [Full]
    8 A+ f+ M! c/ y% U. }' d
  439. Language : Chinese6 a+ Y5 I# F: [: ~8 h3 B  [
  440. Default : No; G9 P2 m! m4 F0 I+ x
  441. Forced : No  D& f2 j& Z. z& \2 ?1 X
  442.   R: r, C8 B, }" i
  443. Text #29
    8 F% n3 t/ m* e) y# l
  444. ID : 31; b+ R, O, \5 Y; \
  445. Format : UTF-81 H' D5 y7 G5 e
  446. Codec ID : S_TEXT/UTF8/ b8 ?5 H. X: P4 U6 H
  447. Codec ID/Info : UTF-8 Plain Text+ h+ o8 p+ Q2 V. l7 J* T
  448. Duration : 42 min 4 s
    - @9 K6 O% [+ a3 u
  449. Bit rate : 89 b/s5 q: C# S2 F, h0 Q) ?) b; ^7 f5 |
  450. Count of elements : 830; ]6 [7 e6 x0 i9 X: N
  451. Stream size : 27.5 KiB (0%)2 D; z. @1 o- }1 J' R
  452. Title : Chinese (Traditional) [Full]
    ; S" C9 j9 e* K, N; i" a% J$ [
  453. Language : Chinese1 B8 g% p8 V: |4 Q; X. N! i
  454. Default : No
    8 {( c2 @1 W0 ?: i9 ?/ H
  455. Forced : No
    " M- i" {1 t" C( h4 r
  456. * `3 j  f6 G/ W4 z8 U  M
  457. Text #30
    8 e7 E8 R( M; f9 G
  458. ID : 32+ B* p+ [  o, l9 X# k/ J
  459. Format : UTF-8) \/ H2 Y3 E/ s2 s
  460. Codec ID : S_TEXT/UTF8$ B3 i/ D  G6 `5 @% ?3 H7 y
  461. Codec ID/Info : UTF-8 Plain Text
    8 ~3 ]1 E0 E( e1 q3 _  m4 J. p
  462. Duration : 42 min 4 s
    $ |- D) J6 I6 g7 U5 Q
  463. Bit rate : 78 b/s
    # f' \# t9 I% z* X
  464. Count of elements : 790% e: r/ G  k/ P
  465. Stream size : 24.2 KiB (0%): S4 e2 `. ~# P! \& z
  466. Title : Japanese [Full]1 {$ C! r4 i; N+ \+ g
  467. Language : Japanese- E  j. S- Z" p2 M- |- f
  468. Default : No+ c( ~- C/ a+ C  q" Q) g$ O
  469. Forced : No
复制代码
6 Q0 o! o# S3 ]  `1 U1 n

% ]( f  ]6 ]+ n4 B. ?
4 ]" T8 E% r3 n4 R1 A6 ~5 K1 a) d. R
+ ~9 o$ M5 k8 m) g" r# f

# Q1 L0 C2 U( [1 A+ B; @) o! V
游客,如果您要查看本帖隐藏内容请回复  VIP可免回复查看隐藏内容 详情请点击
发表于 2020-7-12 09:55:25 | 显示全部楼层
谢谢楼主分享资源。
发表于 2020-7-12 10:06:29 | 显示全部楼层
nice nice sharing
发表于 2020-7-12 12:58:17 | 显示全部楼层
多謝楼主分享!
发表于 2020-7-12 14:56:08 | 显示全部楼层
这络腮胡堪比四大邪术,有改头换面之功效
发表于 2020-7-13 01:34:38 | 显示全部楼层
thanks for share
发表于 2020-7-13 17:37:27 | 显示全部楼层
真人秀节目太多,看不过来
您需要登录后才可以回帖 登录 | 立即注册

本版积分规则

QQ|封号公示|手机版|有问题发邮件到admin#(换成@)hd1tj.org|微博|免责申明|HD一条街

GMT+8, 2020-8-16 03:27

快速回复 返回顶部 返回列表