HD一条街

 找回密码
 立即注册
搜索
查看: 204|回复: 4

[欧美] 寻找继承人 第一季[自带中文字幕]Win.The.Wilderness.Alaska.S01.1080p.NF.WEBRip.DDP2.0.x264-SPiRiT 13.8G

[复制链接]
发表于 2020-4-26 20:39:07 | 显示全部楼层 |阅读模式

马上注册,结交更多好友,享用更多功能,让你轻松玩转社区。

您需要 登录 才可以下载或查看,没有帐号?立即注册

x
尋找繼承人
# A- p* r( h. C, d202013+1 季實境與綜藝脫口秀節目) ]/ ]. `4 y7 r% j5 {0 v1 ]
六對伴侶必須相互競爭,證明他們擁有野外求生技能,足以贏得這間位於偏遠阿拉斯加的絕美小屋,在這片廣袤粗獷的荒野地契上生活。
  1. Video
    ' q# z, q& X5 z6 h% E$ J# W! E
  2. ID : 1. u# I8 b+ d9 _  p- G
  3. Format : AVC# f' C+ B" z4 T) b7 B4 C
  4. Format/Info : Advanced Video Codec
    " ^$ I7 a4 ]1 D6 {8 ^, X# B2 t
  5. Format profile : Main@L4# R/ k  @; H. z  Z) H
  6. Format settings : CABAC / 3 Ref Frames% ~/ V+ T- i: C# W, T: {; U
  7. Format settings, CABAC : Yes
    / Y% A5 O* Z* y+ [1 q
  8. Format settings, Reference frames : 3 frames
    - F, E; A' a5 e8 q" w5 Y6 {
  9. Codec ID : V_MPEG4/ISO/AVC* R- g( S; ~) T8 q
  10. Duration : 48 min 44 s
    ) m( Z# g5 u8 S
  11. Bit rate mode : Variable( K# l3 z- j: }4 k! A
  12. Bit rate : 7 500 kb/s
    1 t! }$ F6 G% e+ ]
  13. Maximum bit rate : 11.2 Mb/s
    % T3 G% N. E/ _$ m$ u& s8 n
  14. Width : 1 920 pixels5 f, A$ j4 j8 J2 {8 g0 \9 }
  15. Height : 1 080 pixels  V% B- i" ?' `! P$ D: D) _
  16. Display aspect ratio : 16:94 P# ~: {) B3 @
  17. Frame rate mode : Constant
    1 ]2 l( f4 c( Q8 w( O
  18. Frame rate : 25.000 FPS4 t; J) C# H" T6 ^- ^9 P+ D
  19. Color space : YUV7 i2 y; }# K5 [) a, L7 Q2 h* F# M
  20. Chroma subsampling : 4:2:03 Z8 x- h  j: g8 {1 G
  21. Bit depth : 8 bits
    : }& t: Q" c( p  A, H
  22. Scan type : Progressive5 i  q. i4 z. i: Z+ y9 ~  n2 T9 o
  23. Bits/(Pixel*Frame) : 0.145
    / r# b; s7 j2 J. {) G- N' |& D
  24. Stream size : 2.53 GiB (98%)
    & _8 k8 t0 Q: Q8 f" Z* j! O
  25. Writing library : x264 core 148 r2717 0d2410d
    8 _# m# L2 _; n7 L. w
  26. Encoding settings : cabac=1 / ref=3 / deblock=1:0:0 / analyse=0x1:0x111 / me=umh / subme=10 / psy=1 / psy_rd=1.00:0.00 / mixed_ref=1 / me_range=24 / chroma_me=1 / trellis=2 / 8x8dct=0 / cqm=0 / deadzone=21,11 / fast_pskip=1 / chroma_qp_offset=-2 / threads=8 / lookahead_threads=1 / sliced_threads=0 / nr=0 / decimate=1 / interlaced=0 / bluray_compat=0 / stitchable=1 / constrained_intra=0 / bframes=2 / b_pyramid=0 / b_adapt=2 / b_bias=0 / direct=3 / weightb=1 / open_gop=0 / weightp=2 / keyint=250 / keyint_min=25 / scenecut=0 / intra_refresh=0 / rc_lookahead=50 / rc=2pass / mbtree=1 / bitrate=7500 / ratetol=1.0 / qcomp=0.50 / qpmin=6 / qpmax=51 / qpstep=4 / cplxblur=20.0 / qblur=0.5 / vbv_maxrate=11250 / vbv_bufsize=15000 / nal_hrd=vbr / filler=0 / ip_ratio=1.40 / aq=1:1.00
    7 w) I3 P& S3 Q: z3 m& P5 k9 Q
  27. Default : Yes
    / D8 b5 A) X  t4 b% T9 O6 s4 K3 F
  28. Forced : No* X& ?8 ?% t2 m& @7 y0 E
  29. . Y6 i% w& E* E4 w; k: x
  30. Audio
    : X4 j$ V. i& q9 ~- o0 E% b& B
  31. ID : 2
    * ~/ n  s: {" I6 A5 B: {7 o
  32. Format : E-AC-3
    ( @7 v. j* y$ e) x# s
  33. Format/Info : Enhanced AC-3
    & X. r9 a2 g! \# l. [, e
  34. Commercial name : Dolby Digital Plus, f% h7 r# b3 u/ [( V" ?/ ~
  35. Codec ID : A_EAC3
    & y: b. J- c2 ~( f
  36. Duration : 48 min 44 s
    ; t: m6 ~; W3 j2 @* k
  37. Bit rate mode : Constant  F# _- U$ W3 o
  38. Bit rate : 128 kb/s
    5 r1 l" S, x. N0 _, v" z
  39. Channel(s) : 2 channels
    ! f+ F. t5 Y0 f8 j, U+ G) P4 w
  40. Channel layout : L R& g) C/ A5 v5 v, r  C5 `
  41. Sampling rate : 48.0 kHz. l! ?0 z, N2 M1 y; @
  42. Frame rate : 31.250 FPS (1536 SPF)9 j, _; J) u/ ^: |& o/ y
  43. Compression mode : Lossy
    : d" [+ G* C: e7 |  j3 B. I: W
  44. Stream size : 44.6 MiB (2%)# u2 ^, F& Z1 l4 t* i% J8 k) x; a
  45. Language : English
    9 a# _, A' s: p& W1 X* Q! u
  46. Service kind : Complete Main, U: t; J- A- s
  47. Default : Yes
    ' T0 \: w$ _7 Q- B: }$ N
  48. Forced : No' h8 E: V  e8 N* S( F

  49. , n  u# u( P! e1 R, n% K9 {
  50. Text #1' Q/ g, ]4 e8 ]/ Y
  51. ID : 37 x1 m8 F# Z5 v+ |' o. n# g5 l! Y
  52. Format : UTF-8- C* N: I  W) P9 l# R5 L3 Y# n( B( Q
  53. Codec ID : S_TEXT/UTF8
    ( [0 }/ r; G  ~, O" v) `6 s
  54. Codec ID/Info : UTF-8 Plain Text8 }' D7 [- D+ K/ u8 u8 y: r
  55. Duration : 47 min 47 s+ ~  h8 D. a' p* i
  56. Bit rate : 91 b/s4 E- @6 w! K6 D$ C* h2 s
  57. Count of elements : 853
    7 D5 r, I& {4 `& K: l
  58. Stream size : 32.2 KiB (0%)
    , Q4 F( r( z& D' e
  59. Title : SDH
    2 X" |+ C+ z9 B2 V% R1 o3 C9 C
  60. Language : English
    0 |: v; s7 l) V8 M
  61. Default : No7 K+ e  ^8 |. `
  62. Forced : No; [1 H- M) n6 o! n' \$ [+ k  \
  63. 7 M' f9 w5 s. i0 U7 s1 o
  64. Text #2/ P' r0 S4 c' a) j
  65. ID : 46 m0 R: z* \5 z. R' [" p% a
  66. Format : UTF-8
    - U, A6 S, I" [1 O4 p
  67. Codec ID : S_TEXT/UTF8% M: P4 K  c  ]7 h) v* c$ E
  68. Codec ID/Info : UTF-8 Plain Text
    6 W7 }/ \: \5 C* ^5 C0 `# I; e; T/ g
  69. Duration : 48 min 19 s
    : o- C8 _% U( `' O2 e" n
  70. Bit rate : 132 b/s
    ' Y0 i& F  x( _) P
  71. Count of elements : 8198 @" u* N7 f5 U, `# G
  72. Stream size : 46.9 KiB (0%)- m/ [! c) S5 R. x
  73. Language : Arabic
    2 `3 ]3 J2 m: `
  74. Default : No2 _8 q4 I# a# X' Z/ q
  75. Forced : No) M. N* Y) K' O1 L
  76. " w6 V. V4 r  ?6 Z' F7 F
  77. Text #3# {: w3 D/ R0 d7 W7 s
  78. ID : 5
    8 w4 M! p4 i9 |3 @& R( I
  79. Format : UTF-8
    9 g2 u& _, z& R, E& t: x
  80. Codec ID : S_TEXT/UTF8& y% h0 O/ b6 p; ^. E$ N; \
  81. Codec ID/Info : UTF-8 Plain Text2 @4 A  z! o' {! T  {7 X
  82. Duration : 48 min 19 s
    $ M6 B8 f5 {4 K3 u
  83. Bit rate : 74 b/s. e: t! L' b. ~) S* Z( O
  84. Count of elements : 826/ K/ d) i# E+ i
  85. Stream size : 26.3 KiB (0%)! |" k; |0 \& m3 O
  86. Language : Czech
    6 E3 _& K2 }4 f' Y% @9 w
  87. Default : No
    : E1 Y' z$ `) _) x. R1 H& F
  88. Forced : No
    9 V: J: {& J, c4 G$ r& r6 P& b

  89. 2 v6 q* E* o* H5 S; q* f2 U
  90. Text #4" W) I  N2 m% K
  91. ID : 63 s7 L# n2 O6 H/ w5 p* q
  92. Format : UTF-84 ]4 r. x2 s/ J' T, ?1 x( B
  93. Codec ID : S_TEXT/UTF8
    3 k0 M2 N1 s. W* E# g0 A
  94. Codec ID/Info : UTF-8 Plain Text
    : S5 X+ f6 ]* F1 U. v6 d- G
  95. Duration : 48 min 19 s9 K- q: X4 n8 |- Q
  96. Bit rate : 69 b/s; Z  {3 d1 P, f: |
  97. Count of elements : 785
    9 A2 l$ G/ W4 l. ~8 k
  98. Stream size : 24.7 KiB (0%)
    . g  Q' u) o( c& f
  99. Language : Danish1 _6 D, T! ?* n5 A6 f: t8 j. ^
  100. Default : No3 K; i: W7 E% _- F8 P  K2 R
  101. Forced : No
    4 h$ R# F6 x9 |7 z, ]+ P* e/ o$ U# I

  102. 8 V9 w: d5 R/ Q$ k4 }$ o6 g
  103. Text #5
    % t% s  O0 m7 ~- A* M* A( s
  104. ID : 73 s. P# R2 Q: G- G# k/ F
  105. Format : UTF-8! v. c) L9 I5 A) c. p3 a5 ^
  106. Codec ID : S_TEXT/UTF8
    5 O* {( w7 o' K. S# |
  107. Codec ID/Info : UTF-8 Plain Text
    & {1 x0 \8 P) K* F
  108. Duration : 48 min 19 s
    ) |5 a% ~8 C  m* @
  109. Bit rate : 81 b/s* _; m  u* U+ I! x
  110. Count of elements : 818
    9 H/ \& H: I- ?. n
  111. Stream size : 28.7 KiB (0%)
    + w9 w' B) i! J+ \
  112. Language : German
    & l  D3 x& a( F- \
  113. Default : No7 H/ C& m) L( G  O0 K* X
  114. Forced : No+ ?# ]' F1 J( A$ L8 ^

  115. 6 k( o( |3 e) e( ~+ _
  116. Text #6( Y- ~: U! B  g( b  a* l
  117. ID : 8/ a* Z1 l. V) l' {- p, C1 Z4 U: x! [
  118. Format : UTF-8
    # z4 `3 @6 w- B& S. Y
  119. Codec ID : S_TEXT/UTF8
      J) b+ Q7 F. w
  120. Codec ID/Info : UTF-8 Plain Text
    5 t( ~( ?. V: g* a* t
  121. Duration : 48 min 19 s
    + f; P7 M6 E. K+ F
  122. Bit rate : 131 b/s! {7 G$ z) Y, @: J
  123. Count of elements : 766; [# F0 w( b$ Y
  124. Stream size : 46.4 KiB (0%)5 Q6 J( n7 E+ u' e- q
  125. Language : Greek2 [1 T% g, A  K0 M9 D/ R7 x
  126. Default : No0 q% e0 A# |+ i& U/ X/ Q$ p% L
  127. Forced : No
    3 s. l" J' R. K+ ?3 m! T0 M9 j

  128. / ?0 w! Z8 X: B
  129. Text #76 D& n& R& _1 V% k0 x
  130. ID : 9  ?. n3 t' O' ?5 }' C( I
  131. Format : UTF-8* e3 A5 p6 u* E& m) _# c( Q% t! u
  132. Codec ID : S_TEXT/UTF8
    $ }( K+ O4 |0 r! L+ l
  133. Codec ID/Info : UTF-8 Plain Text
    + G. }/ `7 W4 _6 M" t
  134. Duration : 48 min 19 s
    ! ?; J  p: B7 [  H& L
  135. Bit rate : 79 b/s
    2 y% T7 Y4 C3 f
  136. Count of elements : 8441 g. L$ E  }7 M1 i# R
  137. Stream size : 28.2 KiB (0%)0 {1 Y( f# U1 B2 r1 C
  138. Title : Latin American
    " K6 b$ a1 u( t, Y, W! n  @
  139. Language : Spanish# n# ^- f, T* @% {. O' _6 J
  140. Default : No
    . r, O/ J5 U0 r/ S' T
  141. Forced : No
    ; d; b  s$ m" F% w. F' n) l

  142. 1 U. C: Y$ \  k4 y& T2 I6 _
  143. Text #8# ~/ i- [. k) X5 r' o$ g: v! Y! q/ Z' B1 g
  144. ID : 10
    ) V( M3 Q+ |1 R8 M+ r8 T- K% w
  145. Format : UTF-8$ ~6 w! {: T+ q  m( m7 j3 m4 \: E0 H, [
  146. Codec ID : S_TEXT/UTF87 u. ]8 j, M* G' ?$ _  j
  147. Codec ID/Info : UTF-8 Plain Text
    1 ~. t& }+ Y" E
  148. Duration : 48 min 19 s( o' B' b. p8 [# |
  149. Bit rate : 74 b/s
    5 k" H; ?- j5 c7 C, t
  150. Count of elements : 798
    ' }& s4 t3 Q4 M% V% R
  151. Stream size : 26.3 KiB (0%)
    ' A! D. L3 m4 T
  152. Title : European
    7 B3 A7 r/ N% Q  Z
  153. Language : Spanish
    3 r9 E! U, E1 g
  154. Default : No$ B! s% O; h- o% s
  155. Forced : No
    ( N+ [5 r" e% F8 ]+ c/ @+ e

  156. + s; N7 {, e& j, E9 I
  157. Text #91 W; E/ ~% K% R5 b$ {) B7 f0 z; i4 \
  158. ID : 118 H6 e( X  e) u- Y
  159. Format : UTF-8
    * j7 R6 [" l2 |" p5 Y% |3 y
  160. Codec ID : S_TEXT/UTF8
    ( C2 P  R+ F, ]9 s: M) d
  161. Codec ID/Info : UTF-8 Plain Text
    + X) }4 ^5 P0 U6 v+ c
  162. Duration : 48 min 19 s
    . |1 k8 v7 z5 g2 ]' S
  163. Bit rate : 74 b/s$ f  q5 s* _% I3 Z2 A6 B  i/ A
  164. Count of elements : 8093 o$ ]. [( Z1 ]+ P( J7 s, r
  165. Stream size : 26.5 KiB (0%)9 n- f4 G( ]( c7 U5 r: ~. @" A
  166. Language : Finnish
    6 O4 p& r$ N3 d7 u1 ~
  167. Default : No
    6 Q7 d3 X# p3 P+ J0 v
  168. Forced : No3 v2 t* M* j; Q
  169. ! U" j* B" s% a
  170. Text #10/ E) b7 J# }+ V* O9 ^! W: U
  171. ID : 127 \% L# F' ~9 q/ u( [: j4 G6 ^8 @
  172. Format : UTF-8$ d2 m4 J. Z% l2 }
  173. Codec ID : S_TEXT/UTF8
    ) a% C) C1 e5 {' q7 ]9 @4 C
  174. Codec ID/Info : UTF-8 Plain Text7 U3 [" Q2 X' {& h5 k6 E9 M
  175. Duration : 48 min 19 s, N5 [2 d2 J/ P3 {! D& m
  176. Bit rate : 70 b/s
    $ D: ^0 q0 h8 D
  177. Count of elements : 758
    ! v9 x0 m+ V3 ]1 \( ]
  178. Stream size : 24.8 KiB (0%)
    8 n5 P. @4 |, E
  179. Language : French
    4 @; J+ \# z' j, y; ]
  180. Default : No
    4 I7 n8 p4 A# }. [/ z4 Q
  181. Forced : No5 f" N) H3 Q) \" X

  182. & S$ `) Y- D' h8 j
  183. Text #11
    . B. N+ p, g- ?8 N
  184. ID : 13
    , I# F# i9 Z% W: k! Q5 z
  185. Format : UTF-82 O0 l- Q0 f- b% d" o. T! ~' Z
  186. Codec ID : S_TEXT/UTF8
    8 C% ?6 [$ p: h0 S' ?' x. Q; p0 o3 J
  187. Codec ID/Info : UTF-8 Plain Text
    # x; `+ e2 a4 L8 L' f) _
  188. Duration : 48 min 19 s: N9 R) q- z- u4 ?
  189. Bit rate : 120 b/s
    / N$ g, I. z9 O% Q
  190. Count of elements : 819% v# P% f2 r0 h& p0 `0 ^
  191. Stream size : 42.7 KiB (0%)
    " p# X3 A4 {$ M
  192. Language : Hebrew0 {2 b) g9 [- E' Q! u6 |
  193. Default : No
    3 @3 u& L! W9 d; l8 m
  194. Forced : No0 ~8 S( x' r5 d4 Y. k4 D
  195. ( j% r, S' G5 ?
  196. Text #12
    $ }2 ^. D2 v) Q
  197. ID : 14) ^( u& s" R; [. G7 ]
  198. Format : UTF-8
    ( J6 k- @/ @$ {3 P+ S6 Y$ n
  199. Codec ID : S_TEXT/UTF8
    9 D% S9 M$ E4 |
  200. Codec ID/Info : UTF-8 Plain Text$ a  \+ J, v4 f" J: m1 K
  201. Duration : 48 min 19 s/ _$ X5 Z. n; D- ~8 ?
  202. Bit rate : 75 b/s, E3 v* @1 t3 m( V- D3 i
  203. Count of elements : 731
    % F/ l' K" z: M6 }
  204. Stream size : 26.7 KiB (0%)
    * R4 e6 J5 y' e9 _
  205. Language : Hungarian3 T! U( p1 A( G* p9 t; I
  206. Default : No
    . E: J8 O4 u8 J0 v3 L2 ^
  207. Forced : No7 y* T. q" w/ `. i, W+ ^

  208. ; F& M1 \' Q  B. @. [3 C1 Y
  209. Text #13  v" I6 s; X8 d7 L* h$ {
  210. ID : 15) u/ L$ X* X5 n' r% y" v
  211. Format : UTF-83 }5 ^: ?- }: C) @- F9 F( T
  212. Codec ID : S_TEXT/UTF8' o3 f$ l$ E1 c' o0 Y
  213. Codec ID/Info : UTF-8 Plain Text. g1 Y3 r/ D; z9 l  C1 n
  214. Duration : 48 min 19 s
    * y6 w. V; K( b3 y
  215. Bit rate : 76 b/s
      |7 X3 \9 x: E3 z+ [5 j2 }
  216. Count of elements : 803, ?& z8 t& S& i) A
  217. Stream size : 27.1 KiB (0%)
    2 T) ~% N% U/ A
  218. Language : Indonesian8 ?9 p# y0 w/ u( w, j2 F
  219. Default : No
    7 S- c4 q  J3 \- O: A$ i' R, Z2 G8 K
  220. Forced : No; f6 Y% ?' v3 O; R5 x( C
  221.   {" `* B4 S/ x' {; H' l
  222. Text #14* q. b1 p5 U" d+ R% L+ K: R; P
  223. ID : 16( A, V  l) \2 Q: b4 a
  224. Format : UTF-8$ q) m, J8 w/ M& G5 E% \
  225. Codec ID : S_TEXT/UTF8
    + i4 k' T( z* k
  226. Codec ID/Info : UTF-8 Plain Text
    ( p* L4 G6 ?. g# \
  227. Duration : 48 min 19 s( X/ e5 `- y- ~" o3 p
  228. Bit rate : 79 b/s
    ' q6 f3 ^4 X0 g4 ?/ r& ^+ ]
  229. Count of elements : 8201 ^) f' w$ ^* z7 ^1 e. z. V
  230. Stream size : 28.3 KiB (0%)2 _( u+ Q! \9 a# w& E4 N- I3 ?
  231. Language : Italian* n/ t* o- W( T% A
  232. Default : No2 w# Q5 o+ G( a
  233. Forced : No
    2 _' f& ]' M& k/ t3 Y
  234. ' ~: E1 E: f! q5 U
  235. Text #15
    8 ~9 k/ z; z9 W
  236. ID : 17# r- T! z7 r. h9 z
  237. Format : UTF-8% V' ^$ E/ W( }; G" u5 l* {
  238. Codec ID : S_TEXT/UTF8
    7 ~. g2 l8 M  _$ T' j5 E
  239. Codec ID/Info : UTF-8 Plain Text
    5 s' L* g% I, o( \! f
  240. Duration : 48 min 19 s  |$ c7 q/ b5 m) i2 }
  241. Bit rate : 69 b/s) O% o2 a0 K2 q7 `! j* o
  242. Count of elements : 859' N2 G7 I! h4 Q3 v; P
  243. Stream size : 24.4 KiB (0%)3 w. P( f  n+ C" A9 x. r
  244. Language : Japanese
    ) G  U$ X  m6 n4 B
  245. Default : No1 q8 t4 S9 |8 X
  246. Forced : No7 N% ^0 D9 o* \8 }' [
  247.   b8 f8 J% D, a" o+ p
  248. Text #16& K% Z9 h8 n; `0 J1 t1 r* k6 @
  249. ID : 18% {2 b' U0 a/ n' N# q
  250. Format : UTF-8. S/ z' H+ ^2 L- M1 Q" e
  251. Codec ID : S_TEXT/UTF85 Y0 }8 ]1 y" ~3 V" X- a+ Y
  252. Codec ID/Info : UTF-8 Plain Text
    ; E9 k: I; N% M0 W6 v" C
  253. Duration : 48 min 19 s! a7 B& k0 L& F; a; C, g: Z
  254. Bit rate : 91 b/s
    : C& g4 n9 ?0 n- R2 y! e8 ?
  255. Count of elements : 825- x  G3 V/ R! m$ G4 o( e
  256. Stream size : 32.3 KiB (0%)$ x1 Y7 s; _  P) ]# _' F
  257. Language : Korean. n& e; F% t& d* O: U* m
  258. Default : No
    8 e7 S3 I9 v, x
  259. Forced : No% I  g; `* o* i9 G! a9 Z5 W( a: e

  260. $ d4 i4 p/ H( ^% z
  261. Text #17
    " P  h7 h) A# o5 W% u
  262. ID : 19
    ; R2 R& ^' s0 }
  263. Format : UTF-8
    " l$ H8 c- K* D" l  Y
  264. Codec ID : S_TEXT/UTF8
    3 ^3 P- ?/ h  p- K2 l
  265. Codec ID/Info : UTF-8 Plain Text
    $ @) X8 G9 k! z& J
  266. Duration : 48 min 19 s
    : h1 F4 |* w$ g" @
  267. Bit rate : 73 b/s
    : C1 E) y2 H$ O3 F
  268. Count of elements : 856
    6 @, D+ o; t) ~: a5 `3 I
  269. Stream size : 26.1 KiB (0%)
    % D. X! @/ x: U0 z/ o* w
  270. Language : Norwegian Bokmal
    ! ]' o% c8 G# G# U: V1 N
  271. Default : No, l" S0 {# |# R9 K+ g
  272. Forced : No
    , P6 U2 q$ Y  v5 r, }, g! i3 p
  273. 0 ]2 I$ q) |: t+ e
  274. Text #18+ R* Z* d0 n1 o- z. B& p3 |7 k8 s
  275. ID : 20/ c/ r- P4 {9 L* N) G  t4 k1 R
  276. Format : UTF-8* K2 B. |6 j# u, o1 y+ e
  277. Codec ID : S_TEXT/UTF8# q) {" s( N6 S+ p
  278. Codec ID/Info : UTF-8 Plain Text
    . N) [$ u( N2 D5 c$ _
  279. Duration : 48 min 19 s
    9 c* k( D- T5 A
  280. Bit rate : 74 b/s, f: a' C" k* g" N1 k& ]
  281. Count of elements : 806
    : i' y1 G! g: {! @  N( L
  282. Stream size : 26.2 KiB (0%)0 ?( k4 Q! G/ @: w+ g
  283. Language : Dutch/ K; B/ r/ w" r, }' m& L$ P  N
  284. Default : No- t+ L; ~. I5 ^. h) `
  285. Forced : No) Z9 b5 x% g% R
  286. 3 c4 T  h! i  S  l/ g# V: I& z6 Y
  287. Text #19* t  j+ R4 Y# r/ a& O
  288. ID : 21
    . B: C' Y+ j# ~! ^: @4 ~3 q
  289. Format : UTF-8, n: M# Z. S$ {2 e  y
  290. Codec ID : S_TEXT/UTF8
    * `0 i* X) B6 o: {2 B7 r
  291. Codec ID/Info : UTF-8 Plain Text
    5 N6 Q9 V/ R/ ^
  292. Duration : 48 min 19 s
    + J, T1 ?( }: `" u4 B* b7 h1 U% w% Z
  293. Bit rate : 67 b/s. x, }: U9 w5 {9 @3 }- P
  294. Count of elements : 707
    , N4 G. ]/ r! e# o; U/ K
  295. Stream size : 23.9 KiB (0%)
    2 T3 @9 k' R- x8 R
  296. Language : Polish& `" F+ F* i+ G
  297. Default : No
    1 k7 V' I' {- h1 w) }4 w5 `# v
  298. Forced : No! a% }' W, M$ D" V) k
  299. ; ^2 {2 A* |9 J+ ~6 c
  300. Text #20: j& Q! L. t+ Z, b1 e5 ^2 `
  301. ID : 22
    0 m7 |, @) Y# p: _6 K  Y
  302. Format : UTF-8/ x# ?. E3 ^5 k3 E4 F4 F
  303. Codec ID : S_TEXT/UTF8% K$ R, _0 y+ L' ]  b+ Q7 p6 G
  304. Codec ID/Info : UTF-8 Plain Text
    9 u" S' B6 A; d8 |
  305. Duration : 48 min 19 s4 V) [, q. x: {0 |, o5 h' L3 E
  306. Bit rate : 72 b/s
    . v: T4 ~9 g5 I  u% k
  307. Count of elements : 8028 q' R" T0 T- J! }- A
  308. Stream size : 25.7 KiB (0%)! n2 |1 v$ \. G( _. o
  309. Title : European4 y3 d& P7 H: i+ M5 `' J
  310. Language : Portuguese+ ^' P# L" r; D! s" F) L
  311. Default : No
    4 x! I% Y1 i9 {. Y" u+ F
  312. Forced : No
    + U- X' H4 p; c: ^) X

  313. " q8 O3 `/ q: U$ Q6 i
  314. Text #21
    ' z8 m: v- H5 @7 `
  315. ID : 23* B2 d4 H' m0 c: |* W
  316. Format : UTF-8. f# b0 ?0 A- `* H1 @
  317. Codec ID : S_TEXT/UTF89 N1 X7 ~3 w& r. E" r9 s) }
  318. Codec ID/Info : UTF-8 Plain Text
    1 ?7 n- h8 c+ T0 ]/ X
  319. Duration : 48 min 19 s" {) l5 m8 \0 g% ^/ L
  320. Bit rate : 74 b/s# K. _. r% u8 Z
  321. Count of elements : 819
    1 n; |! u6 v$ {: y' s
  322. Stream size : 26.5 KiB (0%)
    7 `+ ?: R5 {; |) G
  323. Title : Brazilian  I( c% p, o8 ^3 B9 V
  324. Language : Portuguese
    3 L3 p- C  a9 J" G3 e! C1 h& C
  325. Default : No
    5 W/ b- H+ }' _. |/ m/ M- @
  326. Forced : No
    6 ^, P0 m, x. e! M2 @8 K3 z9 p
  327. 2 S" K, `. X; D* A
  328. Text #22
    ! \0 E) A9 i" t7 x) p
  329. ID : 240 S% S$ i* ~" N% [3 i* H7 L
  330. Format : UTF-8- ~4 G% {- z- f
  331. Codec ID : S_TEXT/UTF8
    % Q2 T8 O2 H4 }- w7 i7 o
  332. Codec ID/Info : UTF-8 Plain Text
    2 p7 Q6 x% O$ O) e% I; l2 H
  333. Duration : 48 min 19 s
    . u5 g. d+ `, }
  334. Bit rate : 81 b/s1 b& r, E" }/ R  e7 [
  335. Count of elements : 807
    1 {# c! ^; @: ~& R! U
  336. Stream size : 28.9 KiB (0%)
    " `* n; ^9 ~2 D9 C$ I9 b$ ?: o
  337. Language : Romanian
    & R1 C! d4 ]: q7 q$ T/ [1 a
  338. Default : No. x, s; L% A8 t" B9 |
  339. Forced : No+ b  h1 a  [& w0 h9 h

  340. 0 P+ n# S4 T( s5 y/ o& T& R- G
  341. Text #23
    $ `$ N) N' K1 k: u7 s3 g
  342. ID : 25
    4 e  E6 ]7 ]) G* M+ B7 K
  343. Format : UTF-8
    . _$ e8 G7 q' a
  344. Codec ID : S_TEXT/UTF89 i1 U# z; {7 s8 `
  345. Codec ID/Info : UTF-8 Plain Text
    % q! T" h9 `! e; \9 x' N
  346. Duration : 48 min 19 s
    ! [" A5 v$ t2 F" q2 U: f' |: Z; P  j6 t
  347. Bit rate : 122 b/s
    ) p' j3 m& s* ~( q( i+ U# t
  348. Count of elements : 8064 p2 ~1 I- O; g3 ^
  349. Stream size : 43.3 KiB (0%)
    0 ~0 j0 l! G' F7 S9 f1 A* G
  350. Language : Russian" ]# W) K7 p: U( @) o1 I+ T
  351. Default : No
    3 q, d' g( @# Q! x! m  @; L
  352. Forced : No6 F& Q- a8 l7 x: b8 g; S/ r8 I5 g! O
  353. % J( J8 ]1 W8 X( p: k* R& n1 S" @
  354. Text #246 ~. D& @. d6 S5 Q% C2 Q
  355. ID : 26
    ( U/ N5 O! H. [: \) J! k0 V
  356. Format : UTF-8
    + [: a( E5 f+ }/ t) Y3 ]0 z
  357. Codec ID : S_TEXT/UTF8
    3 J: u4 m% P# U  {
  358. Codec ID/Info : UTF-8 Plain Text
    2 E) d4 m) O' o. i
  359. Duration : 48 min 19 s
      n! R) l$ v" Y  G2 Y" k* O: r* Q, H
  360. Bit rate : 80 b/s* Z6 E$ Z* |- M7 y; c2 W! Q1 p
  361. Count of elements : 803& x" n0 p& V+ Y7 z8 G$ k
  362. Stream size : 28.4 KiB (0%)1 I9 w1 }! C; F' S3 k- D# h" X
  363. Language : Swedish$ w/ I3 V- M8 r4 B) r0 z. U
  364. Default : No# j2 Y, s5 T5 t2 {7 I0 I
  365. Forced : No1 g+ D0 n  Y7 `4 q

  366. $ Q# R1 e* M! ]! @! L
  367. Text #25
    . F2 e4 g! W5 r' o5 ?1 l9 y9 k: x
  368. ID : 275 X4 g8 j& J) J0 O$ t, b4 h1 E# |) u3 s
  369. Format : UTF-8
    + X! d3 S* A  `- t7 S2 e; i
  370. Codec ID : S_TEXT/UTF8
    + b  Z0 ~7 s" d8 L
  371. Codec ID/Info : UTF-8 Plain Text
    0 m" N- R& X6 w, {2 n
  372. Duration : 48 min 19 s
    9 z) \% k! p# |2 X, G
  373. Bit rate : 186 b/s4 i0 M: K& N% Q" `
  374. Count of elements : 825
    2 _) I+ ]7 s1 U8 `* n5 g
  375. Stream size : 65.9 KiB (0%)
    + k% F  Z6 k/ v6 |; G
  376. Language : Thai
    + I. u% M* s6 \% W6 i
  377. Default : No
    : y7 C! p) I2 f# n/ \
  378. Forced : No5 ]. A, M5 b$ \) v0 e

  379. ; j, J, V" R/ }; V( ~
  380. Text #26
    7 M& c* i% W) J8 |" ?
  381. ID : 289 M1 `8 |. D8 C. X6 ^+ V, [! W
  382. Format : UTF-8
    - b4 A" B" Q+ }! P3 n7 L, H
  383. Codec ID : S_TEXT/UTF8
    8 q9 y/ m/ N$ c5 `
  384. Codec ID/Info : UTF-8 Plain Text
    # o4 h! ]) b9 j
  385. Duration : 48 min 19 s$ t2 s9 C% M$ o' e% N' _  H
  386. Bit rate : 76 b/s& V4 j/ L/ a& A: w5 Z7 x
  387. Count of elements : 7940 |9 ]+ s; c) r- t! i
  388. Stream size : 27.0 KiB (0%)
    - a; L# e- d& n% G! w& w
  389. Language : Turkish
    # ^4 u: m. P# ?
  390. Default : No" B( U1 n! i7 Z
  391. Forced : No
    & c# g4 K) c5 l- x) g$ S* `
  392. 9 M' x8 \: _: v
  393. Text #27/ @7 g& H/ a% p% Z5 k6 `$ u
  394. ID : 29
    ; _9 {$ _2 l& ?+ K& O
  395. Format : UTF-8$ O" i: Z& \) |; R) _0 [: A: p
  396. Codec ID : S_TEXT/UTF8; W' ]( s2 e; k
  397. Codec ID/Info : UTF-8 Plain Text' L7 P- n: Y; p: q2 x# T
  398. Duration : 48 min 19 s9 V- h' ~. e- e" T6 [6 d( @% ]
  399. Bit rate : 109 b/s
    4 q" G9 R* j5 I# k/ q
  400. Count of elements : 818
    9 n$ Z; U$ a. f6 l" b
  401. Stream size : 38.6 KiB (0%)! s# O8 A  m  D3 a8 E
  402. Language : Vietnamese# r  D& u. Z* {1 e0 _
  403. Default : No
    1 a/ ]2 @: I/ g/ T$ G
  404. Forced : No: T5 v$ H. X  P- O  R. X0 n( y

  405. / g& M+ c, Y4 w* m( y
  406. Text #28( V! T' i3 Q  _- T
  407. ID : 30
    # x2 i7 y. p; e4 `9 o. ?: G
  408. Format : UTF-8
    % N' H4 r: n) v
  409. Codec ID : S_TEXT/UTF8
    ( h; ]) z# J9 v! E/ g0 R
  410. Codec ID/Info : UTF-8 Plain Text
    0 c; Y  F3 y5 t2 O
  411. Duration : 48 min 19 s1 {: Z2 `- ]% T/ e$ r1 c9 P
  412. Bit rate : 75 b/s
    , [! ]+ p, h5 g, o
  413. Count of elements : 8260 Y. Y3 {0 ^7 f0 S4 `& }) c5 ^
  414. Stream size : 26.6 KiB (0%)
    8 D6 b  F. }5 J& v9 C
  415. Title : Simplified9 w; v( k$ `/ Y- o: e; Z- ]1 O4 u$ d
  416. Language : Chinese
    # z) k3 |1 A7 r. v4 [. {
  417. Default : No
    1 x, j1 p! m( }2 W/ n  H8 [: N
  418. Forced : No& q  P: }' J, f2 z

  419. 7 i" H2 v9 z# i9 o
  420. Text #29" v$ H- \" _: V+ H' x$ }( N! u
  421. ID : 31( D- Z, b7 ^. X* {3 s
  422. Format : UTF-8
    ( ]- }% \. m3 Q! e$ e
  423. Codec ID : S_TEXT/UTF89 C8 |" p0 P! V% q
  424. Codec ID/Info : UTF-8 Plain Text
    ! {' _2 e0 {: f; W# Y6 d; {. b  O
  425. Duration : 48 min 19 s
    9 p2 Q- G0 d- n8 V2 P# y
  426. Bit rate : 81 b/s& |$ P$ z4 r  T$ b  L8 J7 @
  427. Count of elements : 816
    ) y. }6 a9 ~8 U8 D# _
  428. Stream size : 29.0 KiB (0%)1 j: a$ q( M4 K2 K' m
  429. Title : Traditional9 M! \: E7 X+ W1 L- n: I
  430. Language : Chinese
      d; C5 M. G0 N, p+ j
  431. Default : No
    : u; B4 q! m# Y& i0 O! x, g
  432. Forced : No
复制代码
7 @6 g, R% ^0 P

, [/ r( \1 `# i+ l  ^3 `5 I" [
2 c/ {% i( y& n+ ]+ w% Y# o( K! h/ p9 s) G
. v# n3 Y* E8 P8 n. q" L4 o, t& l$ N. E

4 i- s0 _7 v$ _4 o1 N0 t: Z4 p
游客,如果您要查看本帖隐藏内容请回复  VIP可免回复查看隐藏内容 详情请点击
发表于 2020-4-27 06:36:04 | 显示全部楼层
谢谢楼主分享资源。
发表于 2020-4-28 01:04:59 | 显示全部楼层
thanks for share
发表于 2020-5-17 17:02:18 | 显示全部楼层
谢谢楼主分享              
您需要登录后才可以回帖 登录 | 立即注册

本版积分规则

QQ|封号公示|手机版|有问题发邮件到admin#(换成@)hd1tj.org|微博|免责申明|HD一条街

GMT+8, 2020-7-15 06:55

快速回复 返回顶部 返回列表