HD一条街

 找回密码
 立即注册
搜索
查看: 305|回复: 5

[欧美] 寻找继承人 第一季[自带中文字幕]Win.The.Wilderness.Alaska.S01.1080p.NF.WEBRip.DDP2.0.x264-SPiRiT 13.8G

[复制链接]
发表于 2020-4-26 20:39:07 | 显示全部楼层 |阅读模式

马上注册,结交更多好友,享用更多功能,让你轻松玩转社区。

您需要 登录 才可以下载或查看,没有帐号?立即注册

x
尋找繼承人1 Z- F' n/ |' q- y) o4 L
202013+1 季實境與綜藝脫口秀節目
% }" y' Z% r0 M, `/ S- O5 I3 F: L六對伴侶必須相互競爭,證明他們擁有野外求生技能,足以贏得這間位於偏遠阿拉斯加的絕美小屋,在這片廣袤粗獷的荒野地契上生活。
  1. Video! ]4 S% |3 ?- m% r9 j9 M
  2. ID : 1
    - c: {4 I' x- F' A5 n0 u6 N
  3. Format : AVC
    3 h0 S# P2 S. q9 k" u9 G
  4. Format/Info : Advanced Video Codec
    5 N$ x7 x1 A& N
  5. Format profile : Main@L4+ l* a  e- P3 V
  6. Format settings : CABAC / 3 Ref Frames: Z& R/ \. u! t& b( Z, o; |
  7. Format settings, CABAC : Yes+ g2 I. a9 r1 Y9 q. b1 J
  8. Format settings, Reference frames : 3 frames
    ) k- e& p) g9 p; r
  9. Codec ID : V_MPEG4/ISO/AVC
    ! k; t! m: i+ V: N- L
  10. Duration : 48 min 44 s
    - Q& O+ h1 ?1 D' J. [' f) j
  11. Bit rate mode : Variable
    2 V/ H% I1 q1 r' \$ Q
  12. Bit rate : 7 500 kb/s
    9 I& O! p% |$ K" O0 @( B' a
  13. Maximum bit rate : 11.2 Mb/s
    9 G: w2 t7 B# R7 |
  14. Width : 1 920 pixels
    ) J1 B, L4 ~+ `& w3 \& F
  15. Height : 1 080 pixels; X, [6 ~9 A9 m) x
  16. Display aspect ratio : 16:9/ B5 R, N4 ^$ T. E9 h7 i; h
  17. Frame rate mode : Constant
    $ J( X+ O+ y% \9 |' [9 J  W
  18. Frame rate : 25.000 FPS
    1 [! Q/ a" p9 w1 V- ?5 a2 ]
  19. Color space : YUV5 V) }, B/ [# z
  20. Chroma subsampling : 4:2:0
    5 E& Q7 O$ i' v& j
  21. Bit depth : 8 bits$ ^$ n+ l% f8 ]9 s, a& |) }
  22. Scan type : Progressive
    , X; T+ J6 y3 p5 ^. z" ?4 l% u
  23. Bits/(Pixel*Frame) : 0.145
    5 ]$ t6 D+ \5 ^0 B  M* J. g! J
  24. Stream size : 2.53 GiB (98%)
    # i. z. c1 A  w) S% K( @) P; H+ q- t
  25. Writing library : x264 core 148 r2717 0d2410d7 F% z3 j* m. p9 E; K
  26. Encoding settings : cabac=1 / ref=3 / deblock=1:0:0 / analyse=0x1:0x111 / me=umh / subme=10 / psy=1 / psy_rd=1.00:0.00 / mixed_ref=1 / me_range=24 / chroma_me=1 / trellis=2 / 8x8dct=0 / cqm=0 / deadzone=21,11 / fast_pskip=1 / chroma_qp_offset=-2 / threads=8 / lookahead_threads=1 / sliced_threads=0 / nr=0 / decimate=1 / interlaced=0 / bluray_compat=0 / stitchable=1 / constrained_intra=0 / bframes=2 / b_pyramid=0 / b_adapt=2 / b_bias=0 / direct=3 / weightb=1 / open_gop=0 / weightp=2 / keyint=250 / keyint_min=25 / scenecut=0 / intra_refresh=0 / rc_lookahead=50 / rc=2pass / mbtree=1 / bitrate=7500 / ratetol=1.0 / qcomp=0.50 / qpmin=6 / qpmax=51 / qpstep=4 / cplxblur=20.0 / qblur=0.5 / vbv_maxrate=11250 / vbv_bufsize=15000 / nal_hrd=vbr / filler=0 / ip_ratio=1.40 / aq=1:1.00# h% W) ~7 Z" w% p
  27. Default : Yes
    0 F( R/ o. D0 H8 ]; q, @7 G
  28. Forced : No
    , q8 Z# P1 n. D$ N8 ~  v% E
  29. 4 [5 e8 J. V  ~; I, t
  30. Audio3 m$ \& \% u) o& k1 D: F4 @7 Z
  31. ID : 20 ]4 A/ c: [1 ]/ w+ O( Y  H6 P
  32. Format : E-AC-3! P/ R3 n* R/ G2 e7 H/ c7 v
  33. Format/Info : Enhanced AC-3+ X& P* I0 ]9 P$ t
  34. Commercial name : Dolby Digital Plus8 h) f7 k$ x# z# ~% O
  35. Codec ID : A_EAC3
    * e6 ~6 p9 U" u! K/ b$ A7 u: J
  36. Duration : 48 min 44 s$ ]5 f! ?/ ?7 t1 y8 g' x
  37. Bit rate mode : Constant4 u6 g: j; [7 M, c% ?% ?7 R5 Y1 m
  38. Bit rate : 128 kb/s( j: y8 T5 u/ k9 j6 h2 e1 e
  39. Channel(s) : 2 channels
    + Y4 ^) V! H3 L. i6 o7 P
  40. Channel layout : L R
    7 v5 T( _0 R% b
  41. Sampling rate : 48.0 kHz
    " G( q! C4 A/ G' }
  42. Frame rate : 31.250 FPS (1536 SPF)
    ! n! s# j) I6 B# Z0 K4 d! F
  43. Compression mode : Lossy% v' n' M5 {' E/ E( y0 \8 i/ u$ I
  44. Stream size : 44.6 MiB (2%)* I% J+ G, W. F4 K* ]8 s
  45. Language : English
    7 T% i: K' \) b# B
  46. Service kind : Complete Main5 P0 D) f' ^* M9 ^
  47. Default : Yes4 J2 k! G5 {+ i, M7 l2 [* _& d( e$ R
  48. Forced : No
    0 o1 O# q% X9 `0 k, `

  49. * @6 b! p4 G; f
  50. Text #1; x, I) H& C, l
  51. ID : 3
    ! J, D' ]/ g6 c& R( j! F# B  B* {
  52. Format : UTF-89 t* Z! _- k2 ~
  53. Codec ID : S_TEXT/UTF8
    - w1 B6 Z; r6 B- l& V
  54. Codec ID/Info : UTF-8 Plain Text
    ; J" O# V6 Z% I; K6 U7 e
  55. Duration : 47 min 47 s- j# i7 Y3 b  `# K! f3 `
  56. Bit rate : 91 b/s+ ]! z  N- e5 q- e# s. y+ D
  57. Count of elements : 8535 E4 f# ?0 d# X' X* j# _3 W5 N. g. _
  58. Stream size : 32.2 KiB (0%)
    6 }9 x$ x3 J0 w/ N5 s
  59. Title : SDH
    / Z2 C$ q( `7 e/ r1 a5 `+ S5 @
  60. Language : English
    3 R+ k7 ]1 [% D
  61. Default : No3 N3 A0 W9 j+ R7 s+ m
  62. Forced : No
    9 D3 s8 p8 M, U4 T0 _

  63. # ], s( O: P6 P6 i
  64. Text #2. c! A* X% Z/ p/ ~
  65. ID : 4: }( {& }* k6 d3 J! a( M
  66. Format : UTF-8
    : A  D+ v: R  k' h: Z9 ~7 T
  67. Codec ID : S_TEXT/UTF8
    ; m: W+ B8 }/ m& j1 ~8 O& j
  68. Codec ID/Info : UTF-8 Plain Text
    ' b9 G& x. R' ~. f
  69. Duration : 48 min 19 s
    " K% a' R0 n) F" ~& P" e
  70. Bit rate : 132 b/s
    % ~6 R& I# ?( j8 B7 p
  71. Count of elements : 819
    ' z+ L, C1 j' z) Y) ]+ a$ `
  72. Stream size : 46.9 KiB (0%)7 Y/ l) L  A2 z
  73. Language : Arabic
    % L9 k- u; G, l
  74. Default : No
    ( t: M9 Q1 C; }) h
  75. Forced : No
    ' r' @" j6 y  C* |4 G) i3 i( o$ b

  76. " L7 H3 t- V9 c6 [) P
  77. Text #30 ~1 v0 D0 ?3 s' _0 I. _% @
  78. ID : 5- @, ]( }, r; ?2 {% L
  79. Format : UTF-8
    # `* L4 v! z, D* v
  80. Codec ID : S_TEXT/UTF8$ B! W' O, w. {. H) b
  81. Codec ID/Info : UTF-8 Plain Text) z. x6 F2 b: H) H8 r4 E
  82. Duration : 48 min 19 s- c" N7 t/ A) ?6 ~: \
  83. Bit rate : 74 b/s  O- o& d2 k0 j4 x4 r1 G, _7 U
  84. Count of elements : 826
    0 B# a( R; k' y& b
  85. Stream size : 26.3 KiB (0%)1 p4 \: b" F* D5 }( E# `
  86. Language : Czech% _2 a1 [& f7 {- V5 ~0 s& {2 X# W! S
  87. Default : No
    0 T7 m1 j/ {. g
  88. Forced : No4 L# ]' v# }  m( r6 X* A

  89. 6 t* w7 N* n2 D
  90. Text #41 u" P; L7 E& b' N8 Z
  91. ID : 60 T' X/ E9 Z3 E/ P5 ?6 h4 _! }
  92. Format : UTF-8
    * i6 E7 M$ j0 C' L9 [0 M# m
  93. Codec ID : S_TEXT/UTF8( m8 V/ N6 L. _  Z% X
  94. Codec ID/Info : UTF-8 Plain Text6 u- `0 I" b- l3 V! M
  95. Duration : 48 min 19 s
    7 @: X" n2 g- w1 j; U
  96. Bit rate : 69 b/s
    # F* C! ]: w" p0 f8 M
  97. Count of elements : 785/ m- T. \7 o' O
  98. Stream size : 24.7 KiB (0%)
    1 m1 t- o% U3 |3 f, J
  99. Language : Danish6 v; U6 E3 S' I. q
  100. Default : No
    ; j/ z) i& I7 q4 Q, E
  101. Forced : No
    & s% c8 t0 m! Y6 v# [) v
  102. 0 w! k: O6 s5 _; R# p1 v# Y
  103. Text #5
    9 `- G, |( ?( A; _& p' q
  104. ID : 7
    7 v+ m2 y4 Y& P
  105. Format : UTF-8
    * W8 r0 z5 d2 g4 E* @
  106. Codec ID : S_TEXT/UTF8/ \% M* V" q; O! f1 n& i5 _
  107. Codec ID/Info : UTF-8 Plain Text
    ) m9 H5 F% N) @/ u  L# L* _( q
  108. Duration : 48 min 19 s
    1 c) m9 y! N" b1 A3 Y
  109. Bit rate : 81 b/s
    8 A4 M3 g2 }0 x; l4 X% n( r
  110. Count of elements : 818; y3 q6 i. Q! u! ?7 U8 v
  111. Stream size : 28.7 KiB (0%)
    2 O5 X' T3 H6 B6 u+ J$ n0 `! ]
  112. Language : German% P, M! M3 I9 m. M+ }
  113. Default : No
    / I. ?+ O2 l7 `( i: U
  114. Forced : No0 r9 U  v$ O# }% j1 z) N
  115. 9 G% L( E5 s. g# e* c4 |
  116. Text #6
    ; z* A3 x# G/ [; y, n
  117. ID : 8
    . F$ Y1 O7 [! c2 U! n) B
  118. Format : UTF-8( {  N& U/ d  E0 b) G. Q$ O' U
  119. Codec ID : S_TEXT/UTF8
    % T* d+ U1 `( {4 h# y
  120. Codec ID/Info : UTF-8 Plain Text# ?; W* r4 p0 w
  121. Duration : 48 min 19 s% y' Z9 I+ @4 d$ U5 q
  122. Bit rate : 131 b/s4 I0 L# ^! e  x- v, f5 }* s& C
  123. Count of elements : 766( H" O4 ]8 i& e2 _# h
  124. Stream size : 46.4 KiB (0%)
    & V- r# [% ~0 X$ [
  125. Language : Greek
    # e3 a) W& R& T' S0 o" a6 p% D
  126. Default : No( _8 ?5 N4 O( v
  127. Forced : No' ~6 z. C: ~) R. y; s3 _- _
  128. 9 J& U) E3 {2 q2 x/ I
  129. Text #7
    9 L$ @& r& \; u! P5 r
  130. ID : 9
    3 v# ~  c1 o- u, ?$ A
  131. Format : UTF-81 Y% j5 E( Y: g$ C" v! ]
  132. Codec ID : S_TEXT/UTF8
      V3 i3 x- i8 L6 ^7 S
  133. Codec ID/Info : UTF-8 Plain Text
    " l0 Z. {4 T" x% X1 X5 f7 z
  134. Duration : 48 min 19 s5 U/ [  T9 o1 [
  135. Bit rate : 79 b/s
    + W1 v: s8 S9 p1 {  N1 [5 s
  136. Count of elements : 844
    $ V; }. `. W9 D& D2 [4 N9 ]/ g: \
  137. Stream size : 28.2 KiB (0%)
    , M4 z7 Z- I7 A' v
  138. Title : Latin American# `8 z0 e7 v( o: o+ c
  139. Language : Spanish
    ) t' C' ~. a! d6 t: w5 }# J
  140. Default : No
    ( f# r) B; R3 b5 c4 }. W* p" U, d
  141. Forced : No8 B) V9 q7 ?8 {7 c4 T, }
  142. ' N9 W: w9 k9 I, m6 T
  143. Text #83 n$ j1 h) a& f! Y/ N
  144. ID : 10
    0 g1 d/ \- H4 u+ O  p
  145. Format : UTF-8$ y: ]; ]+ A2 e' t+ S) ?. \& h
  146. Codec ID : S_TEXT/UTF8
    ) `1 V+ J) }' P
  147. Codec ID/Info : UTF-8 Plain Text, ~( }0 j3 o( m, s
  148. Duration : 48 min 19 s
    8 a2 m' ?1 u# F1 f' i+ [) b  `/ m% y
  149. Bit rate : 74 b/s# s$ ^$ G- o7 q( n! y  {$ F( l3 Z
  150. Count of elements : 798
    % }( F$ T6 q' f/ q
  151. Stream size : 26.3 KiB (0%)7 n+ K& n- G* _( z
  152. Title : European
    * l4 M8 ]( z8 F1 X2 R; }
  153. Language : Spanish
    ( t3 M  e6 q. V. K: P' f+ `7 G6 [; z4 N6 U
  154. Default : No
    6 T9 C. p, ~  n8 r
  155. Forced : No$ N; b% a8 L7 O% U

  156. 4 l/ t+ H) n+ Z; C  H- z* W2 ~
  157. Text #9
    + S# f1 R* G% b6 G3 n$ i2 I
  158. ID : 11( E* E+ y$ n6 P) {4 B
  159. Format : UTF-8- d; V' `% z" D: s5 ^1 z5 [/ i
  160. Codec ID : S_TEXT/UTF8/ T- I- V5 m7 }& r
  161. Codec ID/Info : UTF-8 Plain Text
    / _: C0 M) l" L% [! l% g8 U. K0 r
  162. Duration : 48 min 19 s
      y$ B+ i7 z" {! b# @% o
  163. Bit rate : 74 b/s
    . b6 W& `. j8 I$ \' K5 V6 {; C3 n
  164. Count of elements : 809- r9 b' w/ _4 t+ h/ T4 B, v' G( l
  165. Stream size : 26.5 KiB (0%)
    2 B$ D* |3 t, T8 ~9 C
  166. Language : Finnish
    8 }& t2 f5 D2 M. h8 r9 q2 x
  167. Default : No
    + f* R0 ^9 |$ k, w- Z. |8 Y' [
  168. Forced : No
    % w* Z  O" k: }
  169. : {7 t$ b( w9 m/ Y8 i" z# I
  170. Text #10$ s! j4 J& ^1 }, M$ U
  171. ID : 124 {- |& L: D7 \" }0 T
  172. Format : UTF-8
    ) \. r. S; w, }3 ]# s# W, D6 P8 H
  173. Codec ID : S_TEXT/UTF8
    4 y. D* R# z. R& X- b
  174. Codec ID/Info : UTF-8 Plain Text
    ! I6 {" _! f  P8 A" u
  175. Duration : 48 min 19 s" s3 W! E# S2 m0 ~9 I
  176. Bit rate : 70 b/s
    ; Z/ r7 i2 l& Q4 ]: x/ r) u/ v
  177. Count of elements : 758
    " i+ L6 ?& D8 t; s4 G) H; j
  178. Stream size : 24.8 KiB (0%); ?2 N8 R1 t2 g5 W+ ~2 s$ C
  179. Language : French
    / b% p7 Q% R& Q& S
  180. Default : No
    ) Q1 ^& k  v* \( K: _; y
  181. Forced : No
    2 [2 T* \/ L. ]4 N# b: D9 ]
  182. # @0 p# K) ], z$ u6 M
  183. Text #11
    # o3 d! k% x4 n/ F" k
  184. ID : 13
    6 a. k% `7 R) t% R' q0 g. \
  185. Format : UTF-8
    / o3 s6 ]+ W0 {7 k" l, y. y- m# ]
  186. Codec ID : S_TEXT/UTF89 Z( o# ]6 q% m; n
  187. Codec ID/Info : UTF-8 Plain Text
    8 d4 A* P5 V( `( d+ e2 ^
  188. Duration : 48 min 19 s
    1 F8 g# q3 {1 P: F
  189. Bit rate : 120 b/s
    $ |5 G# |1 _0 L3 |8 l" a, R8 Q
  190. Count of elements : 8194 e5 W( ^6 @' c
  191. Stream size : 42.7 KiB (0%)
    1 f7 q7 B, a# \# S
  192. Language : Hebrew2 V5 w: u# _5 [) Y" W# f3 x  \
  193. Default : No' Q) w& m& |. T
  194. Forced : No
    # A9 R8 F( }; a1 ?) P

  195. ( d+ P. o( }  C) [: l
  196. Text #12: W1 p- X3 k; \2 H. Y* n# m% i
  197. ID : 14
    7 _4 x, C( U% ]% W9 `
  198. Format : UTF-8* G- B! y# y3 ^: F7 b
  199. Codec ID : S_TEXT/UTF88 v5 H. d2 y- d! G9 M  i7 Z
  200. Codec ID/Info : UTF-8 Plain Text
    $ h6 Q* \8 G$ J- `$ \- T3 n
  201. Duration : 48 min 19 s
    * K+ E9 m' d. y( C- f) v, h
  202. Bit rate : 75 b/s& g9 J5 T, Z1 ~: c- o; X
  203. Count of elements : 7313 O4 ^0 Y& w) `, Q- H4 F
  204. Stream size : 26.7 KiB (0%), p" v% ~7 ?+ q; K# i
  205. Language : Hungarian& ^" S- V9 y' d6 ]  G; G  w
  206. Default : No
    * V) T' ?1 @) c& J: Y. i5 p! d
  207. Forced : No5 E* y4 Z8 M& R& [- i

  208. 8 Y- j/ r3 U; F  z, o
  209. Text #13
    ! P5 s) j: J7 ~
  210. ID : 15$ @; ~+ A( h" W! P9 [8 F
  211. Format : UTF-8
    8 Y" ~1 g3 z5 Z& A8 E5 M8 Z
  212. Codec ID : S_TEXT/UTF8' H* f4 a2 t' @% H, E
  213. Codec ID/Info : UTF-8 Plain Text
    4 ^5 u. A4 [6 U* Z- n
  214. Duration : 48 min 19 s. F! y* M9 J+ J9 W1 V
  215. Bit rate : 76 b/s
    4 h& L6 O7 |: e3 h' A/ ?
  216. Count of elements : 803
    7 G& `; H+ E4 m+ E
  217. Stream size : 27.1 KiB (0%)
    ; o4 F& G9 A* o9 u9 |+ X
  218. Language : Indonesian8 g3 V/ D. x) J" u1 i
  219. Default : No
    % l" v3 ]6 _% |. w
  220. Forced : No6 e2 I# e4 |, J4 I' Q) Y, K( {1 G

  221. * p9 J, M9 w; l, ?! @$ l# X
  222. Text #14* N( M, Q$ Y4 \. c3 u! O
  223. ID : 16) f, m9 g& o) k1 }7 `# k
  224. Format : UTF-8
    6 l! W$ Z" \: ]8 L
  225. Codec ID : S_TEXT/UTF8" I1 L! g) O/ P% F& F+ x
  226. Codec ID/Info : UTF-8 Plain Text
    2 l" h8 Y$ h' x3 ]" ?: c! e5 k/ g
  227. Duration : 48 min 19 s* e7 n/ z/ `3 P* l0 q& F1 b. Y3 i
  228. Bit rate : 79 b/s
    . ?6 t' i8 |4 L3 |- G! M1 E; W/ k
  229. Count of elements : 820
    ; K" `( F4 S# |/ @, e6 M" Q6 u
  230. Stream size : 28.3 KiB (0%)# y0 }7 ?) \0 ^% M3 ~6 I
  231. Language : Italian
    " _$ |; }9 D& G' q/ D
  232. Default : No
    # {7 o& D5 ?0 v" D4 M
  233. Forced : No3 h! C1 ~3 I" M, y
  234. ; s( @: H, o0 I" c: s0 f1 r
  235. Text #15+ |2 T& {; v- t9 l/ j2 y$ q9 o
  236. ID : 177 }; w! w* {, f, w0 M
  237. Format : UTF-8
    ; P" m( X, x, h. B) c; H
  238. Codec ID : S_TEXT/UTF8
    ' a1 k$ }; P8 }' X9 @$ k( m
  239. Codec ID/Info : UTF-8 Plain Text
    ) d% J- Y; G6 o1 }
  240. Duration : 48 min 19 s1 c6 ]% q' p1 y) L# C- U3 E
  241. Bit rate : 69 b/s& i# \' y* Z: i0 Q9 \/ [/ F
  242. Count of elements : 859
    7 J2 W9 `9 F) Y( C; N3 X, I
  243. Stream size : 24.4 KiB (0%)
    7 D7 u+ h$ |7 d  I) ^
  244. Language : Japanese5 k! q* h. O$ @% P8 Q+ {
  245. Default : No/ ^9 k) l* g+ Q1 S9 ^
  246. Forced : No$ q, o% K8 b% {  m* g0 ~8 \% @1 w

  247. " ^' h3 G$ f- q( u. O. ]7 B8 D6 l5 ?
  248. Text #16# g: j* d1 x: @( ~: Y1 y# S1 m8 D, X
  249. ID : 18
    , g9 m- J6 h- t- H4 d6 `, i$ C
  250. Format : UTF-8
    * x* o( p3 Z6 H" E# m) C
  251. Codec ID : S_TEXT/UTF8& V; Y+ U7 i' |& T+ ~' y0 u
  252. Codec ID/Info : UTF-8 Plain Text
    & X- r  l/ a7 t9 i% s4 T- P$ N
  253. Duration : 48 min 19 s
    6 E1 z* R6 f$ f/ u
  254. Bit rate : 91 b/s9 v) |: l0 U/ z8 C+ n: ]0 i0 n7 G1 l
  255. Count of elements : 8252 P0 j3 r( V% K  z0 r/ R
  256. Stream size : 32.3 KiB (0%)$ V( l" a9 K9 D) {
  257. Language : Korean
    ; A3 b5 B' ?. v  `6 p4 l
  258. Default : No
    $ k; z" V, I/ l. F- N0 O; Q
  259. Forced : No
    7 e2 O8 A. C8 l  _5 m  `: z

  260. ; L6 v" T& g2 Y! A  i1 f
  261. Text #179 B: k4 u% n9 H) X5 Q- Q3 h
  262. ID : 199 z" Z9 m( x1 l  y8 ]
  263. Format : UTF-8- {8 `) H- d* i( _3 H' C
  264. Codec ID : S_TEXT/UTF8+ T3 ^7 Y/ d! l/ |5 L5 B% u$ H3 K
  265. Codec ID/Info : UTF-8 Plain Text4 S$ T" `# E1 L
  266. Duration : 48 min 19 s
    + t+ w/ [/ k' l! n' c3 t/ l7 D
  267. Bit rate : 73 b/s
    - C- _3 H) Y3 ^3 b* n+ R/ X
  268. Count of elements : 8565 n* I- J* S0 t
  269. Stream size : 26.1 KiB (0%)- u' U& E# S( ^6 A; M
  270. Language : Norwegian Bokmal) [' \0 @, G/ S. d% T
  271. Default : No
    : ~- Z! M# E; f8 ~9 P
  272. Forced : No
    - [# V9 P) Q, o5 [, d
  273. ' `+ B: \' A, D. V8 A+ _- f# e4 ]
  274. Text #18% g9 e- X/ b$ P* F2 ]
  275. ID : 20
    ! e; t! d4 F9 {/ ?4 a9 v
  276. Format : UTF-8
    + t, A+ e2 z4 \$ H% X6 T
  277. Codec ID : S_TEXT/UTF8
    ! ]& F, r5 D' Y2 a
  278. Codec ID/Info : UTF-8 Plain Text
    1 q& M; D/ V$ x" N) s+ @
  279. Duration : 48 min 19 s8 l# R# B! @+ C4 g
  280. Bit rate : 74 b/s4 Z. f$ Y2 d* Q3 U) v+ F( a
  281. Count of elements : 806
    6 T) V$ P% {0 K
  282. Stream size : 26.2 KiB (0%); I  A" G7 c% i* j& x
  283. Language : Dutch( c- r7 i0 S# d6 v- t) n  [. U' Z
  284. Default : No
      K6 l6 n. `0 m  e5 j( G8 S
  285. Forced : No* |7 W5 n5 z9 Q+ T

  286. ' ?1 H3 C% `1 k; Q
  287. Text #19
    : a1 h* {: h9 ^
  288. ID : 210 ?2 ^! ?; P1 e  B4 r/ @- u0 [6 [% s
  289. Format : UTF-8( C8 P9 t) |7 c0 w; ?+ q4 b9 T, `
  290. Codec ID : S_TEXT/UTF8" a% F3 f! {2 l8 F; {$ Z
  291. Codec ID/Info : UTF-8 Plain Text" C) u; l: ]& m  d0 O0 F
  292. Duration : 48 min 19 s0 d8 `) O) `* ~
  293. Bit rate : 67 b/s
    : Y! e" ?7 b3 @
  294. Count of elements : 7077 E( F+ Y2 b' c4 G" O1 }9 C
  295. Stream size : 23.9 KiB (0%)
    ! _1 `9 r# ~4 R$ Y
  296. Language : Polish  Q0 X% ]2 P/ \$ P% q# {
  297. Default : No7 W& E5 a5 M6 h* r' c) A0 [. c5 F
  298. Forced : No
    8 R- V: p1 c  |1 ~

  299. 7 r* \- N4 G4 d; d7 @
  300. Text #20! I; E: O4 A( E6 ~; Y. F
  301. ID : 22
    5 |( r1 M4 ~+ i6 K/ A! Z! \
  302. Format : UTF-8
    3 ]$ e$ {$ k- e( {( H
  303. Codec ID : S_TEXT/UTF8
    2 G# _( o% z) D
  304. Codec ID/Info : UTF-8 Plain Text* L1 N% `) v) j% m; |! a
  305. Duration : 48 min 19 s
    / D  i9 b5 ]* }6 u  r
  306. Bit rate : 72 b/s& D3 a3 B. D! |8 r! o, g, X7 `
  307. Count of elements : 802, F- A! r3 f- Q! ]% H9 l
  308. Stream size : 25.7 KiB (0%)5 R6 W: Q9 l4 U$ f  T
  309. Title : European$ L" _; \% n0 L  ]; |
  310. Language : Portuguese. I$ A  |* _6 ~% f
  311. Default : No" c( F8 f/ S+ ?" {2 C
  312. Forced : No
    3 f4 e  {2 d8 H9 A& g, a* u( y
  313. : f9 [! F  G0 ?' H) N7 b$ B
  314. Text #21
    8 t  P+ {- T: a4 ], ^( m* Z' C1 m9 H
  315. ID : 239 b* ^. w5 R1 i
  316. Format : UTF-8
    : c8 j8 x& H/ P# _( J1 F2 T+ V
  317. Codec ID : S_TEXT/UTF8
    % o8 k: j# [7 ?9 F
  318. Codec ID/Info : UTF-8 Plain Text- q) Z! q- @5 M# E
  319. Duration : 48 min 19 s
    ; e. W/ y+ z) h* ?- a
  320. Bit rate : 74 b/s. l3 Q5 ~5 m, K: }! D
  321. Count of elements : 819) `! B% n6 K- K& w+ K
  322. Stream size : 26.5 KiB (0%)1 r1 V; w- o) a- U+ i
  323. Title : Brazilian
    ; W5 L. b8 b6 x9 N7 x5 M
  324. Language : Portuguese
    7 s5 k# l# \& u8 d- `0 R$ k2 V$ ?
  325. Default : No% I$ W& y2 k4 v; G, Z* |$ `3 e
  326. Forced : No9 M$ Y8 T) |) h5 u+ q# j

  327. 5 G0 I4 N7 u3 O! D* W' o  W# a( Y
  328. Text #22% |4 c# l( M1 M5 |& k8 |4 x
  329. ID : 24
    0 ^2 e3 K: ?! H" `6 I
  330. Format : UTF-8- S" H1 R4 w- M4 ?! M9 j
  331. Codec ID : S_TEXT/UTF8
    " E. c, r: Z( S' l" f/ z8 q4 _
  332. Codec ID/Info : UTF-8 Plain Text, E. c+ w4 P% J6 _" z& p  a( F
  333. Duration : 48 min 19 s! x! L" t# Z& h/ M( u; m: D
  334. Bit rate : 81 b/s
    6 N5 x, s3 O6 h% D! z
  335. Count of elements : 807! o# z- s% H5 x7 E1 j. _
  336. Stream size : 28.9 KiB (0%)# U2 z% e6 Y, B0 z+ v' X
  337. Language : Romanian
    & w4 N* T5 w9 b, ?
  338. Default : No+ ?" I" m! }' G- H8 L4 Y
  339. Forced : No; q. @: u( U1 `# J) x

  340. * p/ f; e# T, p/ b0 r
  341. Text #23* P9 q! u: ?3 U9 T0 V6 }; e0 f
  342. ID : 25
    # D, n6 T: K: [  Z9 ~1 n' L! v& o
  343. Format : UTF-8
    " Q. @6 Q& t- m' X
  344. Codec ID : S_TEXT/UTF8. ]( e4 ~2 X* J( V
  345. Codec ID/Info : UTF-8 Plain Text3 Q7 f# |# u( G
  346. Duration : 48 min 19 s
    . n+ M: n6 y, t# v4 R& `  v
  347. Bit rate : 122 b/s9 q) J2 G% v; Q& _: [" B9 M- I
  348. Count of elements : 806. |, W7 F+ f' C& Q' F
  349. Stream size : 43.3 KiB (0%)3 S6 P4 j* D3 i& o1 [: o
  350. Language : Russian2 z% _3 F0 ~4 \% q' H1 C
  351. Default : No/ x6 W3 I! u4 o& D& h5 F
  352. Forced : No* ?& c- _5 t$ a. e
  353. % ^2 d9 R6 U/ U0 f& y+ {/ n: `
  354. Text #24& ^! X6 v) w8 L6 v' a+ f9 S
  355. ID : 26
    8 z2 }9 h) ]5 y9 S. e6 t8 E: O/ R# }
  356. Format : UTF-8, r4 d9 @$ [) d  G: |/ ?- f% p2 q! T
  357. Codec ID : S_TEXT/UTF8
    8 _5 S0 t7 H$ H- g
  358. Codec ID/Info : UTF-8 Plain Text/ o5 _2 _3 w- u; E7 C
  359. Duration : 48 min 19 s
    - `8 Q7 x$ `# Q6 E3 C
  360. Bit rate : 80 b/s; s; }. d  U* B
  361. Count of elements : 803
    4 u" r7 L0 _: S) E0 R
  362. Stream size : 28.4 KiB (0%): W7 g  r. ^4 i, W( p
  363. Language : Swedish
    / R* Q. m# b1 |' R! D& c/ x: L
  364. Default : No
    + m! F0 u: v  K" r) e% B& v
  365. Forced : No
    ( x) Q9 X' K6 f# Y

  366. ' w* h8 n! ?; [4 M3 p
  367. Text #256 D1 m* {! D7 b! _3 ^3 G
  368. ID : 27
    % W) h; b" `# h# V
  369. Format : UTF-8
    " x' N& Z- }& d# E7 E
  370. Codec ID : S_TEXT/UTF8
    . c3 h1 }2 T3 N% _5 v/ M
  371. Codec ID/Info : UTF-8 Plain Text, {* K+ P; A- ~2 M% N
  372. Duration : 48 min 19 s& c3 A- s# W& s# `  f
  373. Bit rate : 186 b/s1 N' C& B; l9 T. l$ K- ]1 w
  374. Count of elements : 825
      d, F8 f) J% I! q( \' k9 o2 R% {
  375. Stream size : 65.9 KiB (0%)
    ! b: n) ]) P: I. Y. C6 M2 M% C& z
  376. Language : Thai; Y7 I" _" g' \9 i8 M+ x
  377. Default : No
    4 }$ h) S# A$ K% g1 B, e/ Q
  378. Forced : No* A. c$ F1 U. j7 ]

  379. / t  n6 R" h6 \2 M5 q, w  Y
  380. Text #26
      @2 J1 ^+ @1 b# E' U
  381. ID : 28
    . \  j$ z4 Y- D! U7 e
  382. Format : UTF-8. g9 v* _& m# L% n# }" G
  383. Codec ID : S_TEXT/UTF8+ e3 Y) D: \& @
  384. Codec ID/Info : UTF-8 Plain Text
    ! l+ V+ @7 }. T3 U8 o  z
  385. Duration : 48 min 19 s, R+ {$ h. P" g, l8 e
  386. Bit rate : 76 b/s' k+ X& G4 Z4 P9 b9 R
  387. Count of elements : 7944 m% ]7 u+ u9 J1 m3 w5 _6 V
  388. Stream size : 27.0 KiB (0%)
    1 @# H' {, l  e8 w3 _4 r
  389. Language : Turkish* n4 B& I# c% G+ J
  390. Default : No
    % P1 G: z8 w( {) C( E4 C) `+ s
  391. Forced : No5 b6 s9 R" `# _' t' O
  392. : D0 c" c1 ?7 I3 |4 u8 f
  393. Text #27
    ( P* F% e& ~$ z4 H' X3 l) [
  394. ID : 29
    % ^# P! Z% f# v# t4 M. o- t8 S
  395. Format : UTF-8
    6 R9 s: w" p0 ]5 F  D- w
  396. Codec ID : S_TEXT/UTF8
    1 S+ `  n) d0 h
  397. Codec ID/Info : UTF-8 Plain Text. S4 j8 ~, B8 c1 ^2 M) Z
  398. Duration : 48 min 19 s# t4 b. U" Q- X2 Q
  399. Bit rate : 109 b/s
    8 r/ U5 ]$ v& l. q3 K6 E- v: d
  400. Count of elements : 818' v! A# T) g( Y/ B1 q1 x
  401. Stream size : 38.6 KiB (0%)
    5 d# q& x5 s+ p6 I# D3 J
  402. Language : Vietnamese
    $ i% o: e1 R( p3 a/ B( A
  403. Default : No4 m4 s5 g6 D, y2 E+ I- V
  404. Forced : No3 b% ?6 O: h9 c- o$ m4 H. h2 g  s
  405. # @, n4 w3 r" Q, x
  406. Text #285 H. n1 `) q. Q8 x9 j
  407. ID : 30
    9 |1 ?. }) z4 f) S& d3 V- `9 b
  408. Format : UTF-8
    ; x* T2 D2 y* A8 @
  409. Codec ID : S_TEXT/UTF8( {4 w! s6 {( R
  410. Codec ID/Info : UTF-8 Plain Text
    & c! e5 S8 B1 S0 F$ T% K
  411. Duration : 48 min 19 s
    ; l; D6 G9 z# \2 A# u
  412. Bit rate : 75 b/s$ s, `3 F; a' D- g5 g
  413. Count of elements : 826) I8 T: k1 L7 m) `
  414. Stream size : 26.6 KiB (0%)
    1 {0 w5 p+ {8 i' W
  415. Title : Simplified
    ! {2 G8 h' i: E5 `; B! a4 v
  416. Language : Chinese
    8 y& G! @9 p4 l: c2 R! b/ L
  417. Default : No
    0 ?9 y9 Q/ i" o" p7 A
  418. Forced : No7 n- H4 d$ ^9 H6 @. L4 h$ q) R
  419. ( }$ n5 O  u& A) r1 U
  420. Text #29. q+ w4 I1 V7 \/ P2 c- M
  421. ID : 311 O/ E5 Q. ]9 d0 N; V
  422. Format : UTF-8
    7 Y2 l( N5 U7 `3 w2 A
  423. Codec ID : S_TEXT/UTF8
    0 g& T$ I" t0 u# k
  424. Codec ID/Info : UTF-8 Plain Text/ E7 R% E$ n9 |7 [1 E
  425. Duration : 48 min 19 s
    , W/ c6 @/ f% [7 M
  426. Bit rate : 81 b/s
    . |4 l/ E/ S$ i8 Z, |  s% D
  427. Count of elements : 816$ w$ w4 N3 [- }/ K' y1 q# o! z. ^
  428. Stream size : 29.0 KiB (0%)
    : T4 T0 h# o) }! v7 S; ^
  429. Title : Traditional
    ' a3 R- X. q7 @$ M4 O3 U1 o
  430. Language : Chinese+ E" g' r2 y9 n7 _5 ]
  431. Default : No
    * R+ V& J' v8 O/ w& g, ]1 x9 r- Q9 W
  432. Forced : No
复制代码
, U' L/ s  ^8 M" V  Y1 H

2 K+ n( p: h( q4 p+ d
3 N2 H+ Q! \+ {" q
( z3 \0 D8 r$ O) O6 w0 G/ G7 l
( Z! e/ y) J: i9 m8 d0 @% |: T7 m+ V' [( P. Q% X
游客,如果您要查看本帖隐藏内容请回复  VIP可免回复查看隐藏内容 详情请点击
发表于 2020-4-27 06:36:04 | 显示全部楼层
谢谢楼主分享资源。
发表于 2020-4-28 01:04:59 | 显示全部楼层
thanks for share
发表于 2020-5-17 17:02:18 | 显示全部楼层
谢谢楼主分享              
发表于 2020-11-4 06:05:13 | 显示全部楼层
谢谢楼主分享!
您需要登录后才可以回帖 登录 | 立即注册

本版积分规则

QQ|封号公示|手机版|有问题发邮件到admin#(换成@)hd1tj.org|微博|免责申明|HD一条街

GMT+8, 2020-11-30 09:52

快速回复 返回顶部 返回列表