HD一条街

 找回密码
 立即注册
搜索
查看: 172|回复: 7

[欧美] 真人秀 菜鸟烘焙大赛:德国 第一季[自带中文字幕]Nailed.It.Germany.S01.GERMAN.1080p.NF.WEBRip.DDP5.1.x264-NTb 8.39G

[复制链接]
发表于 2020-4-3 15:46:54 | 显示全部楼层 |阅读模式

马上注册,结交更多好友,享用更多功能,让你轻松玩转社区。

您需要 登录 才可以下载或查看,没有帐号?立即注册

x
: M0 G4 k) ~6 i
                               
登录/注册后可看大图

7 g8 I- O7 k8 D( B. ^3 t  I3 o3 y7 f8 n" F9 k* H  @- [7 |
◎译  名 菜鸟烘焙大赛:德国 第一季 / Wer kann, der kann / 我做到了:烘培大赛
! \: F) k4 h0 i7 V: A, k* g: C◎片  名 Nailed It! Germany Season 1
, J  e  m9 |: ~% g1 M1 f, H◎年  代 2020! J( ~9 d3 m/ Y2 X1 F" a
◎产  地 德国
2 Z% L  {% I$ I$ J◎类  别 真人秀1 ?$ }" P( X: ?9 X% X3 C5 n$ N+ Q
◎语  言 德语+ B: T& S8 h) C( M, f2 x7 e
◎上映日期 2020-01-17(德国)
# _" \* Z; F) k7 P) M! d. l5 O) z◎IMDb评分  5.6/10 from 31 users' l' {. v( b+ x6 Q
◎IMDb链接  https://www.imdb.com/title/tt11460744
; ?8 _6 ~+ r! `7 d; ^' ?: e◎豆瓣评分 0/10 from 0 users  V; {$ B$ L# P
◎豆瓣链接 https://movie.douban.com/subject/34982011/
( X. n& w+ i5 p( ?1 p( o: g" m◎集  数 62 M8 e: J5 O) ]" j9 \
◎片  长 35分钟
( L. U' S0 @- q, d4 a7 J◎主  演 Angelina Kirsch
4 C' T2 S3 b/ r: a2 ~9 a. m/ ^7 l7 \% N5 _
# a) i: o5 w+ h; B, F9 A
◎简  介  
7 E3 E/ I. ^# c! W" [
/ |9 T4 h" J7 \  暂无相关剧情介绍
  1. Video' |3 Q8 A* B* k
  2. ID : 1
    ) ^/ S# ^" h% y+ T& Y. t7 o
  3. Format : AVC
    . y+ e1 y; o0 S% e" \8 _
  4. Format/Info : Advanced Video Codec( u. m; D6 M$ c  H$ f; S
  5. Format profile : Main@L4
    - S) C6 Q- ?- k2 j
  6. Format settings : CABAC / 3 Ref Frames
    % j# |1 [& d# @, P) Y
  7. Format settings, CABAC : Yes
    " m; M' B: ]  n4 T1 y$ t" H7 c
  8. Format settings, Reference frames : 3 frames" i" \# a; V6 x' |
  9. Codec ID : V_MPEG4/ISO/AVC( H6 v: h% S. U; D0 n: b, x" Y  a4 ]
  10. Duration : 34 min 14 s/ x  m# a; s1 h) q. L
  11. Bit rate mode : Variable8 w# s: U: D: s. w0 l4 P' G
  12. Bit rate : 5 620 kb/s+ G7 Z/ ?! J4 s
  13. Maximum bit rate : 8 430 kb/s
    ' {2 H. v( P1 O2 C9 z8 x* W# r; U; H7 a( f
  14. Width : 1 920 pixels
    - Q7 `) e1 c: Y* Z7 m% K: i- H9 k
  15. Height : 1 080 pixels
    ; H0 e1 z' G+ V! k3 T& |
  16. Display aspect ratio : 16:9
    5 t/ S, n3 E7 ^, ]1 U
  17. Frame rate mode : Constant
    # w& r' e2 U8 p, d' T  K. P
  18. Frame rate : 25.000 FPS( _3 ~/ G! I% c5 J- e+ I2 W
  19. Color space : YUV
    $ ^* s  L5 E. p; ?; t
  20. Chroma subsampling : 4:2:0
    4 f5 Q* W1 G7 i3 k7 S6 z8 G
  21. Bit depth : 8 bits5 B. h' G! q& c, o
  22. Scan type : Progressive
    5 R2 M; c, S5 ?5 p1 `
  23. Bits/(Pixel*Frame) : 0.108. T' Y& X7 r- S3 V% p1 o. K
  24. Stream size : 1.33 GiB (90%)
    3 I+ {0 d% b5 y( ~# J8 g
  25. Writing library : x264 core 148 r2715 7e75228
    $ p4 m" N: L5 W' E7 z5 @. S
  26. Encoding settings : cabac=1 / ref=3 / deblock=1:0:0 / analyse=0x1:0x111 / me=umh / subme=10 / psy=1 / psy_rd=1.00:0.00 / mixed_ref=1 / me_range=24 / chroma_me=1 / trellis=2 / 8x8dct=0 / cqm=0 / deadzone=21,11 / fast_pskip=1 / chroma_qp_offset=-2 / threads=8 / lookahead_threads=1 / sliced_threads=0 / nr=0 / decimate=1 / interlaced=0 / bluray_compat=0 / stitchable=1 / constrained_intra=0 / bframes=2 / b_pyramid=0 / b_adapt=2 / b_bias=0 / direct=3 / weightb=1 / open_gop=0 / weightp=2 / keyint=250 / keyint_min=25 / scenecut=0 / intra_refresh=0 / rc_lookahead=50 / rc=2pass / mbtree=1 / bitrate=5620 / ratetol=1.0 / qcomp=0.50 / qpmin=6 / qpmax=51 / qpstep=4 / cplxblur=20.0 / qblur=0.5 / vbv_maxrate=8430 / vbv_bufsize=11240 / nal_hrd=vbr / filler=0 / ip_ratio=1.40 / aq=1:1.00
    # T' m; V- w2 R) P
  27. Default : Yes
    & y) e* V6 l, G: j+ f
  28. Forced : No
    4 ^1 f0 B2 x" [2 U  _
  29. + {' p5 p6 o$ O. z7 ^
  30. Audio
    2 k+ c( |( n, ?/ f- W( z) \7 v1 _( a
  31. ID : 2
    2 O; v' }; M8 v9 a6 ^, D
  32. Format : E-AC-3
    3 p+ }6 d2 D- s/ X5 y
  33. Format/Info : Enhanced AC-3+ t1 Z: x# M2 m' J( w
  34. Commercial name : Dolby Digital Plus
    2 \* r! l. R; a2 ?' d+ y  i8 j
  35. Codec ID : A_EAC3
    - k9 g4 ~% \( _4 `5 [
  36. Duration : 34 min 14 s
    5 x; k/ b( c9 G2 W
  37. Bit rate mode : Constant( r7 ~% ?& L7 c0 S9 ^
  38. Bit rate : 640 kb/s/ q: f7 C% M; L; M# c/ ]) V+ @
  39. Channel(s) : 6 channels
    / T" ~1 X$ `1 N& L7 o1 n
  40. Channel layout : L R C LFE Ls Rs
    1 f7 ?) [* G3 o1 z9 V
  41. Sampling rate : 48.0 kHz7 F( i1 d& y* K. T
  42. Frame rate : 31.250 FPS (1536 SPF)
    ' V  r2 u, h! o: |4 V+ m  t
  43. Compression mode : Lossy
    0 _4 J; h/ W7 }# K
  44. Stream size : 157 MiB (10%)6 H1 \" f. }9 \: ~: [6 H
  45. Title : German. ^, F& k, s# [
  46. Language : German
    ; @/ y1 U4 {+ o
  47. Service kind : Complete Main/ h/ P( j$ p5 a$ v& p, S
  48. Default : Yes
    : i& d! t- n/ M
  49. Forced : No
    " [% D# U3 J& v5 t  W
  50. 3 A# n/ G$ U2 {
  51. Text #1% @; L* ^# F3 S
  52. ID : 35 M& Y3 l, i1 f" M8 ~
  53. Format : UTF-8
    + l: ]  ?' d* h/ r9 b
  54. Codec ID : S_TEXT/UTF8
    7 g/ y# d4 o5 w- b( V2 p  v  P, n
  55. Codec ID/Info : UTF-8 Plain Text1 U+ r/ ]8 G, c  d6 R/ t
  56. Duration : 25 min 49 s
    2 |/ m: i+ S- m6 A; M& K; B' ~
  57. Bit rate : 0 b/s
    / [: b& H9 `; B3 `
  58. Count of elements : 6' q( L6 G7 W( j
  59. Stream size : 133 Bytes (0%)
    5 l) T+ t: r' M  J$ N% `
  60. Title : Forced/ e* K; v" `0 N2 n( h8 s& [
  61. Language : German
    9 x% m# E" G, d- C
  62. Default : Yes! w) p' @' j8 g( `
  63. Forced : Yes
    5 k4 @& N2 f7 Q
  64. $ y" c) V) Q4 K" j$ W5 Q& _: {2 g
  65. Text #2% H. l$ ?9 ]: o: K
  66. ID : 4
    1 a9 ]  ?/ i3 ~* `1 z
  67. Format : UTF-82 P6 s6 O8 u2 G: \
  68. Codec ID : S_TEXT/UTF85 I. N- B; F& C, P. S# |/ Z7 H
  69. Codec ID/Info : UTF-8 Plain Text- i! {& j; r/ t: b" _# l+ _
  70. Duration : 33 min 16 s0 w% x; ?  H0 T+ w" |
  71. Bit rate : 93 b/s
    * i0 y& A+ K4 t8 z
  72. Count of elements : 709
    ) v: J3 ^/ D& U- @9 I, v- W
  73. Stream size : 22.8 KiB (0%)- [0 ]7 L. E( L4 C* }
  74. Language : English1 k0 P+ K" O3 |$ C
  75. Default : No
    ! l: y( G( i: ?, ]( d% E
  76. Forced : No
      l4 I9 R- @2 x" f/ k. Z# N) C

  77. ( m; G1 N' _/ x8 f7 c
  78. Text #3* h  m$ v8 v$ d( R
  79. ID : 5
    + v8 X$ _" p& J: S
  80. Format : UTF-8
    1 f& O# S& ?) p) N4 n
  81. Codec ID : S_TEXT/UTF8/ ^% @. K/ o, Z! M( A, K
  82. Codec ID/Info : UTF-8 Plain Text
    $ |" O4 D- b$ b& }3 e
  83. Duration : 33 min 20 s4 X; M! z( A5 }" d1 Q, R. J
  84. Bit rate : 156 b/s# g4 e! j# B$ X' K0 b# O
  85. Count of elements : 729
    / {  c  z- W- h# g
  86. Stream size : 38.1 KiB (0%)
    8 z1 {8 V/ I+ y
  87. Language : Arabic% e* x& j2 f' B8 L5 o) K. l5 ~
  88. Default : No- R( A+ Y: R+ u( L6 G% M2 B- l
  89. Forced : No
    + s- J5 D# |3 l' i$ e

  90. 1 ~0 A6 `% R& Q" K$ a
  91. Text #40 o- B( M& C9 ?
  92. ID : 61 {5 M% l9 Q; h8 Z  C2 Q' b1 _6 e+ `
  93. Format : UTF-89 c3 I  Z1 V3 @. k
  94. Codec ID : S_TEXT/UTF8) _4 J- f' z7 Q1 M2 ]: z
  95. Codec ID/Info : UTF-8 Plain Text
    2 t5 D8 t, c& e; W& P' x
  96. Duration : 33 min 16 s' |* b" t8 z0 O4 d+ A/ Q
  97. Bit rate : 82 b/s/ G) C2 {3 D/ Q1 w
  98. Count of elements : 6812 Y! s, J( @% I" L
  99. Stream size : 20.2 KiB (0%)1 ~+ @9 u7 g$ |# T: F6 Y& x
  100. Language : Czech5 o0 A2 W$ o1 a* P( T
  101. Default : No
    , z, q. Y  r9 ^$ i% F
  102. Forced : No
    ' E' F2 I4 e- o# V  _6 Z6 G

  103. # }, H8 p) A* a$ y
  104. Text #5
    7 S9 u9 b% s, L  I% x6 |3 s
  105. ID : 73 H8 g5 J3 N1 Q; h. W: `
  106. Format : UTF-8% R; Z: i3 r7 i5 @7 D" K
  107. Codec ID : S_TEXT/UTF8( h' Q) h! O: L/ s
  108. Codec ID/Info : UTF-8 Plain Text0 X, Q" n8 N, W4 r
  109. Duration : 33 min 20 s5 I' Y4 {0 J% O' J
  110. Bit rate : 91 b/s
    / p! K: U, Q0 f) X5 t
  111. Count of elements : 710
    + D0 ]7 \9 @" A
  112. Stream size : 22.3 KiB (0%)
    ; L. p) \( C$ V. b. W1 z
  113. Language : Danish
    ' @" p# |: @" k6 ?2 A+ f! }
  114. Default : No  J# f0 v( }1 I  ]* W
  115. Forced : No
    1 R# Q( \( v' }2 W' _  ^0 I

  116.   v: R* ]( S" D
  117. Text #6
    ; B0 t. [! P5 ^
  118. ID : 8
    2 H/ F; L8 C) X, I" k# E; W
  119. Format : UTF-8. F. D7 }9 T; q5 n5 `6 T* `
  120. Codec ID : S_TEXT/UTF8  S/ j- [* w* y. w8 N6 M; w
  121. Codec ID/Info : UTF-8 Plain Text
    4 a/ W/ }. O5 O( M+ I
  122. Duration : 33 min 20 s
    - D$ J1 `& w" M; ?9 T
  123. Bit rate : 104 b/s
    , d. v0 B- s7 c4 q* f' m2 m- ~# i5 c5 ~
  124. Count of elements : 7290 U: h2 O6 V* v5 _% F
  125. Stream size : 25.6 KiB (0%)
    # l) `. S3 y2 G' s$ y6 h* m
  126. Language : German
    ; m' {5 l) S0 g
  127. Default : No
    6 y/ x0 {% c7 d8 Z$ u
  128. Forced : No, w3 Q) I" G' b) t
  129. 7 m* r! |# ^" p. R- F0 w, e5 a
  130. Text #7, \3 G; |4 B: _
  131. ID : 9
    " P9 B/ b& f1 Y& A6 N
  132. Format : UTF-8/ c; h3 n, j! q6 y9 J/ {
  133. Codec ID : S_TEXT/UTF8) [' H) ^2 J7 y. O' }/ X5 S
  134. Codec ID/Info : UTF-8 Plain Text- s5 o- e/ k6 R6 h$ P7 M3 u
  135. Duration : 33 min 20 s4 u2 g0 C8 H9 m0 Q$ H
  136. Bit rate : 114 b/s
    ) `! s/ u3 ?9 p1 L9 q( X. p
  137. Count of elements : 753
    2 E! }3 s0 _9 Y, K: V, M; _2 v: p
  138. Stream size : 27.9 KiB (0%)# n' n% P7 r+ u! T/ N# j* D
  139. Title : SDH
    , k- e/ ?3 u- ?7 V/ I" p$ v/ T
  140. Language : German8 R5 a2 m9 A+ z/ W
  141. Default : No
    8 y6 L" ~( i, }' Y
  142. Forced : No
    % w4 o/ _! k  d" G4 h% Y% s7 U* I
  143. / f7 ?6 ]. N0 C' S( Y
  144. Text #8
    ( D4 E5 T5 k# X! o
  145. ID : 10
    : b1 z' X! y. l( Z
  146. Format : UTF-8
    8 \. |2 ]1 ]! a; j0 g
  147. Codec ID : S_TEXT/UTF8
    0 s3 U, ?- b3 H( d. |/ l
  148. Codec ID/Info : UTF-8 Plain Text' T5 @* E# ~5 U% B5 [& l, n
  149. Duration : 33 min 15 s
    , a; s9 T. _9 X5 g; N: ~; C
  150. Bit rate : 139 b/s. r. ]' }. s5 s) u7 j5 @
  151. Count of elements : 6974 z% \8 \6 S# p7 t$ u2 y; h
  152. Stream size : 33.9 KiB (0%)
    / `& f! z( m. p& S1 N
  153. Language : Greek8 n9 h4 `# m7 U# x
  154. Default : No
    4 O+ R3 ~* t+ ]3 k) y2 r
  155. Forced : No
    6 P& A1 W- g- ^5 z5 T

  156. # s5 a# y1 h5 ^2 m
  157. Text #9& K$ e2 Y7 `; ?$ ]8 L
  158. ID : 11
    6 c! E5 P8 w( ?  D2 H) ~
  159. Format : UTF-8
    1 l6 X4 o: I8 M3 P
  160. Codec ID : S_TEXT/UTF8/ l/ h% T" X2 x+ m% g% o
  161. Codec ID/Info : UTF-8 Plain Text7 a5 ^9 |% a5 L8 T8 {4 J4 t
  162. Duration : 33 min 20 s
    4 C. {7 h! r: R- m8 U  a" O* N
  163. Bit rate : 92 b/s9 S& d/ u4 m+ K9 h
  164. Count of elements : 7187 ^+ F3 C) [% k9 z3 C4 S
  165. Stream size : 22.5 KiB (0%)
    + |+ k9 a  V( I3 U* }* I& f3 x9 C
  166. Language : Spanish
      Y" _6 o- z7 _' c0 P9 F
  167. Default : No* p8 b1 _, L6 J" I' h' A
  168. Forced : No
    $ J% @8 {* j9 \
  169. 7 ~% }; d" r, C3 w
  170. Text #10
    - w1 K9 b4 D0 h* g: c3 @
  171. ID : 12. ]" I, h7 s5 C5 o3 }2 ~, b
  172. Format : UTF-89 U" D* g, a5 V# j
  173. Codec ID : S_TEXT/UTF8
    9 Z  S" z% w+ [' t
  174. Codec ID/Info : UTF-8 Plain Text
    ( }3 H( G. m0 Q( e7 Z2 a
  175. Duration : 33 min 48 s2 @0 }: ~. X  t/ c! s5 r
  176. Bit rate : 87 b/s
    - N3 k7 g. u% y5 L& q9 b
  177. Count of elements : 710
      l* j" D. b+ W% T% |" W
  178. Stream size : 21.7 KiB (0%)' H- N+ _* Y" l5 M
  179. Title : European
    1 Z' o& f7 f* g7 i7 ^! F6 \
  180. Language : Spanish8 Z3 c, i0 N. T, E9 X3 Q5 ~6 t
  181. Default : No
    . H- A- u& B+ k) l/ ~
  182. Forced : No
    ) {% {" q. R$ W6 v8 X% {4 ?0 B

  183. 5 E+ C. K4 h" p7 c  O! n
  184. Text #110 ^1 r' W1 Z9 C7 l1 l8 w. Q
  185. ID : 13
    : J$ K, g3 s5 A0 z% O8 {5 m; g7 [
  186. Format : UTF-8& @! l% N8 c6 o2 |1 B: p2 \* V
  187. Codec ID : S_TEXT/UTF8
      L& V8 W" t2 X( y
  188. Codec ID/Info : UTF-8 Plain Text
    9 L+ J1 v) C! B, E
  189. Duration : 33 min 20 s
      Q' g" s9 l" \+ N* _
  190. Bit rate : 84 b/s6 X. G3 k- P- K
  191. Count of elements : 680( ?* e5 M) X% \9 }
  192. Stream size : 20.7 KiB (0%)  }' K5 e4 c  c$ e& s" i9 P$ ^
  193. Language : Finnish
    ( i; {8 A1 B' E+ q" B
  194. Default : No3 Z1 P9 Z" E7 V0 Q$ z+ p' i# @+ c7 n
  195. Forced : No- f- x! B$ C) c5 T

  196. # c9 S) U' @: q! s; Z
  197. Text #12
    $ x+ W( j" A  X1 U0 Q" u
  198. ID : 14' N5 j3 S$ p; R6 {7 Q
  199. Format : UTF-8  f. x' b- J9 I  x* M2 U5 c
  200. Codec ID : S_TEXT/UTF8, u3 G9 @3 l# K! N# M$ p+ i8 B
  201. Codec ID/Info : UTF-8 Plain Text  V! {. G- m% R  V) r# X4 ~7 ~
  202. Duration : 33 min 16 s: v* a. R* ], S% W5 o) N
  203. Bit rate : 86 b/s
    ! t, J! M, @  Q8 p; }! ]
  204. Count of elements : 696- E7 v3 t  j1 ?* g- Z+ e. F/ h
  205. Stream size : 21.0 KiB (0%)
    1 w8 S$ `; s# ^& |! c
  206. Language : French
    & p6 k( a3 r: N4 q- h, u
  207. Default : No3 G) K" w& B, ~
  208. Forced : No
    % b! p8 Y0 i3 D/ B
  209. 1 z. x3 b7 i5 H" m5 w
  210. Text #139 }' k% u9 `, _, A/ K
  211. ID : 15# J! T' Y& `9 b% z0 N3 o* @
  212. Format : UTF-83 R4 k7 t% i3 B1 J) b9 y
  213. Codec ID : S_TEXT/UTF82 D) {& T2 A* u# K% a& X" r" \( [+ O* J
  214. Codec ID/Info : UTF-8 Plain Text
    8 F/ x2 ?" \# y8 [% t: T  }
  215. Duration : 33 min 16 s$ Q, ~. ?- w: n5 e
  216. Bit rate : 143 b/s
    8 t! E. p; W6 w
  217. Count of elements : 674
      f) C' w5 m8 |' y; ^% @( b: j
  218. Stream size : 34.9 KiB (0%)9 ?8 L6 l- J- G* M
  219. Language : Hebrew* l$ H2 O$ M8 L1 f
  220. Default : No: x6 o$ P  l  ]
  221. Forced : No% I9 ^6 X: ?/ o: Y5 F  M

  222. " w' I4 t* k: X  n/ G4 H
  223. Text #14
    % o6 f. c5 w/ V# M
  224. ID : 16
    1 u  |; g; Z9 {3 C5 Y) a- O
  225. Format : UTF-8
    1 k7 B8 O% Z, Q  v, X( _1 ]8 n
  226. Codec ID : S_TEXT/UTF8' H( u) k+ ?( p
  227. Codec ID/Info : UTF-8 Plain Text
    & l; B* Z  t5 ?& ~8 g5 M: V
  228. Duration : 33 min 20 s
    & R2 e1 ?6 q8 i) |! F
  229. Bit rate : 250 b/s
    2 _7 \# @) U) y# h* P3 e. S5 Y
  230. Count of elements : 726
    9 T- T$ x) e  P" v# w3 f# K
  231. Stream size : 61.1 KiB (0%)
    ; X! r( c% l4 I- N
  232. Language : Hindi9 |8 R2 `& O+ o; a8 O8 ?; K: o- O
  233. Default : No
    # O8 [, T: p$ ]! m$ I7 [
  234. Forced : No. F' s0 v' p) j, d# u& q7 d8 {
  235. - N( F; t- l- U; i# g+ k+ g
  236. Text #15
    , j1 L% u  g# P0 F
  237. ID : 17
    - t- A% x+ ?/ f. G
  238. Format : UTF-8* B, }' q  P5 b. G+ z! n
  239. Codec ID : S_TEXT/UTF8) d+ e; e2 V2 Y5 |: R
  240. Codec ID/Info : UTF-8 Plain Text4 q8 x7 ?! D& k, J( f  ]) x
  241. Duration : 33 min 20 s" w) F5 B1 A' D3 y7 |" f
  242. Bit rate : 87 b/s
    2 z; _5 g( I. u3 W# ]
  243. Count of elements : 725# I& C& c) K# p" q9 j3 X' ]$ y
  244. Stream size : 21.5 KiB (0%)
    7 ?  f5 I& }9 G, A; `; U
  245. Language : Hungarian/ g1 E4 E; |3 [+ [# y; S! V
  246. Default : No
    6 b1 S8 ]' ]- V/ k: z0 M
  247. Forced : No  o+ f4 n. g' q6 {1 V. N+ `
  248. 2 H5 p# F" J! v# q$ r4 y
  249. Text #16
    % l# }# ?% L- U- @4 a  J: ^
  250. ID : 18
    7 B; B+ {( E4 {0 q$ q7 T2 d/ X
  251. Format : UTF-88 B0 p7 L3 X/ w- s1 A* u
  252. Codec ID : S_TEXT/UTF8
    8 B, `: @- D/ t2 A& K& N
  253. Codec ID/Info : UTF-8 Plain Text$ r0 [& q; H* z
  254. Duration : 33 min 16 s
    7 D' P- l; R  L0 t1 M0 {9 {
  255. Bit rate : 87 b/s
    % ^! N: ~2 S1 l& f" J
  256. Count of elements : 676( }3 I! M# }* A+ `. R+ Q, X' x  b6 o
  257. Stream size : 21.3 KiB (0%)
    / A( H/ M8 A: v% c: \+ _" {
  258. Language : Indonesian
    , ?6 K; `4 k1 A
  259. Default : No# ^% L- f" b3 c. C" S, ?/ G( s
  260. Forced : No
    : p. N- J6 i5 Q( P" i/ g! c6 Q" l

  261. 9 H: y: J% O8 W
  262. Text #17$ w+ \  M, M  X6 p& ^+ l
  263. ID : 19
    ' W/ j4 Q0 o* q
  264. Format : UTF-8: U2 u8 F; [- C/ ]( o$ H8 Y4 Z
  265. Codec ID : S_TEXT/UTF8
    2 T+ n, j5 Z- y! g
  266. Codec ID/Info : UTF-8 Plain Text" {) m: L- R% I) h/ _- ?( C
  267. Duration : 33 min 16 s
    / a0 \/ X0 @. W
  268. Bit rate : 84 b/s+ K5 j1 T. b; V! O8 `
  269. Count of elements : 653' V" Y# u& @3 T- l) j
  270. Stream size : 20.5 KiB (0%): E! y# p3 x; ~) \0 b. C. ~
  271. Language : Italian, a# {) ~. x- l2 Y, b; F% u) S) N' Y
  272. Default : No
    * n( x! R, d) p$ {
  273. Forced : No' D4 o% ^& J6 f) o- `; N9 T. z

  274. 0 i$ Q3 o3 _  V) @' V
  275. Text #18
    1 Y' D- Q3 w( M" _
  276. ID : 200 E( W/ u. k% c4 p& A
  277. Format : UTF-8; c2 T9 N0 }" A" v( A) A1 [! h
  278. Codec ID : S_TEXT/UTF8
    7 r3 d9 X4 ?1 j
  279. Codec ID/Info : UTF-8 Plain Text
    ' @# d7 G. {! X3 y8 n( f1 E) q
  280. Duration : 33 min 45 s1 C! H, k5 n( m1 T: T% C9 W: N. B
  281. Bit rate : 83 b/s# H/ A; W, v* c/ P5 J
  282. Count of elements : 6673 R2 ?. |0 Y( m2 {8 c6 Y' {+ y
  283. Stream size : 20.7 KiB (0%)
    ) s9 J5 ~1 i2 w
  284. Language : Japanese2 |; H+ I% q/ Y! `" P8 K
  285. Default : No" s/ n( B% V- F9 @8 W4 ?6 P* B
  286. Forced : No
    2 b+ r6 q& p- r' w% B& J
  287. : |% z! E) {' A8 u# Q7 K
  288. Text #19
    " A" u: M$ Y. {" O" V' C! u) [" D
  289. ID : 21: j) e* O. @7 A! z* I# U" R
  290. Format : UTF-8: e$ t8 w; ]% l. E
  291. Codec ID : S_TEXT/UTF8
    ( I2 |0 H2 b3 I
  292. Codec ID/Info : UTF-8 Plain Text* j0 Y5 [. E. c3 K* m+ [5 ~
  293. Duration : 33 min 16 s
    * R; L; U2 u. m# |! {( M- K
  294. Bit rate : 118 b/s
    ) r: F1 d0 T# V
  295. Count of elements : 7203 b" t) T! R# k. W# W& J
  296. Stream size : 28.9 KiB (0%)
    " g6 t$ e! P7 M+ q# X- b; D2 q2 W, v
  297. Language : Korean8 |  v4 T  U5 L4 r4 F0 X
  298. Default : No. h' I8 R: c/ A% |2 {
  299. Forced : No
    " v# K! V: ?  B) o4 M) Y! f, {% r

  300. 8 p3 I7 m' d/ Y9 O. a0 z
  301. Text #20- D9 h5 _' [5 j5 o' z5 I
  302. ID : 227 M, ~; }+ j1 `/ t# n# O% e0 j" x
  303. Format : UTF-8
    2 }+ V# t. X' _, c# _
  304. Codec ID : S_TEXT/UTF82 k: k; \6 z+ Y7 N7 v" J
  305. Codec ID/Info : UTF-8 Plain Text
    4 F! H  `6 h; c9 [3 O6 j
  306. Duration : 33 min 20 s
    " U. n9 [% }" |- r
  307. Bit rate : 78 b/s  ~! j) P% y2 Q" L
  308. Count of elements : 610
    . T" F( e) O. R% K( V% Z
  309. Stream size : 19.1 KiB (0%)
    7 I1 ~( K; c/ X+ H  {1 C
  310. Language : Norwegian Bokmal
    " B; R9 M1 y0 }( f
  311. Default : No
    $ V7 z& `) H* x+ E
  312. Forced : No
    ) l3 e  L' @2 L

  313. ' x# K  l6 u/ ~* e' X/ \& r6 _
  314. Text #21# ~& [5 R+ I3 M5 D8 P* u
  315. ID : 23
    ! r$ A, m3 T9 x' J" X
  316. Format : UTF-8" q& r# V; M5 y! U9 Y
  317. Codec ID : S_TEXT/UTF8$ j; L2 ~! ~, i5 S
  318. Codec ID/Info : UTF-8 Plain Text9 |; D5 R) M2 V. n) ?% D
  319. Duration : 33 min 16 s3 Z! F3 M8 ]" h3 m* c9 G. u
  320. Bit rate : 83 b/s
    # y1 H7 A! V) {9 w. A. N
  321. Count of elements : 633
    : R" B- _5 w! C% |
  322. Stream size : 20.4 KiB (0%)
    9 E/ _6 `5 s  f* v1 Y/ y
  323. Language : Dutch6 u2 _1 ~3 u, W/ ^. u* O# L
  324. Default : No2 a/ s+ \! d7 L% U# `- i# Y& U
  325. Forced : No# Q8 p' [! I& S

  326. 3 s5 T1 C  j. m5 F+ q. B
  327. Text #22
    - g! W9 J4 l5 Y" g2 t' I% }
  328. ID : 247 [/ h. X7 n! L3 L5 P! ]0 S6 w
  329. Format : UTF-8
    % i$ t6 T2 H0 X. o. \
  330. Codec ID : S_TEXT/UTF88 _2 O3 h) T" N; [5 O
  331. Codec ID/Info : UTF-8 Plain Text
    7 S: W- \+ e  M9 A3 [
  332. Duration : 33 min 20 s
    : h8 v5 V  q; j7 i7 q
  333. Bit rate : 81 b/s
      H, g' v  N9 `$ ?" W4 U
  334. Count of elements : 697& x5 ?% m# [8 H5 j  Q+ f; C0 M( s
  335. Stream size : 19.8 KiB (0%)
    ' i% I1 n) h7 m! ?  t
  336. Language : Polish
    0 Y- h4 e4 I0 O8 t
  337. Default : No9 x; _" T! _3 Y( ^
  338. Forced : No
    , f) O8 S+ [$ @- Q8 D& A

  339. 5 D4 h/ w" Z* X7 S
  340. Text #23
    8 g) E. Y, U, e7 {0 p! ]# P/ k
  341. ID : 25
    6 P# c$ p- N1 K! @. l
  342. Format : UTF-8% o  y1 j. q7 |7 Q, V
  343. Codec ID : S_TEXT/UTF8
    ! X. O8 F) i6 S; ~( x
  344. Codec ID/Info : UTF-8 Plain Text
    # A6 e* @2 I  n6 }# x
  345. Duration : 33 min 20 s
    3 m% f: y; M2 d. D3 }1 l) Z5 G4 |6 y
  346. Bit rate : 88 b/s
    + {& K! h! g. O- q
  347. Count of elements : 7089 k1 E( g1 i6 c% \1 a
  348. Stream size : 21.6 KiB (0%)
    # B  b+ P0 g, e. g; i
  349. Language : Portuguese( e( |" D0 R% P. X
  350. Default : No. l2 G6 p9 G! w0 b1 |' t  q. e5 a: m" p
  351. Forced : No2 Q) v1 R/ m. M0 c' V

  352. ! d2 q, d! L3 T* \1 B( e
  353. Text #248 ~& C/ X% e0 @: U( ~
  354. ID : 26+ O) r. K8 x9 S
  355. Format : UTF-8
    : S& ~* q4 z2 e+ A
  356. Codec ID : S_TEXT/UTF8  r) u- `) X; f, `
  357. Codec ID/Info : UTF-8 Plain Text
    : ]9 \/ H; ~$ ]$ _
  358. Duration : 33 min 20 s8 l, r  N) u6 P% C
  359. Bit rate : 81 b/s
    % F& p7 Y# f! \' X3 u' Z5 m# P1 s
  360. Count of elements : 713, R0 S, u) f# e" b! X
  361. Stream size : 19.9 KiB (0%)
    & A. t6 ?3 D2 U& ~" B
  362. Title : Brazilian* t2 J/ p2 n: v* C' N- K
  363. Language : Portuguese1 |$ t- S7 p. m
  364. Default : No
    8 a  B$ X! j) ~2 ~/ _7 |
  365. Forced : No: Q5 B; s6 t+ ^  K- N8 G

  366. 1 X. B' }2 W  C9 e( n: g
  367. Text #25! i8 c4 K, E! B4 X
  368. ID : 27
    4 n) [: z% R: U( L- _
  369. Format : UTF-85 |8 d$ l: m# {2 _: c: K+ C
  370. Codec ID : S_TEXT/UTF8; R5 U* f% ?  F
  371. Codec ID/Info : UTF-8 Plain Text; r" z% p: s( w& r1 }8 B
  372. Duration : 33 min 16 s+ W9 K: f% |) ?4 B  @5 g
  373. Bit rate : 85 b/s4 R$ E4 R- ?; P, p8 ]" Z9 k
  374. Count of elements : 704( y6 z) w) c! g  w  j. I  t  d
  375. Stream size : 20.8 KiB (0%)  b9 Z/ P( }* R* k9 _5 V
  376. Language : Romanian
    ' d9 q- w: v- [  C; S, |
  377. Default : No
    # I1 J9 o7 v( V
  378. Forced : No
    3 d# {: O; C$ f; a4 I+ h$ J

  379. / ?( i- n0 [! b
  380. Text #265 }) Q, K$ o+ ^
  381. ID : 28
    - ^# ?: ^  V" m: ]. I
  382. Format : UTF-8# S) ~8 w. x* W- v. O* C
  383. Codec ID : S_TEXT/UTF8
    - r# u) v9 e$ E0 J1 c* z# H
  384. Codec ID/Info : UTF-8 Plain Text2 |4 y% v) ]2 t. r4 l, @
  385. Duration : 33 min 20 s& e; y1 R$ |5 O- O2 v# z" T$ e
  386. Bit rate : 146 b/s& ]4 {: F8 V: @, y
  387. Count of elements : 724
    3 n) R, X9 F; \+ v. U
  388. Stream size : 35.9 KiB (0%); ?/ M0 @9 ?. F
  389. Language : Russian
    0 Y0 n- `, @, {( ~
  390. Default : No
    3 U; }# T2 p* c7 r: E
  391. Forced : No' C4 u- x8 x# J+ a$ l$ R
  392.   {* p5 |6 R6 s' d
  393. Text #27& w0 O4 S1 J6 |
  394. ID : 29$ E. \) @# S- ~' c
  395. Format : UTF-8
    ( `' j& b) h/ J$ d) R; H
  396. Codec ID : S_TEXT/UTF8
    3 M+ ~4 o# F0 g5 q! ?9 F/ `
  397. Codec ID/Info : UTF-8 Plain Text
    ( O: {. h2 I0 Q1 N
  398. Duration : 33 min 16 s
    8 `+ s1 ~5 |6 ?( C  I
  399. Bit rate : 87 b/s
    ! i4 P: U: O2 K1 L# v. o" H
  400. Count of elements : 659$ D7 f5 C& a1 _8 i* u
  401. Stream size : 21.4 KiB (0%)
    % J- H4 O* C7 a! l
  402. Language : Swedish
    2 [' O: \- B4 G" U
  403. Default : No- a& G( v6 @; k1 A# g; D
  404. Forced : No+ p% W9 `! a: @! d) h# E

  405. 2 X$ y0 p6 u- p0 r6 o& H8 c
  406. Text #28, O( p" U/ p% C1 k& S1 `# r( D
  407. ID : 309 K7 T( A% T+ u4 D6 O
  408. Format : UTF-8: K, K( W6 `* k1 z/ K
  409. Codec ID : S_TEXT/UTF8
    3 I3 _  e) Z6 H8 a" q
  410. Codec ID/Info : UTF-8 Plain Text8 P7 J5 q4 p+ V) V; H3 q* x
  411. Duration : 33 min 20 s. x  O2 K% u+ _4 ^8 @8 h9 o
  412. Bit rate : 227 b/s
    8 r) Q4 Q% f: [" t0 o4 W
  413. Count of elements : 720
    : n& \: f" b5 [' b6 Z
  414. Stream size : 55.5 KiB (0%)
    ; d- \* m& {4 k9 Y, Q
  415. Language : Thai
    ' f2 A- o  B0 C( x
  416. Default : No. ^6 ~# @0 W+ Z& i* A) x0 I  }( ~6 z
  417. Forced : No
    ! e' o$ E% v9 ]5 ]# a, G* P) O# a
  418. - D, {" l$ Y( i/ t  t
  419. Text #29
    * G+ b9 H9 g/ f% Z$ q- `. b2 S* s
  420. ID : 31
    ; d  L+ O( p$ a5 x5 _2 H
  421. Format : UTF-8
    - k% m: ~3 `9 l
  422. Codec ID : S_TEXT/UTF85 w, c1 X7 n: }$ {6 s9 x# c
  423. Codec ID/Info : UTF-8 Plain Text
    1 z. M" v/ R1 d3 a( l
  424. Duration : 33 min 20 s* Y9 v" I8 ^, _
  425. Bit rate : 85 b/s
    % H2 S- m4 ]) V* ?5 n! E( \" {4 r
  426. Count of elements : 6828 W# c- Y7 w0 g- z  J
  427. Stream size : 21.0 KiB (0%)
    % \$ S/ r. ~  o" T2 }
  428. Language : Turkish, {" j1 f( z# ~, z7 p$ ~+ h" s7 d
  429. Default : No
    ( \7 h: q; Y/ C$ G& j
  430. Forced : No8 m5 t( |! z' @  m5 l4 s0 W" r
  431. , z; j: X6 Y& A0 ^
  432. Text #30
    7 i4 d4 }4 `8 o9 T7 ]: A! |
  433. ID : 32
    / k4 H3 v; j* k3 M, x: L/ x
  434. Format : UTF-83 @% o1 y0 P1 A: v& ?
  435. Codec ID : S_TEXT/UTF8- X: h$ I. f* \# d& W
  436. Codec ID/Info : UTF-8 Plain Text4 G' y1 C9 N7 h* J9 w( W
  437. Duration : 33 min 20 s
    0 m3 r0 O" B7 U8 ~4 v3 v
  438. Bit rate : 119 b/s$ e& g( f1 I( e: f+ H* f
  439. Count of elements : 725* V3 I4 \* ?/ ]
  440. Stream size : 29.1 KiB (0%)" v! k6 m9 j3 s6 P: y" U% o
  441. Language : Vietnamese9 X% i  o; |& H& @/ X1 C
  442. Default : No2 E4 y8 _: j$ L" h4 @. G( o
  443. Forced : No# V# h4 P1 B2 I" c3 \

  444. + B6 `& o0 C- r; a' s9 B
  445. Text #31
    : J# \. L0 N/ G; j* n
  446. ID : 331 L; f6 ^0 x9 U: o
  447. Format : UTF-8
    3 @% U& G- b: N$ Y$ F
  448. Codec ID : S_TEXT/UTF8
    0 f& ]/ `( ?& s7 v; b; C/ D( ?
  449. Codec ID/Info : UTF-8 Plain Text. P: u6 x9 S9 q0 n) g$ L; {
  450. Duration : 33 min 20 s
    4 n6 ~5 E( _; J+ y6 C, S
  451. Bit rate : 95 b/s# ]8 Q0 T4 U" b
  452. Count of elements : 726
    # w  w7 Y4 S- b/ g& [
  453. Stream size : 23.2 KiB (0%)7 \- R$ n8 C* T9 z1 K9 Z: Q
  454. Title : Simplified
    , K  U; e/ h, \( m
  455. Language : Chinese
    $ `. U" u, C# x9 T
  456. Default : No6 a$ x2 d( _: i) |" I
  457. Forced : No
    3 l* H+ c6 V3 Y/ _4 U+ u7 s  {
  458. 0 z9 J1 t$ d' b3 s' t8 ]6 T
  459. Text #32
    # J3 d$ M: C4 F
  460. ID : 34! v% R: I( b% X- J! t$ ?2 Y9 S
  461. Format : UTF-82 w1 {8 g8 i: O6 Z4 }
  462. Codec ID : S_TEXT/UTF8
      R, o* I# \! S8 J# l! H1 @2 A
  463. Codec ID/Info : UTF-8 Plain Text- z$ f* l& x; S' T
  464. Duration : 33 min 16 s
    & U* \7 h: x& U1 }2 D6 Z  d
  465. Bit rate : 89 b/s
    " v! T% ~( ~% ?9 b; x# C2 k6 Z
  466. Count of elements : 743. V7 h  M4 R3 D
  467. Stream size : 21.8 KiB (0%)- w  S6 X0 r: P; u- j
  468. Title : Traditional) a5 ~  S# r5 N0 w7 r; V) O0 a
  469. Language : Chinese9 F% _6 q1 I* }# r) j
  470. Default : No
    : j" ?  h  n, y
  471. Forced : No
复制代码
2 k/ a7 t* \1 A9 n+ u& b
; l) Z' ^' w+ A5 A3 V1 t' {

  r7 W; ^  `! F  m5 t
' E. J% P1 K, }/ X6 a9 _" i
: G* c3 |* Z6 L* B2 f/ Z) F; P0 b3 v& u4 r# F, p  E. L3 k
游客,如果您要查看本帖隐藏内容请回复  VIP可免回复查看隐藏内容 详情请点击
发表于 2020-4-3 16:07:34 | 显示全部楼层
看海报发现至少颜色很丰富,咱做的几乎都是焦黑色
发表于 2020-4-4 08:57:53 | 显示全部楼层
thanks for share
发表于 2020-4-17 09:47:40 | 显示全部楼层
感謝樓主得分享
发表于 2020-4-18 07:50:09 | 显示全部楼层
很难得的高清资源节目!
发表于 6 天前 | 显示全部楼层
谢谢楼主分享。
发表于 6 天前 | 显示全部楼层
美食类很不错,谢谢楼主分享!
您需要登录后才可以回帖 登录 | 立即注册

本版积分规则

QQ|封号公示|手机版|有问题发邮件到admin#(换成@)hd1tj.org|微博|免责申明|HD一条街

GMT+8, 2020-7-7 07:04

快速回复 返回顶部 返回列表