HD一条街

 找回密码
 立即注册
搜索
查看: 1120|回复: 15

[1080p] 夜叉 Yasha.1985.JAPANESE.1080p.AMZN.WEBRip.DDP2.0.x264-SbR 12.77G

[复制链接]
发表于 2020-3-25 22:51:05 | 显示全部楼层 |阅读模式

马上注册,结交更多好友,享用更多功能,让你轻松玩转社区。

您需要 登录 才可以下载或查看,没有帐号?立即注册

x
* a- F2 `- k6 {4 U$ F- K" \7 I) g+ h+ Y
                               
登录/注册后可看大图

: }2 r8 K- ^# Y' ?9 I) J
8 [: J& t+ U/ f: I- A% T, Z◎译  名 Yasha% n3 w5 ^0 p( E
◎片  名 夜叉1 B2 r4 W' ]/ x3 ]' T" n2 `4 {7 y/ T7 D
◎年  代 1985  L2 O5 ?3 a! {4 i4 k* k5 t
◎产  地 日本
5 ^4 O9 I5 h2 I5 \: q4 v' ^2 u) u◎类  别 剧情 / 犯罪
  p; ~8 `  i8 l, T◎语  言 日语
9 h- U0 |2 z7 X/ y, j◎上映日期 1985-08-31(日本)% L  j5 G: T9 n1 T) c
◎IMDb评分  6.8/10 from 151 users1 h: z3 r9 N" h. Z& E/ f
◎IMDb链接  https://www.imdb.com/title/tt0090349- H2 _' _* z; Q
◎豆瓣评分 8.1/10 from 1499 users# j' j& t$ O8 P3 e$ H. s
◎豆瓣链接 https://movie.douban.com/subject/1303609/, s! S4 M$ v9 g6 h' s0 Z" W: K4 g
◎片  长 127分钟
7 o- h- N" u  C' X) A. o1 A: H  [" P◎导  演 降旗康男 Yasuo Furuhata/ I' V7 Y' h+ N# c. q8 J$ C6 V
◎编  剧 中村努 Tsutomu Nakamura
2 W% M  u) J) V% M3 w5 b% v◎主  演 高仓健 Ken Takakura
! Y- _+ ]' N  m# }2 z       石田良子 Ayumi Ishida
$ c+ I2 o) u; C       岩崎裕美 Hiromi Iwasaki! y+ h6 e" v3 `) J9 _" `& j
       乙羽信子 Nobuko Otowa
/ I6 e5 Q; [2 ]3 @; U) m" M" ~       田中裕子 Yûko Tanaka
% ~7 P$ f: \4 r1 x       北野武 Takeshi Kitano
/ C2 i0 X! r, m$ M) x. H8 k       田中邦卫 Kunie Tanaka
! K. T- h; T- z% e       竹城明 Aki Takejo1 E' B2 r1 a; `
       奈良冈朋子 Tomoko Naraoka
( j7 g+ b& K! J! @! G) g3 p       小林稔侍 Nenji Kobayashi
6 r! u- L7 f3 a2 q& y3 }5 y$ K       大泷秀治 Hideji Ôtaki
& q2 H' X% ]: S" Q  [* n       檀富美 Fumi Dan
2 ~. x4 [7 Q1 x& {8 d       寺田农 Minori Terada8 K  a. p3 \2 ^# J, _/ H
       真梨邑惠 Kei Marimura
" S" A  P" I+ _. K4 m" {3 O       丹古母鬼马二 Kibaji Tankobo# U; K$ f3 A' T+ Q( N
' _$ ]) L- `4 c$ x; t  s6 b
2 x/ F( o/ Q+ O9 ^& \  F
◎标  签 高仓健 | 日本 | 日本电影 | 北野武 | 降旗康男 | 田中裕子 | 剧情 | 1985
+ E$ N9 B% T0 ?6 ~5 ~+ R2 m0 Z
! S" ^5 ^/ ^. z! k, t◎简  介  
; ?% k9 u$ p$ b; Z4 M
2 ^& W% d8 T3 B9 E, X( A7 y) `  北国渔港小镇,沉默寡言的修治(高倉健 饰)和妻子冬子(いしだあゆみ 饰)一家几口人过着平静的生活。虽然已在此生活十多年,但是即便修治最为亲近的朋友,对他的过去也知之甚少。当年修治曾是大阪夜叉组一名猛将,风光无两之时致令唯一的妹妹被敌对帮派杀害。从此他隐姓埋名,带着妻子来到这个小镇靠打鱼为生。
) {6 |) ]/ `" @6 N& V& n0 l  某天,那清秀的女子萤子(田中裕子 饰)来到小镇开设萤火虫酒吧。渔夫们蜂拥前来,热烈捧场。萤子的男人矢岛(北野武 饰)粗暴无礼,赌毒俱全,他引诱渔民们沉湎赌博和毒品,为此与劝阻他的修治发生冲突,最终导致修治的黑道身份被当众揭穿。另一方面,修治也陷入对萤子的迷恋,平静生活再起波澜……
  1. Video$ n. z2 |6 H* C% z4 q
  2. ID : 1- c: G6 A# F, t+ j3 I  c9 T9 }
  3. Format : AVC
    ! L, p  o: s! H* q- E
  4. Format/Info : Advanced Video Codec: k6 R. y5 G9 C1 j1 r2 K' o
  5. Format profile : High@L4
    2 C) ]0 r0 u7 Q( Z3 U
  6. Format settings : CABAC / 4 Ref Frames2 {4 m8 I3 B) j
  7. Format settings, CABAC : Yes2 N5 C2 P  o7 v- P
  8. Format settings, Reference frames : 4 frames' h- `0 U4 I5 {. F4 N* U9 }7 \
  9. Codec ID : V_MPEG4/ISO/AVC
    & g! M2 [7 H% d, T1 g, f8 i( \
  10. Duration : 2 h 6 min
    9 t* e8 ?, L7 U
  11. Bit rate mode : Variable
    $ i3 ~8 v1 O* M
  12. Bit rate : 14.2 Mb/s
    1 a" U( R$ i2 `  ~4 O6 q
  13. Maximum bit rate : 15.0 Mb/s  ]8 p3 z% _  v1 x. w  j& x. Z% G. X, }4 t
  14. Width : 1 920 pixels
    & `/ H0 O0 u5 E. X9 O9 R; G
  15. Height : 1 080 pixels" O& n# G  k: L2 g( F
  16. Display aspect ratio : 16:9
    # h7 n0 F4 ]! [
  17. Frame rate mode : Constant, x" N% q! q6 X! N/ e0 L1 D$ g
  18. Frame rate : 23.976 (24000/1001) FPS
    . I9 Z- h$ h' E7 [# f, i
  19. Color space : YUV9 O6 k+ {; j( [8 a
  20. Chroma subsampling : 4:2:0
    ) S' M+ V6 h8 M4 f9 T& j
  21. Bit depth : 8 bits
    7 z% d1 y% _$ q4 c
  22. Scan type : Progressive
    : W# T5 i- i/ H8 y( A5 V
  23. Bits/(Pixel*Frame) : 0.285
      Z- J$ ?3 W5 ~* u+ @6 c- {5 r
  24. Stream size : 12.6 GiB (98%), h0 ]+ o8 a/ j4 _5 r9 r* [+ s" r
  25. Writing library : x264 core 148 r2623 d5b2374/ G2 s, o7 S& j; w+ q- E0 z9 s
  26. Encoding settings : cabac=1 / ref=4 / deblock=1:-1:-1 / analyse=0x3:0x133 / me=umh / subme=9 / psy=1 / psy_rd=1.00:0.15 / mixed_ref=1 / me_range=24 / chroma_me=1 / trellis=2 / 8x8dct=1 / cqm=0 / deadzone=21,11 / fast_pskip=1 / chroma_qp_offset=-3 / threads=34 / lookahead_threads=5 / sliced_threads=0 / nr=150 / decimate=1 / interlaced=0 / bluray_compat=0 / constrained_intra=0 / bframes=8 / b_pyramid=2 / b_adapt=2 / b_bias=0 / direct=3 / weightb=1 / open_gop=0 / weightp=2 / keyint=120 / keyint_min=61 / scenecut=0 / intra_refresh=0 / rc_lookahead=120 / rc=crf / mbtree=1 / crf=18.0 / qcomp=0.60 / qpmin=0 / qpmax=69 / qpstep=4 / vbv_maxrate=15000 / vbv_bufsize=31250 / crf_max=0.0 / nal_hrd=vbr / filler=0 / ip_ratio=1.40 / aq=3:1.00+ ^( B# p" {+ M
  27. Language : Japanese
    , a6 g- ~( a) d) u- S4 t0 X; `
  28. Default : Yes. Z/ N" `2 c  K5 {$ U# G
  29. Forced : No* [- J. M. X4 Z) Y
  30. Color range : Limited
    " V% e' [' P1 _3 _1 p1 k* R4 ~
  31. Color primaries : BT.709
    $ |# V, ]; ^+ t7 S7 L* D3 i8 W
  32. Transfer characteristics : BT.7090 J) v6 F0 ?% @
  33. Matrix coefficients : BT.709' B1 n8 a+ U$ @! g* P) n# n% Z

  34. 9 D1 c* C- p6 {# D$ k% g
  35. Audio
    ; E6 m& @: ^2 d# l8 j) d( b5 g: \  J
  36. ID : 21 {* ]; l( h: k% f; J
  37. Format : E-AC-3! \6 s0 S# O1 p! R' `, s
  38. Format/Info : Enhanced AC-3
    & P& b% y, z! R5 q9 r: p
  39. Commercial name : Dolby Digital Plus
    ( P7 v6 P2 c* U' r8 [) C' w
  40. Codec ID : A_EAC3
    0 l# ?7 w' ]% ?. Q! o! k
  41. Duration : 2 h 6 min! a  d0 G$ i9 e* h& D( P
  42. Bit rate mode : Constant
    % c! V, x) t2 R- A) y" r
  43. Bit rate : 224 kb/s1 c2 h: b# W9 u/ w6 l  O
  44. Channel(s) : 2 channels# K2 Q$ I% |7 X9 j3 j  ]7 V0 R
  45. Channel layout : L R# i0 C$ ?0 h/ _* i. N. K
  46. Sampling rate : 48.0 kHz
    0 ]" ^" {$ ?4 M/ l
  47. Frame rate : 31.250 FPS (1536 SPF)
    9 q+ [* R, L! s# f
  48. Compression mode : Lossy
    8 d$ d# R- L- j' x% {6 m* z
  49. Stream size : 203 MiB (2%)
    # j: O* s! G* Q) `( h! M
  50. Language : Japanese4 R' T1 d6 z" M3 H& O5 f& ^$ f
  51. Service kind : Complete Main$ L8 A1 W. y+ d6 d  T" C" V; r) H
  52. Default : Yes- A2 e0 p) Z$ a5 b/ ^
  53. Forced : No
      V7 F2 Y6 {- K) ?, `1 a* q1 c
  54. 5 `6 p# I4 }$ E4 n* N
  55. Text
    1 ]2 b/ R5 ]& d% ~
  56. ID : 3
      z( {- Q* A$ i& ?
  57. Format : UTF-8
    " {& _6 y) \( g' d
  58. Codec ID : S_TEXT/UTF8. @( j1 y5 N9 Q$ x" G) w# \
  59. Codec ID/Info : UTF-8 Plain Text' [9 p) n  H! B* C
  60. Duration : 2 h 6 min
    * J( b8 N( m) h
  61. Bit rate : 21 b/s
    : u! Y- q/ \% m- O$ ^. X: p
  62. Count of elements : 1035
    , l2 v# I3 Q% B4 q
  63. Stream size : 20.4 KiB (0%)
    ' I7 O) U% P; ]
  64. Language : English
    . D7 J- G5 ?: T( G6 ~
  65. Default : Yes
    ) j# ]  k: ~# ]- y' s# p
  66. Forced : No
    6 @& c$ A1 \" {/ C9 m' X. D
  67. ! x4 |$ C& C$ G2 `/ ]7 w; Z3 q
  68. Menu
    ! B) M- ]2 r, `" W+ b' f
  69. 00:00:00.000 : en:Chapter 1
    6 O! i- e( E3 a
  70. 00:05:04.095 : en:Chapter 24 Y2 k) z2 l1 B: x
  71. 00:09:10.550 : en:Chapter 3
    : ]' k' D, z0 P
  72. 00:14:19.776 : en:Chapter 4
    / i. b/ k6 H2 N! J$ w
  73. 00:18:05.918 : en:Chapter 58 Z) ~3 |/ p& r' e- G  H
  74. 00:22:19.922 : en:Chapter 61 \$ C9 U3 V0 {4 R& B# ?
  75. 00:30:13.103 : en:Chapter 7
    - W: R6 f$ T" U/ A* |" u0 i' f
  76. 00:38:08.036 : en:Chapter 8* x  a2 v7 {5 o2 B2 Z' }; y
  77. 00:43:55.424 : en:Chapter 9' U9 R5 u0 H: I; ~
  78. 00:46:47.638 : en:Chapter 10, `0 m& e7 e$ |1 ?0 d0 v
  79. 00:49:04.150 : en:Chapter 119 _2 ?, t  p2 Y1 c
  80. 00:58:13.281 : en:Chapter 12* ^3 `% [4 r7 d- r
  81. 01:00:05.477 : en:Chapter 131 l, ]9 C1 x/ Q7 |
  82. 01:05:47.318 : en:Chapter 14
    : ^& F5 J; a9 i
  83. 01:14:13.699 : en:Chapter 15% f/ o5 D; C! ~: U
  84. 01:18:26.493 : en:Chapter 16* o6 ^2 e  r6 Q5 J+ l7 Y! k7 z
  85. 01:20:44.298 : en:Chapter 17$ Z3 `1 A1 @/ }
  86. 01:23:32.466 : en:Chapter 18% N. N8 u9 u( m, N% ^( Q
  87. 01:26:06.953 : en:Chapter 19+ H; q" L+ k) B5 N0 E) |
  88. 01:32:58.656 : en:Chapter 20
    , ]" c) V+ W; S$ h) f
  89. 01:41:36.716 : en:Chapter 214 s( i$ _- [9 `! y4 G7 H! Z
  90. 01:47:39.828 : en:Chapter 221 T' z7 q1 l4 N% M$ s
  91. 01:55:22.415 : en:Chapter 23
    * z9 I# W7 ^' Y* C5 E5 {9 h2 c
  92. 02:02:11.449 : en:Chapter 24
复制代码

9 {  t( H2 m; S  b
! k# z: |1 d  ^' F" s$ z9 N8 \# Z: w, [; j" a1 G0 U- |; J
* Z/ L3 j: d0 K4 W/ P

( O7 y4 u) L$ f' M* \& I5 B
- G" u" ]9 a; Z7 ?& u
游客,如果您要查看本帖隐藏内容请回复  VIP可免回复查看隐藏内容 详情请点击
发表于 2020-3-26 00:03:20 | 显示全部楼层
多謝楼主分享!
发表于 2020-3-26 00:40:24 | 显示全部楼层
感谢。日本老电影修复版真没看过
发表于 2020-3-26 04:07:36 | 显示全部楼层
5 ^+ K1 P) z. C# e
多謝楼主分享!
发表于 2020-3-26 22:24:37 | 显示全部楼层
有高仓健和北野武,值得一看
发表于 2020-3-28 09:30:22 | 显示全部楼层
没看过,谢谢你的分享
发表于 2020-3-28 11:12:11 | 显示全部楼层
这个剧看着很不错,感谢楼主的分享了啊
发表于 2020-3-30 22:50:34 | 显示全部楼层
曰本老电影支持一下
发表于 2020-4-4 00:25:53 | 显示全部楼层
多謝楼主分享
发表于 2020-4-7 07:49:55 | 显示全部楼层
一看标题,想起了,夜又王。黑木凯
您需要登录后才可以回帖 登录 | 立即注册

本版积分规则

QQ|封号公示|手机版|有问题发邮件到admin#(换成@)hd1tj.org|微博|免责申明|HD一条街

GMT+8, 2020-11-25 15:12

快速回复 返回顶部 返回列表