HD一条街

 找回密码
 立即注册
搜索
查看: 369|回复: 8

[欧美] 百人社会实验 第一季[自带中文字幕]100.Humans.S01.1080p.NF.WEBRip.DDP5.1.x264-ASCENDANCE 12.76G

[复制链接]
发表于 2020-3-15 21:37:06 | 显示全部楼层 |阅读模式

马上注册,结交更多好友,享用更多功能,让你轻松玩转社区。

您需要 登录 才可以下载或查看,没有帐号?立即注册

x
1 A# G5 |2 P/ M0 m& N$ {
                               
登录/注册后可看大图

9 v" D, z5 B, {# R1 w
, C! E, v1 I6 }8 V2 l# {/ T◎译  名 百人社会实验 第一季; [9 ^" d4 ^" x8 ?
◎片  名 100 humans Season 1- Q: h7 s5 k; K3 M
◎年  代 2020: |! o0 y/ S& P  v% n$ V
◎产  地 美国
) j1 R, Z0 c) V& f◎类  别 真人秀
) @. u) a) v: ~, c! W◎语  言 英语
: S) |$ K, \8 [5 j6 I4 R$ p( l4 ~  E◎上映日期 2020-03-13(美国)
/ L1 i( Z5 c7 v3 ^◎IMDb评分  5.4/10 from 52 users
- ^8 Y5 k' i0 t# l7 B! ]' _; {◎IMDb链接  https://www.imdb.com/title/tt11823088' t& G+ [8 W! i1 V6 N& e2 A% o
◎豆瓣评分 0/10 from 0 users
9 w9 o' ~7 j# K, K! p) Z) p8 n. W◎豆瓣链接 https://movie.douban.com/subject/34992760/
, M. e! z3 F& T# v% l5 s◎集  数 8
9 B& x- {. g0 ~. Y& S2 I5 S6 q◎主  演 Ryan Zamo8 G* \' J, A/ U& ^3 ]
       Brooke Somer
3 e6 Y6 n% v& B9 l6 j$ C+ K       Alfredo Tavares
- Z# T5 H8 P" L# D( @8 f1 ~0 ^8 Q: t

2 B1 y% Y: J6 I4 R* s( l◎标  签 美国 | Netflix | 2020 | 真人秀 | 电视剧 | 综艺 | 纪录片 | RealityShow
/ w( {' A. N* Y' k' ?4 ~' y* V
0 I9 _3 L& d; {6 K8 X◎简  介  , k/ [3 h1 S' H& E$ l

, D9 d9 v  ?4 {1 e; g  一百名背景各异的强人参与了多种趣味实验,借以探究年龄、性别和幸福感等人性奥秘。
  1. Video
    , e& ~  r% |. Y% k3 a1 `
  2. ID : 1* X+ q, ]$ ]* w
  3. Format : AVC* _& }; D$ o" d. c; r9 r- k
  4. Format/Info : Advanced Video Codec7 N6 c6 U. n! }6 _1 e
  5. Format profile : Main@L4
    5 H7 b1 k( h7 t+ u# Y) y) I1 s0 d) K
  6. Format settings : CABAC / 3 Ref Frames
    * Q; a: q% z8 ~; y
  7. Format settings, CABAC : Yes
    2 C! P$ p  p8 ~- B0 ~1 {
  8. Format settings, Reference frames : 3 frames# U. r3 }4 U/ ]. R+ V
  9. Codec ID : V_MPEG4/ISO/AVC
    # h1 S4 g- ?: C, p1 ^
  10. Duration : 37 min 42 s1 h8 o2 R+ ]* y2 P" U5 K9 c
  11. Bit rate mode : Variable
    + {; h5 b5 O" ]& i2 B/ n$ @  v, {
  12. Bit rate : 7 150 kb/s
    , o4 e! \9 T4 D9 g3 W! K
  13. Maximum bit rate : 10.7 Mb/s, d( }* V2 p! b8 E! p% P
  14. Width : 1 920 pixels. r- m$ C+ U( s! I  K
  15. Height : 1 080 pixels7 T- x' z, p% ?
  16. Display aspect ratio : 16:9
    . W1 _% J6 o' @8 e& g- y$ f8 m
  17. Frame rate mode : Constant
    % ^/ ~; H# `" u2 t; d. I, x
  18. Frame rate : 23.976 (24000/1001) FPS+ e4 P" Y! y- ~) d& l3 V4 _; \' n. Y
  19. Color space : YUV$ i6 b" n2 T. D4 \# D! a
  20. Chroma subsampling : 4:2:0
    ( `7 H8 R/ C1 T" A
  21. Bit depth : 8 bits8 e7 a8 H$ f( L
  22. Scan type : Progressive6 S% z* d! G7 o  z) J
  23. Bits/(Pixel*Frame) : 0.144
    & b" @- G: h# |% F/ ?6 U
  24. Stream size : 1.84 GiB (92%)! Q& y# ?5 B3 j
  25. Writing library : x264 core 148 r2717 0d2410d) \; y% O; n' ]( d/ L2 u8 R
  26. Encoding settings : cabac=1 / ref=3 / deblock=1:0:0 / analyse=0x1:0x111 / me=umh / subme=10 / psy=1 / psy_rd=1.00:0.00 / mixed_ref=1 / me_range=24 / chroma_me=1 / trellis=2 / 8x8dct=0 / cqm=0 / deadzone=21,11 / fast_pskip=1 / chroma_qp_offset=-2 / threads=6 / lookahead_threads=1 / sliced_threads=0 / nr=0 / decimate=1 / interlaced=0 / bluray_compat=0 / stitchable=1 / constrained_intra=0 / bframes=2 / b_pyramid=0 / b_adapt=2 / b_bias=0 / direct=3 / weightb=1 / open_gop=0 / weightp=2 / keyint=250 / keyint_min=23 / scenecut=0 / intra_refresh=0 / rc_lookahead=48 / rc=2pass / mbtree=1 / bitrate=7150 / ratetol=1.0 / qcomp=0.50 / qpmin=6 / qpmax=51 / qpstep=4 / cplxblur=20.0 / qblur=0.5 / vbv_maxrate=10725 / vbv_bufsize=14300 / nal_hrd=vbr / filler=0 / ip_ratio=1.40 / aq=1:1.00
    5 l0 C; U+ w# Y. l2 ~  o2 t8 T4 b7 q
  27. Default : Yes
    1 M4 K3 P2 a7 b# w& h. C
  28. Forced : No4 ~' r% s$ j. K- G: U& s- z! w

  29. + x1 @2 s/ ?+ b: t! B0 a
  30. Audio  f; i! @: e1 r
  31. ID : 2
    3 A) N( l* t- z. M% R
  32. Format : E-AC-3
    $ P  c- B4 |, G* p( ~
  33. Format/Info : Enhanced AC-3+ |; m, k; b4 a# Z( ]1 n
  34. Commercial name : Dolby Digital Plus1 H6 P$ f1 x0 T3 Y" O: r
  35. Codec ID : A_EAC3
    0 E5 a/ j: l7 Q1 a3 u* k& [
  36. Duration : 37 min 42 s) I$ ^: a6 r- d2 H. ^( `
  37. Bit rate mode : Constant
    ' a- r: F8 f( u1 n; P
  38. Bit rate : 640 kb/s- P0 E% t# I$ Z* E7 X% y
  39. Channel(s) : 6 channels
    7 j/ z+ h" g, j4 E2 k7 @
  40. Channel layout : L R C LFE Ls Rs
    " D  a* e$ ^6 V" h- m
  41. Sampling rate : 48.0 kHz/ k  a% }& {" \
  42. Frame rate : 31.250 FPS (1536 SPF)
    * Y$ i( v) b! b# i- e" h" M7 F
  43. Compression mode : Lossy* r" v  H( W# x
  44. Stream size : 173 MiB (8%)6 s! u- n9 f9 l' V
  45. Title : English
    ; {$ S  t1 q6 Q. S4 f
  46. Language : English
    & s; ?: R2 ~: Y( h0 u
  47. Service kind : Complete Main4 ?! Y( z$ s( A
  48. Default : Yes
    0 L  R' x% l7 z% ]
  49. Forced : No4 A. k2 t9 A$ F- B2 X5 l

  50. % k; X( b6 ]/ Y, ~& f$ e! D
  51. Text #1
    # |/ F3 r/ t3 `! S. E$ P2 K' a% M
  52. ID : 3! {! _1 j5 R. c% G
  53. Format : UTF-83 e/ Z4 @( n; o4 D) ~
  54. Codec ID : S_TEXT/UTF8  P: ]$ u& N+ ~
  55. Codec ID/Info : UTF-8 Plain Text: t; ~+ L( S/ i* M0 ^3 Q( O3 f
  56. Duration : 24 min 59 s
      p* _. ~9 M% o5 X7 O
  57. Bit rate : 0 b/s
    ( ~# h& c9 X5 m% H
  58. Count of elements : 39 _# {6 o4 l  y# d! M7 ]0 b
  59. Stream size : 70.0 Bytes (0%)2 V7 l/ e( \+ H7 V. t9 r8 f
  60. Title : English [Forced], k1 C) K0 p) l% S
  61. Language : English& q5 i, h8 t/ i' x' V! |. V8 t
  62. Default : No, g7 U+ I3 |9 M' E; S
  63. Forced : Yes2 r1 j4 q* ~# F7 F& ~" V9 \

  64. ; z  E' F; f+ p4 U0 h
  65. Text #2: q2 i: S1 J9 z  Y
  66. ID : 4
    & u  E, q9 S( y# N( d& M
  67. Format : UTF-8( u! e& g# e3 j1 E  r; s0 K
  68. Codec ID : S_TEXT/UTF8
    ! d, ^' Z) k8 s  ~5 z9 h4 I: o
  69. Codec ID/Info : UTF-8 Plain Text
    + z, X4 B5 e! w" R; j! Z
  70. Duration : 36 min 7 s' @4 |; C! E- f# |
  71. Bit rate : 124 b/s
    : M4 k; }5 M8 }3 }
  72. Count of elements : 850: t$ `4 a  s  i* ?
  73. Stream size : 33.0 KiB (0%)
    2 ?8 m6 ^1 h" q' f3 m1 \
  74. Title : English [Full]1 d; K6 ?1 c% H( F
  75. Language : English$ b5 h3 X7 N- Y" ]
  76. Default : No1 z0 i2 w' R6 N. Y
  77. Forced : No
    + _$ [" k8 T* V: n, N* T8 Q7 T

  78. 7 y5 e5 Z+ ~2 s0 A9 f% ?
  79. Text #3
    5 k; o4 w$ Z, D9 U
  80. ID : 5! \" w% t1 ~8 k8 a6 E  D& W# @
  81. Format : UTF-8  L9 Q2 b& F! y- [) W7 ?
  82. Codec ID : S_TEXT/UTF8( \6 W; W4 D4 ^. |1 m" _/ {/ C, A0 s
  83. Codec ID/Info : UTF-8 Plain Text6 O4 s8 u" n3 [% j* P* @6 W
  84. Duration : 36 min 47 s0 o1 G( b7 D: D5 G7 A. x. N
  85. Bit rate : 108 b/s
    / O% Y* x7 S- f& v' F
  86. Count of elements : 773! _3 H& j$ }$ C4 |7 A
  87. Stream size : 29.1 KiB (0%)
    8 `3 j' g, D1 M$ K5 p; }
  88. Title : Castilian [Full]
    2 y  c4 O8 U% Y1 v2 }
  89. Language : Spanish
    & N9 c: k5 B1 P. e5 j
  90. Default : No
    . G" r; M2 t8 {6 s7 O# i; ?
  91. Forced : No
    4 \* X- Y7 K; V) C
  92. ) k9 Q0 l  c: p, r( @1 b$ X& P
  93. Text #4
    ! U2 i9 F' z, ?8 B
  94. ID : 6
    ) [1 }+ L( R+ f+ s
  95. Format : UTF-8
    ( z8 o$ N% m1 n2 t9 s) z" {$ D
  96. Codec ID : S_TEXT/UTF8$ V5 A) ^8 J& I5 I2 n# |
  97. Codec ID/Info : UTF-8 Plain Text
    1 h, \4 k4 D7 \: M6 I' ?/ |3 K
  98. Duration : 36 min 47 s
    9 R) b1 m# o, _: b) H
  99. Bit rate : 106 b/s
    9 B; j* j6 w  i3 X$ K/ J( g. w
  100. Count of elements : 7671 Z4 X* R0 {( Y: v/ H+ J1 ^
  101. Stream size : 28.7 KiB (0%): l/ H" ^" k2 b; Z4 A7 x7 E$ @% X
  102. Title : Spanish [Full]3 a/ ~8 \' u) E! E# I& e0 T1 \1 ]8 e
  103. Language : Spanish& J4 m; Y0 N9 ~' l7 c; ]
  104. Default : No5 z' a5 R4 C( _4 j6 x
  105. Forced : No
    - x7 N0 D0 S# H: X
  106. / t/ f$ @2 E; n4 C0 |! l5 T
  107. Text #5
    ; ^3 w+ `2 N7 T2 B' a
  108. ID : 7
    9 c8 G, {: {, x/ K9 u4 z/ g
  109. Format : UTF-8: U; Z/ b# k- z
  110. Codec ID : S_TEXT/UTF8
    : ~8 [8 ~3 H8 T
  111. Codec ID/Info : UTF-8 Plain Text& y1 J: z% H, u4 }
  112. Duration : 36 min 47 s9 {: [6 t% {: f7 t& G( d
  113. Bit rate : 106 b/s" L$ Y% u5 w9 j, f+ M
  114. Count of elements : 760
    8 D& N, }- ?0 k! e; T
  115. Stream size : 28.7 KiB (0%)$ j9 {8 J, U- g' K+ J
  116. Title : French [Full]
    ; ?/ h8 @3 S+ @3 @1 r( x( _
  117. Language : French, n% r. }( H) i& A6 G4 O
  118. Default : No
    ; l  \! Q) W! N3 K/ w: D
  119. Forced : No* ^) P3 N; B0 x
  120. 5 w2 U' {7 J+ Q1 u7 z
  121. Text #6% G7 O, c: P/ x- l1 [* v
  122. ID : 8
    . n' L5 a6 x9 ?, J- l! q
  123. Format : UTF-8
    ' ]: B7 r: G& Q6 J+ u7 K% {5 N
  124. Codec ID : S_TEXT/UTF8
    , @3 E. k* j! Z2 Q
  125. Codec ID/Info : UTF-8 Plain Text
    1 e% }7 y6 N: Y
  126. Duration : 36 min 46 s
    " k; ?( O4 {" V2 L
  127. Bit rate : 97 b/s' F+ ~; |- E' A: N4 p
  128. Count of elements : 704
    " Y- u! D( r0 `* p+ |6 F
  129. Stream size : 26.3 KiB (0%)) s/ g- g3 [* R- Y' |1 d. v
  130. Title : German [Full]
    1 S4 z$ ?/ h: e5 g9 Z1 F, ]
  131. Language : German
    2 ?) q& J! k" h* g  Z
  132. Default : No* \1 M  y9 Q6 f4 l- l
  133. Forced : No
    , ^3 F3 q; R0 A
  134. & g$ T  H% g( v: C6 B
  135. Text #7, n+ C1 b' A3 M' a9 f
  136. ID : 9
    : `8 B* h) n+ H: e2 E" @1 N' |
  137. Format : UTF-8* E7 Y9 X/ R: `
  138. Codec ID : S_TEXT/UTF8
    $ F/ D. ]  V1 i+ @8 s! _8 o0 ~
  139. Codec ID/Info : UTF-8 Plain Text
    0 e# q0 |3 ^8 P( ?
  140. Duration : 36 min 48 s! q+ F& m( ]8 s) s" }/ C4 B
  141. Bit rate : 101 b/s
    : \1 D7 J/ M6 z7 O5 r
  142. Count of elements : 759
    ) W3 A" s: P) s: X. t% M
  143. Stream size : 27.4 KiB (0%). t5 p% P: v, w  U" D
  144. Title : Italian [Full]
    9 W8 v9 `# U) n& W! E
  145. Language : Italian
    ' L* h! n" o9 J/ N
  146. Default : No2 H' V& ?, a! g
  147. Forced : No; U! p4 _0 ]4 i. I1 u
  148. 4 b2 m% k% @+ @* [" W1 k
  149. Text #8
    5 v7 l7 `4 k+ N$ V0 j
  150. ID : 10( e) V: Q) v* R
  151. Format : UTF-8
    9 K4 v7 n$ v1 y% t: l/ D
  152. Codec ID : S_TEXT/UTF88 x! _6 T' \7 @. h$ p2 W7 ^' e5 k
  153. Codec ID/Info : UTF-8 Plain Text
    ) L: t+ t; P0 V. G, V
  154. Duration : 36 min 47 s) }; T% T& O: w- G9 ?
  155. Bit rate : 98 b/s2 v& q/ a1 b3 t
  156. Count of elements : 7145 i  I  I  i* ^0 n
  157. Stream size : 26.6 KiB (0%)
    ! q- N8 x: `1 ?, J4 Z
  158. Title : Portuguese [Full]. j- p8 K1 V+ {
  159. Language : Portuguese
      b$ H: P0 n9 r4 J4 N! f* T
  160. Default : No* g  j9 `( T  Z
  161. Forced : No
    5 K9 A; p# [  ^, T4 ^" C' v$ h4 t
  162. + j4 e) T& p+ }( a3 Y
  163. Text #9
    , ?( s3 R2 S) W& D
  164. ID : 11
    6 o/ e: _4 j1 `( h
  165. Format : UTF-8
    9 s- x) t4 Q9 C* H5 @
  166. Codec ID : S_TEXT/UTF8) s. m# b7 _+ v; P* f/ Y0 F
  167. Codec ID/Info : UTF-8 Plain Text. s" Q7 X1 V2 I5 ?
  168. Duration : 36 min 48 s, \6 z5 q' D: X* G  H6 Z
  169. Bit rate : 103 b/s
    . g8 e0 V6 p. y# @7 d1 Y0 W6 `
  170. Count of elements : 7679 i+ o) F% A" x6 O7 s
  171. Stream size : 28.0 KiB (0%)
    # I8 l, o" C' E0 m" L) h
  172. Title : Brazilian Portuguese [Full]4 `5 x; h4 }" k/ K) E; c
  173. Language : Portuguese: V. ~6 |9 [% b7 p0 C; w
  174. Default : No
    3 G+ [* Q  z! u8 V: h
  175. Forced : No, p/ h! q2 f- d' P7 y3 h
  176. 6 T# T: ]" e8 C* e- W
  177. Text #10( v6 z! u) K# A5 J
  178. ID : 12
    ; P; N+ J+ h# q  C& H4 @
  179. Format : UTF-8) L0 K. Y" N* o+ I
  180. Codec ID : S_TEXT/UTF8, Q, ]' J4 _( \8 I$ R6 p" Z* ~
  181. Codec ID/Info : UTF-8 Plain Text2 u! x! }8 o5 _) y$ l/ N: E
  182. Duration : 36 min 48 s
    5 ]1 |, j% ?: b* f$ C+ X
  183. Bit rate : 92 b/s
    7 k) F: W, e# ]% }& j% e/ U
  184. Count of elements : 748
    & ?* O1 X. G; \. y4 c% f. c
  185. Stream size : 24.9 KiB (0%)' w( J( P# d* {
  186. Title : Polish [Full]
    8 U( o. p7 ?- ?0 ~5 |
  187. Language : Polish
    # e4 y- k$ p2 N1 s' [2 W
  188. Default : No
    7 V3 s/ s4 N# O1 _0 ^
  189. Forced : No
    * J: G. k/ C2 U- Q. F

  190. % ~- r  K. X$ P: E$ }" o$ ]  \7 x
  191. Text #112 l3 i; e1 a+ J1 Z- U8 A
  192. ID : 13
    8 O: J/ z6 B  s2 O/ p8 S, ]: l' z
  193. Format : UTF-8! E8 B: P" k1 ?2 e
  194. Codec ID : S_TEXT/UTF8
    3 ?# Q7 G) b0 d
  195. Codec ID/Info : UTF-8 Plain Text
    & L8 _) s$ h7 @% F/ m. o* a$ W
  196. Duration : 36 min 47 s
    4 T  O$ A- t3 K; u, |" D1 S' r
  197. Bit rate : 104 b/s
    7 Q* s, Y& Z* m0 F; A5 r7 J) T4 [5 S
  198. Count of elements : 7494 p2 z; k5 L( d  J
  199. Stream size : 28.3 KiB (0%)
    # j/ z& @- A. F7 z
  200. Title : Turkish [Full]2 X& z* F0 J- G  ?% `) x
  201. Language : Turkish9 T- t( o% h3 a3 F: y
  202. Default : No
    ( y9 ^" N' w3 m) Z7 |
  203. Forced : No4 v4 j9 R# J6 b1 A8 u
  204. ( p3 Y! K3 x7 Z$ f/ E
  205. Text #12# y& h. _% Y. G
  206. ID : 14
    ' Z1 M( B& w2 E6 H
  207. Format : UTF-8
    * i# Q( b( M: J, B1 F0 _/ a" ]
  208. Codec ID : S_TEXT/UTF8, B0 ^$ D; R) c9 o4 T/ d7 i8 M
  209. Codec ID/Info : UTF-8 Plain Text( G& ~6 E0 u, h5 n
  210. Duration : 36 min 47 s+ E2 t% m9 C2 @  I  H
  211. Bit rate : 101 b/s
    & H' O+ ?5 w6 d4 l. Y
  212. Count of elements : 770# S* h9 {9 X' M' Y& f# t
  213. Stream size : 27.3 KiB (0%)
    & M( Q7 s) U0 r3 M9 z7 c& ^( V
  214. Title : Swedish [Full]1 |7 C* R" n. U8 N6 H0 N4 @- P
  215. Language : Swedish7 V) `, Q- \: W  D, q
  216. Default : No) J- B# n! T# }. j1 s
  217. Forced : No" F' ?- K! T) g" A5 M; j2 I
  218. . [/ f' K1 A8 n: z: ]7 E7 W$ W
  219. Text #139 ~( i" W5 j% S8 n3 W  d
  220. ID : 15
    / b9 R# ^( E& n5 `
  221. Format : UTF-8; n: F  w: ]% A* r& Z+ b( s7 e
  222. Codec ID : S_TEXT/UTF8
    $ U- ]0 W% }6 I
  223. Codec ID/Info : UTF-8 Plain Text
    # K# n7 e9 V/ `
  224. Duration : 36 min 48 s
    7 j( |$ [2 q* D; I
  225. Bit rate : 91 b/s
    2 d  I, l. q0 M, c
  226. Count of elements : 6986 D; F! C; T) @3 w) D5 E
  227. Stream size : 24.6 KiB (0%)& j7 ]0 n% N* S8 n! }; x
  228. Title : Danish [Full]
    & F2 _( ?6 C! d4 B. f* ^
  229. Language : Danish
    $ N2 z' h  i9 Y* I
  230. Default : No3 B3 Z& E" T" \" a+ @% A' u! m
  231. Forced : No' R# K6 U: u+ u

  232. " \/ ]% W3 I1 Q% w: v+ U
  233. Text #14
    3 z5 \/ m2 l- X
  234. ID : 16
    6 U- ]5 C' a8 q2 u& _$ z1 K
  235. Format : UTF-80 e8 Y2 q# ]! B+ O" G3 ~* O, H% ~& v1 ?
  236. Codec ID : S_TEXT/UTF84 H4 H( Q6 u0 y" j* n6 S; D6 c
  237. Codec ID/Info : UTF-8 Plain Text7 J4 w: A8 i  @" v/ I- f- J
  238. Duration : 36 min 47 s
    : }/ H3 S. r, t" M+ M
  239. Bit rate : 94 b/s& u* m& C" ^( G# U0 t6 R& P8 }7 _
  240. Count of elements : 632) T$ P2 m8 ^; [4 K
  241. Stream size : 25.4 KiB (0%)
    $ N/ E- U0 y6 k, }6 e  q0 e5 d
  242. Title : Finnish [Full]
    7 J  R9 L% c9 R) ?) S* i: r
  243. Language : Finnish
    ! O0 `, p2 b: f! y7 N& Q
  244. Default : No
    + ?8 u4 b/ F( B, h
  245. Forced : No% I* [3 P; @3 v

  246. 2 L( i9 {% A+ D0 T$ S( J
  247. Text #15
    + k# k4 U* r! d$ c6 u. S  ?) O
  248. ID : 17+ s8 w3 {8 ~/ u4 @# o# f/ S% p. u
  249. Format : UTF-89 ?. J6 v% _' E1 @  k0 M/ B
  250. Codec ID : S_TEXT/UTF8* x6 G& k, S0 Q9 x" {. f
  251. Codec ID/Info : UTF-8 Plain Text
    1 g& ~% E  W4 _  ]  U% c: Z7 _
  252. Duration : 36 min 50 s3 K6 f5 k. R+ t8 I
  253. Bit rate : 86 b/s( ?8 j  K4 y4 {
  254. Count of elements : 722
    7 c6 w& n  e) y3 M" D- P
  255. Stream size : 23.2 KiB (0%)0 J+ S% X$ }# s8 `/ G
  256. Title : Dutch [Full]5 O! k; {" E' }% y9 M4 |( G
  257. Language : Dutch
    # I7 y- H. y* [3 R
  258. Default : No5 Q% T1 }1 Q& `' {* {+ C" R
  259. Forced : No
    " i9 z+ W1 }. P8 n! j9 e# y9 k! _

  260. 1 q/ B. q  U$ T
  261. Text #16) L' O  Q. i0 x* r" X+ L
  262. ID : 18
    8 M" o+ T% k8 O0 F3 s4 f& ?, J3 r
  263. Format : UTF-8
      Q: p, w* @+ a
  264. Codec ID : S_TEXT/UTF8, T9 z' [* k  |; W8 ^% [
  265. Codec ID/Info : UTF-8 Plain Text
    + X) o3 A6 V% u  v
  266. Duration : 36 min 48 s
    " w' _4 A8 ?( p- j: B" \8 Q# g' K
  267. Bit rate : 92 b/s9 d+ u$ q- \! @
  268. Count of elements : 632
    3 i6 u7 p& \: ~) @3 a
  269. Stream size : 25.0 KiB (0%)# N& Q8 B& n9 `& S2 ~2 c9 j2 x
  270. Title : Norwegian [Full]
    2 r0 ?, m# O5 w2 ~* I2 f7 k
  271. Language : Norwegian9 V2 ]1 F% Q. O! K2 k5 u3 Y1 f
  272. Default : No: Z8 ]1 `* R# y; x
  273. Forced : No
    ! N+ o8 Q! x! z" f; ^5 z( x2 H; R
  274. ! e& x- j& X2 m/ A
  275. Text #17
    7 a6 H: Q8 p$ u4 ^" C) d0 t6 }
  276. ID : 198 H' A' i$ f+ `* ]: v
  277. Format : UTF-8
    , {7 [+ `& B' `- }9 w
  278. Codec ID : S_TEXT/UTF8
    ) W% j, D, G: g8 e+ ]; _# B, `8 h
  279. Codec ID/Info : UTF-8 Plain Text
    9 W9 c( t6 h5 _
  280. Duration : 36 min 48 s4 p# l# ^" _6 }) y! x) T
  281. Bit rate : 145 b/s
    ' ]7 W. L% W! }7 i3 W# F9 ]0 _0 v
  282. Count of elements : 733
    4 r1 o* v, [9 O/ c, U' [: t
  283. Stream size : 39.4 KiB (0%)
    1 |8 f0 @1 p& ?
  284. Title : Russian [Full]
    ( W8 g- ]1 `! ~4 _9 m& }
  285. Language : Russian
    * I/ `  o! P4 O4 ]  c
  286. Default : No  I) A4 O8 e; l5 X4 C: P" o3 l& w
  287. Forced : No0 w5 P; n4 ~- S  G# z6 {
  288. ( H$ c+ P! x, G5 F; {+ |
  289. Text #18
    " E5 C- s! d& I5 c
  290. ID : 20
    2 D) n/ y' g7 |" n, I
  291. Format : UTF-8% \6 @% s" |  A: {
  292. Codec ID : S_TEXT/UTF87 l7 a$ @2 h) M$ C* `
  293. Codec ID/Info : UTF-8 Plain Text
    + q* u, I0 I# r* o; n
  294. Duration : 36 min 53 s
    2 c% {; h) R; S; @1 r5 O9 E5 H
  295. Bit rate : 100 b/s  k8 l- x$ h, R
  296. Count of elements : 779  p% a) J. B0 Q, M7 N# M) x7 t
  297. Stream size : 27.1 KiB (0%)! i4 {0 t' Y/ F8 o; [3 E
  298. Title : Hungarian [Full]0 F, d! M) K. L; B8 x- n3 |5 \, W+ E6 a
  299. Language : Hungarian
    5 I% J7 v! Y4 `2 Z. h1 {" j
  300. Default : No- d9 o% ~4 a1 B! X, @
  301. Forced : No
    / E7 R& f8 B' C# X" f

  302. 0 M6 H$ R  J! h- b
  303. Text #19  G9 G! ~! p0 C& y& Z* G7 l
  304. ID : 21
    ( q" h/ L7 w' w/ b
  305. Format : UTF-8
    ! d- B1 X0 k! @8 P3 E5 X$ q# F9 `
  306. Codec ID : S_TEXT/UTF81 p, P4 ~9 O& `4 l
  307. Codec ID/Info : UTF-8 Plain Text6 Q' s5 Q, w2 a- g" m
  308. Duration : 36 min 47 s! I5 ^$ O5 s0 G9 C8 c1 F7 f
  309. Bit rate : 162 b/s: C2 K& c( d) K0 \' X3 Z
  310. Count of elements : 778' p' v. K- {" C2 j3 l8 f, ^
  311. Stream size : 43.9 KiB (0%)1 J) ?, e/ n( k
  312. Title : Greek [Full]1 R. s# o3 j& A& t( [- n5 t
  313. Language : Greek% H  v7 N7 \. A# ]7 k
  314. Default : No5 @- e. B' P2 D+ @" J
  315. Forced : No
    9 H! F$ Q; \( A3 o, j7 g4 t# }
  316. * @/ e9 [8 ~# f6 }- \4 E6 c
  317. Text #20  D1 x! u- }, s: f% s5 E1 A" f
  318. ID : 22& |, F# ]6 n  w- M/ m' ]
  319. Format : UTF-8
    8 p  \3 L3 Z; D7 A. o# d4 ]( V! K% ~7 `
  320. Codec ID : S_TEXT/UTF8
    2 f$ b% X" |0 [* h
  321. Codec ID/Info : UTF-8 Plain Text9 K$ d3 O1 [  y9 L
  322. Duration : 36 min 51 s# @0 m. s+ N3 s' J* s
  323. Bit rate : 142 b/s
    7 Z5 `) S% w0 C
  324. Count of elements : 729
    - z8 T: H9 v! n8 m5 P
  325. Stream size : 38.6 KiB (0%)9 X$ J- r" v4 u/ s% p' T" X  Z5 h
  326. Title : Hebrew [Full]5 W( q; m. D' ]# q) Y
  327. Language : Hebrew
    . t; G- Y% z5 P- o0 D
  328. Default : No
    4 R# @# s6 e9 H. N- y0 N
  329. Forced : No2 d* N5 Q2 q! b2 E6 p
  330. # @2 E( s0 d! r! D
  331. Text #21
    + ~+ c9 t0 e/ {$ A* ~
  332. ID : 23
    ( K( o1 W; O, u
  333. Format : UTF-88 g" U- C8 v% m! P
  334. Codec ID : S_TEXT/UTF8
    # }* P2 v4 V" g8 C2 P3 _
  335. Codec ID/Info : UTF-8 Plain Text$ P+ `/ {! S+ M
  336. Duration : 36 min 47 s0 a5 \3 F: n" H/ K
  337. Bit rate : 167 b/s6 T$ E" [' e$ e* w  S+ K1 @
  338. Count of elements : 748
    : S! L- p1 T8 R0 L
  339. Stream size : 45.3 KiB (0%)# X3 Q! I3 B& ^+ I% u# N
  340. Title : Arabic [Full]) }3 G% G3 I' G6 f+ N5 b9 a2 x; L
  341. Language : Arabic
    % E* B. @$ z0 G" D/ {
  342. Default : No7 A8 R. E. o: `  |: n6 l
  343. Forced : No$ |% H6 B  q# ~: u! f4 l( p3 B: x% [

  344. , }) H- p& j, h6 ^; u8 l' g4 ]
  345. Text #22
    ' k! k$ C# Z/ T4 ]1 E( |
  346. ID : 24
    7 p% P, U4 N/ n( I
  347. Format : UTF-8! J( T. v$ _. [, T0 f  o' J& T
  348. Codec ID : S_TEXT/UTF8
    2 d; }5 `, I* [6 p+ M; h  m
  349. Codec ID/Info : UTF-8 Plain Text: y6 e  E/ H9 g0 U- L+ b" Y- Z" ~
  350. Duration : 36 min 47 s/ @& I7 O( l6 K5 u$ a7 \0 C
  351. Bit rate : 107 b/s1 S! i5 K5 n/ P7 U: x4 B
  352. Count of elements : 777
    , ]" i# [9 G$ M# K5 M, C
  353. Stream size : 29.1 KiB (0%), ?& L2 ?( p9 F
  354. Title : Romanian [Full]! C& E) V1 }. {# J% e% j% R
  355. Language : Romanian
    % m) j/ ~% S: ]2 M! f
  356. Default : No7 R$ h8 `$ J% _& I% |
  357. Forced : No5 k. T7 o( j; k3 g' P) Z! y

  358. 5 M+ e! k- u9 H0 j
  359. Text #233 G1 J7 f! H: @9 P" i/ r2 X8 o
  360. ID : 25  I  [7 \8 H* y: B" M
  361. Format : UTF-8
    # G+ u; w9 X1 @. W7 ^3 I2 K! B7 _
  362. Codec ID : S_TEXT/UTF8
    / y8 ~9 M9 i8 e" n0 A& k, S
  363. Codec ID/Info : UTF-8 Plain Text
    * W  s6 H( A; ^1 X' v( g, x5 K8 Q
  364. Duration : 36 min 48 s
    0 G$ p# E7 {' ]/ S4 m# S8 _" |
  365. Bit rate : 101 b/s
    ! o7 V& k; J0 w) U5 c0 ^- k, G
  366. Count of elements : 717
    1 V+ e, y- _& X# a% @9 B
  367. Stream size : 27.3 KiB (0%)
    6 S  ^  w" q0 `; \& O4 U: ?
  368. Title : Czech [Full]$ ^( l& d; E) [( m! y! V
  369. Language : Czech1 o9 {* q4 y" [+ v; a7 R
  370. Default : No: e: q6 A) w1 q. s# c* l2 v
  371. Forced : No
    ! c1 V+ N7 A4 w  g9 Y. S" R

  372. ! B0 J9 s, [0 U* o4 |" j
  373. Text #24) S! z+ q7 J# K" w$ i" |$ I4 j7 `
  374. ID : 26
    8 y- C/ W& M+ z3 |3 i
  375. Format : UTF-8
    # u1 l  u8 P5 c( A8 H4 K! k* c% u
  376. Codec ID : S_TEXT/UTF8/ H& {2 d/ t9 ~; Z
  377. Codec ID/Info : UTF-8 Plain Text
    7 x$ U) H) G3 h. W4 b* k
  378. Duration : 36 min 48 s
    1 _& }4 ]( T: T. E% }
  379. Bit rate : 106 b/s: X3 d* v: y, ^0 }
  380. Count of elements : 780( L# F5 t! M, H$ s9 a
  381. Stream size : 28.7 KiB (0%)
    8 t6 S, i3 n# W8 T5 h/ ?' u% H$ i) o
  382. Title : Indonesian [Full]
    2 L: N/ ]0 f7 }3 E' Y- t
  383. Language : Indonesian
    % l, t2 G" @, G1 p3 I
  384. Default : No
    % |% y9 L8 a5 _7 _
  385. Forced : No) `% P* m' s# [( q: L( |

  386. 6 n# }5 r5 a9 D# C# v; x
  387. Text #256 @* I- [1 |( f5 Z' b
  388. ID : 27( b) @7 T9 O  ?+ y& P
  389. Format : UTF-8
    2 C+ @% X8 i7 h% f  ?
  390. Codec ID : S_TEXT/UTF8
    $ }4 a. b# n1 r4 K
  391. Codec ID/Info : UTF-8 Plain Text
    : y7 x; \7 e$ Y- s; u, ^
  392. Duration : 36 min 47 s$ M" ~* p6 b0 P9 d, t' a+ ~* J& c: n
  393. Bit rate : 137 b/s/ h" l; Z1 V" \* g$ Y
  394. Count of elements : 762
    8 A& y0 d( p; i# W
  395. Stream size : 37.0 KiB (0%)
    * ]/ u: l1 G5 u6 ~# u; a2 }
  396. Title : Vietnamese [Full], ~" Z! c2 z0 [5 N/ i. G* o+ ^) e
  397. Language : Vietnamese7 s) A* t% a; m+ R8 ^- @' E& V3 j1 u
  398. Default : No
    # d& z  C5 T6 R8 a8 R8 g
  399. Forced : No
    & ^4 l/ j. I" m
  400. & b9 @# ^- h8 @8 T) o3 j
  401. Text #26
    , N  {! P9 G' Z7 }( q
  402. ID : 28) ~8 h# r$ \) L) v+ y( C, {7 U
  403. Format : UTF-8
    , s9 b# Z: H- S3 e+ n
  404. Codec ID : S_TEXT/UTF8& [# M1 p3 b7 _( S! _2 U
  405. Codec ID/Info : UTF-8 Plain Text0 Y( x/ a3 n7 Y5 ~; @
  406. Duration : 36 min 47 s) ]+ o6 d3 G. y# ~" M- |$ ~6 r) ^9 ~
  407. Bit rate : 247 b/s; A) v" p$ M+ V2 M9 O. ]
  408. Count of elements : 776
    6 l: o/ r8 F. ^$ K. n" N/ v, q% J: h
  409. Stream size : 66.6 KiB (0%)4 c) \/ s; f7 \/ y. C
  410. Title : Thai [Full]+ R, K# T, f& a" o
  411. Language : Thai
    2 o4 m# n4 y! R% |- Q" j, I: _5 V
  412. Default : No5 l' K4 c, B: c  }8 D( U# @
  413. Forced : No
    # E" x. t7 v/ {

  414. 5 i- i; q& B& [
  415. Text #27
    9 }$ w; C6 s8 t) n& ?# e3 W6 [
  416. ID : 299 \7 d! N( o) l/ c2 Q
  417. Format : UTF-8
    " x2 b! k0 c2 ~: s; b
  418. Codec ID : S_TEXT/UTF8
    ( P" R) W4 G0 L& p; l3 g& `0 l3 u8 L
  419. Codec ID/Info : UTF-8 Plain Text
    . ?" W, Q, ~( b9 R7 ~
  420. Duration : 36 min 50 s9 G- b' k7 E8 ]
  421. Bit rate : 115 b/s$ x2 E9 ?/ B4 L3 W
  422. Count of elements : 778& n# d# ^4 d7 B2 T7 }/ M& ~- D
  423. Stream size : 31.1 KiB (0%)
    7 |; D; ?$ ]  [/ K
  424. Title : Korean [Full]: r' `" P& S2 N7 Z' L' v
  425. Language : Korean
    0 K1 t( O0 U$ r9 e+ Y3 q
  426. Default : No
    - I! x/ E) h# Q# h9 t$ I% V' q
  427. Forced : No9 a6 R  `9 h7 R5 ?* O2 W
  428. ( d$ J7 B8 |9 K$ N$ ~
  429. Text #28: i& q) _: J! L
  430. ID : 30
    / i6 l; N! I+ F2 Y, g
  431. Format : UTF-81 b5 b2 C: b# X# q+ H
  432. Codec ID : S_TEXT/UTF8
    6 L& b/ d( W4 x, u% W7 H. X; r
  433. Codec ID/Info : UTF-8 Plain Text
    / e1 M+ L; S3 ~
  434. Duration : 36 min 47 s# V& o4 |9 ?; m4 v* S
  435. Bit rate : 85 b/s5 M  o! L7 e& f- x
  436. Count of elements : 776, p0 u/ I0 I+ A5 L" A3 L( k9 ]
  437. Stream size : 23.1 KiB (0%)' p3 L4 @6 m* @' ?+ A( V, a# |
  438. Title : Chinese (Simplified) [Full]
    4 h% A6 w1 D7 U4 ?0 q" y
  439. Language : Chinese
    ) `# N! c% J- r9 W' G9 }
  440. Default : No6 x* J+ J/ T3 p+ `& q( @" f6 \7 a
  441. Forced : No. V# A- `# L9 K4 z" v8 }2 S
  442. 1 V+ ^0 \( n+ G* T' a6 v# N) k
  443. Text #29
    $ t3 B! s! E8 }9 {. O7 U, ~5 X
  444. ID : 31
    ( w! `9 ^/ X" F5 F7 r& A$ K
  445. Format : UTF-8
    . ^& G) v. z8 w  t
  446. Codec ID : S_TEXT/UTF80 J- ?# g) @  U
  447. Codec ID/Info : UTF-8 Plain Text
    ' _1 R! {: x; n' E: }( [% i
  448. Duration : 36 min 47 s& K3 |6 M# w( W3 P8 S7 M: E
  449. Bit rate : 88 b/s- ?6 R- p9 e+ r# L
  450. Count of elements : 779/ N/ F, L& m* p* Z" k' |
  451. Stream size : 23.8 KiB (0%)8 D" p  o( ~' ?+ H
  452. Title : Chinese (Traditional) [Full]& X6 z) R: [7 @5 p
  453. Language : Chinese" t6 @/ v0 v4 I4 @4 r
  454. Default : No
    ( i& N0 _+ s. R* `/ O
  455. Forced : No
    % J  i+ |6 g7 X2 Z
  456. ! Q7 }* B& ]! |, k- {8 [
  457. Text #30
    ! J" g: c* I# A  L! W/ X. C
  458. ID : 32) _7 r0 ^; s3 O$ D
  459. Format : UTF-8
    8 G0 [& t5 ]# N7 E3 K
  460. Codec ID : S_TEXT/UTF8
      i6 ]; X# a7 k9 A/ ^* T  l" G
  461. Codec ID/Info : UTF-8 Plain Text% J# h3 k' p1 {* j9 H
  462. Duration : 36 min 47 s
    $ V) b' {9 h3 j' ]
  463. Bit rate : 105 b/s: [; ^9 Z0 C; T# Y, |) z1 I
  464. Count of elements : 823
    , M2 c  y0 b6 A
  465. Stream size : 28.4 KiB (0%)
    & m3 C) r) \" m8 x3 H+ c
  466. Title : Japanese [Full]2 V6 w. b, {; U0 A- f: \7 q
  467. Language : Japanese
    / h& P/ V+ {0 a9 v! N0 o
  468. Default : No
    " ~3 q- j9 C2 k1 r, g% p4 V
  469. Forced : No
复制代码

! y; n8 C0 C7 T) U& @  q2 p$ [; \; S2 ~. N

' p- j7 m) d/ ~. k9 T8 A1 [2 v# B
& k3 g+ g( X0 K5 V9 C+ n
. ^2 j( u& J% X
游客,如果您要查看本帖隐藏内容请回复  VIP可免回复查看隐藏内容 详情请点击
发表于 2020-3-16 00:14:00 | 显示全部楼层
多谢楼主分享!
发表于 2020-3-16 05:23:21 | 显示全部楼层
谢谢楼主分享
发表于 2020-3-16 07:00:16 | 显示全部楼层
又可以看美国综艺,谢谢楼主分享。
发表于 2020-3-17 07:32:21 | 显示全部楼层
这个,不是蓝光啊,那先谢谢楼主了
发表于 2020-4-2 08:41:01 | 显示全部楼层

2 _0 p- o2 o* V% i多谢楼主分享
发表于 2020-4-2 09:44:54 | 显示全部楼层
感谢楼主分享
发表于 2020-4-28 21:21:57 | 显示全部楼层
感谢分享美国真人秀节目!
发表于 2020-5-9 17:54:40 | 显示全部楼层
一直追看这类型节目辛苦哂
您需要登录后才可以回帖 登录 | 立即注册

本版积分规则

QQ|封号公示|手机版|有问题发邮件到admin#(换成@)hd1tj.org|微博|免责申明|HD一条街

GMT+8, 2020-11-25 12:31

快速回复 返回顶部 返回列表