HD一条街

 找回密码
 立即注册
搜索
查看: 268|回复: 8

[欧美] 百人社会实验 第一季[自带中文字幕]100.Humans.S01.1080p.NF.WEBRip.DDP5.1.x264-ASCENDANCE 12.76G

[复制链接]
发表于 2020-3-15 21:37:06 | 显示全部楼层 |阅读模式

马上注册,结交更多好友,享用更多功能,让你轻松玩转社区。

您需要 登录 才可以下载或查看,没有帐号?立即注册

x
' m! l' u) N  W7 c
                               
登录/注册后可看大图

9 g0 g# s  i. F2 r0 G; S$ s3 [7 h& L+ ~. o7 w4 P
◎译  名 百人社会实验 第一季
: W! w" h8 ~) b1 C' a5 R◎片  名 100 humans Season 1
- X# E3 j& K" {# p◎年  代 2020, c6 f1 m* j: `1 v9 x+ h8 ^
◎产  地 美国( j4 h* v& J& U; ~2 G8 R8 J5 c( R
◎类  别 真人秀
2 o+ T: p/ ~# y◎语  言 英语
; T" q  G5 G" Q9 a5 X+ \! R! w◎上映日期 2020-03-13(美国)
, R; E  _2 N2 _9 y. I◎IMDb评分  5.4/10 from 52 users
7 |0 v- {. ~9 f◎IMDb链接  https://www.imdb.com/title/tt11823088
3 z7 K% X5 O' o& |& l7 I5 a◎豆瓣评分 0/10 from 0 users* t: y" v) B4 V# B3 b" ?
◎豆瓣链接 https://movie.douban.com/subject/34992760/. N3 y9 z" |5 `( K
◎集  数 8/ L/ F$ e3 i! p
◎主  演 Ryan Zamo
* |+ {6 d* z6 N, B" |( a       Brooke Somer
* L! N3 N& y' A& h" S; ?4 U% M       Alfredo Tavares5 \0 c, _7 E( b% q# v5 X; t/ N

( G1 U: W! |5 K3 M
" Y* l3 r; d0 ?6 U% ]- T) O, Q◎标  签 美国 | Netflix | 2020 | 真人秀 | 电视剧 | 综艺 | 纪录片 | RealityShow
+ `, a" E3 _1 a$ Z2 n" ~- w8 I( p* ?; I) P* b
◎简  介  9 \2 }+ N+ G4 z. c9 @. k. F- n2 t& Q

6 K" V: _9 c9 n2 H" @7 E  一百名背景各异的强人参与了多种趣味实验,借以探究年龄、性别和幸福感等人性奥秘。
  1. Video$ s& a9 f1 |( c. k, a. {
  2. ID : 11 Q, r; V6 q- y! `% E
  3. Format : AVC' P; D# T. H7 t+ i0 J. b  F
  4. Format/Info : Advanced Video Codec
    7 z( T& A' Q4 [' G% L
  5. Format profile : Main@L4
    . u! y) V. E4 ^. b. B
  6. Format settings : CABAC / 3 Ref Frames
    # ^3 A7 T+ \: ^( }
  7. Format settings, CABAC : Yes# T3 {5 b* H! r7 n* W
  8. Format settings, Reference frames : 3 frames) G; |  K8 B. ~4 w( O% r# w$ s* H
  9. Codec ID : V_MPEG4/ISO/AVC9 g. x' D8 J# [' m! F1 ~
  10. Duration : 37 min 42 s
    9 ?% P% E; h! L" L0 \* k* Z
  11. Bit rate mode : Variable
    % K% w3 y$ v5 }* o  ^
  12. Bit rate : 7 150 kb/s
    ) |( F0 @! P3 g/ T
  13. Maximum bit rate : 10.7 Mb/s
      C# p: l4 Q) u; B' {
  14. Width : 1 920 pixels
    ' x- x5 a) D6 g& D- r" N
  15. Height : 1 080 pixels
    # n4 g6 @( g2 T* _7 X2 o: M1 ?: ]
  16. Display aspect ratio : 16:94 `3 c- g9 G8 [* m1 ^6 d
  17. Frame rate mode : Constant
    " s: a7 T# H9 ]+ }3 s
  18. Frame rate : 23.976 (24000/1001) FPS
    6 i3 F5 c% ]6 B$ z, P( _* N) _
  19. Color space : YUV" f3 S8 a2 \1 P- ?1 ?: c
  20. Chroma subsampling : 4:2:01 A$ z% c! @* `& K; t
  21. Bit depth : 8 bits* I0 y2 j- T8 @& Z, t7 O2 ^8 @1 Q
  22. Scan type : Progressive, E( G! T3 S* h# K
  23. Bits/(Pixel*Frame) : 0.144
    $ e2 Z1 V$ M8 G# |5 ~
  24. Stream size : 1.84 GiB (92%)( V& C& k0 R' `% b7 |) Q
  25. Writing library : x264 core 148 r2717 0d2410d0 r- ?5 `& y# N: y( ^; d. x
  26. Encoding settings : cabac=1 / ref=3 / deblock=1:0:0 / analyse=0x1:0x111 / me=umh / subme=10 / psy=1 / psy_rd=1.00:0.00 / mixed_ref=1 / me_range=24 / chroma_me=1 / trellis=2 / 8x8dct=0 / cqm=0 / deadzone=21,11 / fast_pskip=1 / chroma_qp_offset=-2 / threads=6 / lookahead_threads=1 / sliced_threads=0 / nr=0 / decimate=1 / interlaced=0 / bluray_compat=0 / stitchable=1 / constrained_intra=0 / bframes=2 / b_pyramid=0 / b_adapt=2 / b_bias=0 / direct=3 / weightb=1 / open_gop=0 / weightp=2 / keyint=250 / keyint_min=23 / scenecut=0 / intra_refresh=0 / rc_lookahead=48 / rc=2pass / mbtree=1 / bitrate=7150 / ratetol=1.0 / qcomp=0.50 / qpmin=6 / qpmax=51 / qpstep=4 / cplxblur=20.0 / qblur=0.5 / vbv_maxrate=10725 / vbv_bufsize=14300 / nal_hrd=vbr / filler=0 / ip_ratio=1.40 / aq=1:1.00
    4 E$ G0 a6 Q1 e
  27. Default : Yes
    1 O: W$ s- `4 W/ z& S% j1 _
  28. Forced : No
    % X+ q9 m* T2 f/ k
  29. 1 c9 P- m& m( z5 c8 N
  30. Audio
    / }  R$ r. d; L& v. L6 r
  31. ID : 2' s/ @( i4 M$ q& G4 j
  32. Format : E-AC-3
    4 U/ i$ s9 P8 F# ?& J
  33. Format/Info : Enhanced AC-3
    1 L, p' k2 }  M/ S( @* y8 z
  34. Commercial name : Dolby Digital Plus
    ' p; p+ ~* T# z( R1 z
  35. Codec ID : A_EAC3( m( w! ^1 N: o  K
  36. Duration : 37 min 42 s4 F- ]8 [" B# B+ q
  37. Bit rate mode : Constant
    1 r$ c6 t1 N* a) H% N1 H( G8 V$ k
  38. Bit rate : 640 kb/s) w5 {0 t- y7 h2 |
  39. Channel(s) : 6 channels
    8 c  p5 I: k' {
  40. Channel layout : L R C LFE Ls Rs. I$ @) L% E; {3 [* L
  41. Sampling rate : 48.0 kHz4 ^' c! e0 U8 j, z' `1 c
  42. Frame rate : 31.250 FPS (1536 SPF), P/ A0 l4 y" ^* b
  43. Compression mode : Lossy0 \& v6 ~: v7 Y
  44. Stream size : 173 MiB (8%)' I- x3 u4 X5 T4 A$ J& [( ~
  45. Title : English
    ! v1 [7 s: A( @
  46. Language : English$ v; F( h- `+ D" x" v, g0 {
  47. Service kind : Complete Main/ ]$ k2 v5 v  R
  48. Default : Yes
    : ]% W8 ~: z& ]4 Y
  49. Forced : No7 V7 S9 ^4 A- e: w

  50. 5 e: ?( X6 U) b$ u  e
  51. Text #18 F; d6 F* g" k1 Q. f
  52. ID : 3
    ; _  P. W0 e) G
  53. Format : UTF-80 F7 L% u" c5 h6 R" c' Z
  54. Codec ID : S_TEXT/UTF8/ |  k8 n& ^! O' N) x. u
  55. Codec ID/Info : UTF-8 Plain Text  V6 g: i8 L9 X3 M. O
  56. Duration : 24 min 59 s- \+ p3 [/ {# B# P* v
  57. Bit rate : 0 b/s
    * a0 o! Q5 i4 n  R, H$ _& Z
  58. Count of elements : 3
    / o( b& E' m9 E5 V' j6 p$ @3 |* G$ G" O
  59. Stream size : 70.0 Bytes (0%)+ h* a; ~) ^( o5 F/ z1 y5 g
  60. Title : English [Forced]
    6 ~$ s' L; P3 C$ `# X$ R  @+ n8 s1 ^
  61. Language : English! {: z* I' M# L5 Z  S% e: v
  62. Default : No1 I8 H& m& r8 Y' ~. P( G
  63. Forced : Yes
    ; F" [* C, O1 ?) G

  64. ' t4 }' q; _6 N. o+ q' E7 n! A" M
  65. Text #2
      o) u6 n% J( ?8 i' Z" x3 M
  66. ID : 4' ?& I* o- ?# J$ _2 b
  67. Format : UTF-8
    ) p8 S  B7 R8 C/ @8 W, L$ m
  68. Codec ID : S_TEXT/UTF84 T8 v) A8 Q. ]! {6 B2 k$ l# t
  69. Codec ID/Info : UTF-8 Plain Text
    9 A/ {1 u8 b7 m7 m
  70. Duration : 36 min 7 s
    & j) l- {, k2 B& q$ _8 m  \9 l( Y
  71. Bit rate : 124 b/s8 s4 |$ q8 v% ?$ k6 ~$ B" j
  72. Count of elements : 850
    * K5 J/ D$ p+ z& y1 C9 Z# `
  73. Stream size : 33.0 KiB (0%)
    , U, G) B& U/ o/ K
  74. Title : English [Full]' G; k( I9 Q8 i3 J7 C
  75. Language : English- B, h4 t( A, G% f
  76. Default : No
    0 b- P+ d+ N# J# f1 `% K
  77. Forced : No( C, J5 |4 d8 C3 l7 A. A/ L  l
  78. / V6 v. Q+ R# q
  79. Text #3: Q/ [, O+ R) d" l' D* D' g/ f
  80. ID : 5
    & z# p( {, C. V( t3 [$ R( K- |
  81. Format : UTF-8
    * ^/ b5 x+ C" ?3 M& y
  82. Codec ID : S_TEXT/UTF8
    - t7 a' N1 [4 T8 Y
  83. Codec ID/Info : UTF-8 Plain Text
    ! ]. W) W/ S, f+ }( n" r
  84. Duration : 36 min 47 s, v6 p2 y, m$ ^7 |9 U- P5 |; m
  85. Bit rate : 108 b/s5 T: X  y, K! [% r4 ]: E0 G" F
  86. Count of elements : 773! n7 Q  [3 @1 K4 s; s/ Q
  87. Stream size : 29.1 KiB (0%)
    ) X1 i8 J% |8 K: n' {2 o8 F
  88. Title : Castilian [Full]. \6 o! \+ f5 j) d/ Z8 ^8 ~4 K
  89. Language : Spanish
    2 E/ O# J; W4 a+ u, T5 x6 W! O# {
  90. Default : No3 R: x! z2 C) }3 [' s
  91. Forced : No" N( U6 Q" C+ s* G$ t/ t1 v  f5 _- {
  92. , J: k* T! p$ I
  93. Text #4
    . I) [) E1 E0 Z5 y) I6 u' n6 W
  94. ID : 6
    ; q' M* `- t- s$ X/ X
  95. Format : UTF-8, c/ C; U3 @" |
  96. Codec ID : S_TEXT/UTF8% Z7 V0 b2 J- e" ]. B: v) [( k9 r
  97. Codec ID/Info : UTF-8 Plain Text
    5 _( q) E  Q5 {3 t0 d7 E
  98. Duration : 36 min 47 s& q# X2 h9 M( _& ?- ~5 c
  99. Bit rate : 106 b/s/ T1 r4 Z" T% y2 b' Z7 m5 l
  100. Count of elements : 767
    1 l1 Y3 E. M5 E: m, C: J
  101. Stream size : 28.7 KiB (0%)
    9 z* x& [0 t; S  G' k
  102. Title : Spanish [Full]
    ! O( L% {& H, ~6 @
  103. Language : Spanish
      C! {6 p: Q$ e9 ~
  104. Default : No0 \* D5 R$ Q  H0 G' P. M+ N% |
  105. Forced : No' h& w7 x- Y' M5 E

  106. 9 l6 E. U$ i. P' M
  107. Text #5
    # a5 y& @2 l' N4 Y7 A
  108. ID : 7. H. U3 ~# z1 w, Q  k9 w( F
  109. Format : UTF-8
    1 p  K0 w, o% }/ N! c& c4 z
  110. Codec ID : S_TEXT/UTF8
    2 y* z/ ?1 `: U" r$ S- e
  111. Codec ID/Info : UTF-8 Plain Text7 w' v) v) s" H% e4 k# @
  112. Duration : 36 min 47 s
    * c* d) _" h! `
  113. Bit rate : 106 b/s9 m( e; |$ j2 w8 H9 J8 S& X8 F+ P
  114. Count of elements : 760) E3 K) G, S5 t! k  z, N2 _
  115. Stream size : 28.7 KiB (0%)0 y1 A) j2 L; v& K+ m, s
  116. Title : French [Full]
    5 W" `) A( `3 Z' T7 v7 T" ~6 Z
  117. Language : French! z# M% H* Z  W
  118. Default : No( V1 ?% p! ]& Q' c8 j# q( Z! z
  119. Forced : No  U- O5 Y( Z. S
  120. 1 X( h0 {8 r  b) C7 H
  121. Text #6% i( i1 U2 A. y. l+ ?4 X
  122. ID : 8; e$ ]/ @7 V. n3 |5 q: x& U# t
  123. Format : UTF-8" d; Y3 Q) M$ i5 x" X# n8 c
  124. Codec ID : S_TEXT/UTF8. s, m3 u( G7 e' D, g! x
  125. Codec ID/Info : UTF-8 Plain Text2 x. |4 W2 H8 y$ A# w
  126. Duration : 36 min 46 s( ]8 X5 \  L6 h0 U0 Q
  127. Bit rate : 97 b/s1 {" Y. ^6 ^( |7 ~+ }1 {! w
  128. Count of elements : 704
    , _. Q* e% z5 L+ e, {$ k
  129. Stream size : 26.3 KiB (0%)
    / y  l. m% ^$ {, N3 C& @. p
  130. Title : German [Full]
    . ^0 t4 u+ K+ _9 ]- H
  131. Language : German% ^/ V, ]7 L6 o$ [4 X
  132. Default : No+ Q7 w2 ]; y) F, K% F- Z" B' o
  133. Forced : No( \! ~+ b, [  U8 P

  134. 5 P2 ]/ j( Q' [- N4 ^  G) J' y2 r
  135. Text #75 B; `3 N0 B  F# a8 c3 @6 V1 L
  136. ID : 9
    8 R% Q+ _6 y8 V% ?% ^% x; z
  137. Format : UTF-80 a! z9 [/ c/ l
  138. Codec ID : S_TEXT/UTF8
    , n0 n' L. ?% v4 n6 T
  139. Codec ID/Info : UTF-8 Plain Text
    : J3 |" G9 ?2 H* q
  140. Duration : 36 min 48 s
    $ k& l. [' [, |2 ~( J! J
  141. Bit rate : 101 b/s
    ; U9 ?) E* e7 G  M! I) g, K
  142. Count of elements : 759
    8 T5 n7 X/ j, s4 n
  143. Stream size : 27.4 KiB (0%)
    - {2 T0 I3 \! `8 {$ B
  144. Title : Italian [Full]
    3 {/ G8 }+ n. m! Y) v* a
  145. Language : Italian
    # O) y6 k/ I1 ^& r$ D# q: n
  146. Default : No
    5 H0 L& M9 Y& a3 |% @" Q
  147. Forced : No
    1 E6 S1 y! Y# o
  148. % \- X$ W2 ~9 j  z( i' G
  149. Text #8; ^$ A6 o  O9 j6 I) D& k+ m
  150. ID : 10
    9 A/ u  Z" P1 Q" `
  151. Format : UTF-8
    / m* g) w# ^0 z1 M8 _
  152. Codec ID : S_TEXT/UTF8
    4 x6 c- t: |* S; K8 E, l# |9 E$ k/ b
  153. Codec ID/Info : UTF-8 Plain Text' v3 B2 ~7 a/ b9 o
  154. Duration : 36 min 47 s
    7 o$ k; f8 Y" T5 f+ F
  155. Bit rate : 98 b/s( L9 n9 I1 S  f1 L, S. K& K
  156. Count of elements : 714
    # u  ?5 Z  T2 K% t; _
  157. Stream size : 26.6 KiB (0%)- D( S( V6 W3 }
  158. Title : Portuguese [Full]
    . c3 s- I! `4 C# j8 z' A
  159. Language : Portuguese
    ( m' {* x0 i' _* a+ ~- ?
  160. Default : No
    : x. y5 `6 b4 [$ I$ L
  161. Forced : No% G6 h1 r+ j6 s

  162. - d# Y6 g2 j" F
  163. Text #9; j7 M( n0 F4 [4 `+ z$ K
  164. ID : 11
    " u+ p  K' w; D7 n8 S
  165. Format : UTF-85 s4 w1 Q, h; L; ~: A" x  K, j9 c
  166. Codec ID : S_TEXT/UTF8
    / b! z3 T" h  Q
  167. Codec ID/Info : UTF-8 Plain Text
    ; }2 |5 E- A+ J% K) s2 D: k
  168. Duration : 36 min 48 s
    7 v- O6 B8 m- D" d
  169. Bit rate : 103 b/s
    / i9 ^/ _0 g- N5 x1 Z) x5 i
  170. Count of elements : 767' C8 D7 m9 x% v. u
  171. Stream size : 28.0 KiB (0%)) ^" ~' \1 w. r
  172. Title : Brazilian Portuguese [Full]
    ; [( p* Z' Y7 r& f3 f8 I
  173. Language : Portuguese: r# u- z" q* Z! ?# }
  174. Default : No
    1 Z2 ?- A, y1 R2 Q
  175. Forced : No3 x: ?' S* {. x0 S% b
  176. - R5 t+ p7 J& ]# P* \4 M5 h8 a  P, G
  177. Text #10( B8 m5 f+ c( O3 U( }
  178. ID : 12
    ' l+ b5 ?( p3 t. E) e2 B
  179. Format : UTF-8" U/ y& j' ^7 p" r
  180. Codec ID : S_TEXT/UTF8$ U$ K- v) {/ A- \; E* M# M3 s
  181. Codec ID/Info : UTF-8 Plain Text
    : q+ }! t: \0 `; X$ q( N
  182. Duration : 36 min 48 s( f9 T6 n3 E  d2 [3 S% k8 |
  183. Bit rate : 92 b/s4 x, a& T+ G: [# n
  184. Count of elements : 748% h1 g& }" b- I  A! x
  185. Stream size : 24.9 KiB (0%)& s) h7 P) J: J" F) F9 E! C8 e
  186. Title : Polish [Full]
    8 F. T' l* _+ Q8 V
  187. Language : Polish5 e5 E! P3 P* [) p
  188. Default : No
    0 Z% g3 }. T' e( Q/ o  B2 C
  189. Forced : No# @5 s. N, I! X/ w8 [

  190. + z. x' W9 u. y% U, z
  191. Text #11) X: U  G" v8 E" B
  192. ID : 13" F, E6 _1 o$ Y* }8 s
  193. Format : UTF-8
    ! b; G5 y, o4 ^! x& k
  194. Codec ID : S_TEXT/UTF8
    * P8 H9 P3 z. ^# F
  195. Codec ID/Info : UTF-8 Plain Text
    ! c7 R* F3 n) p+ N7 j
  196. Duration : 36 min 47 s
    ; K4 a1 q7 h8 Q2 D
  197. Bit rate : 104 b/s
    : i3 @: |# N% s1 ]1 w& ?
  198. Count of elements : 749, j7 c2 X5 a* y8 z, _3 p3 q
  199. Stream size : 28.3 KiB (0%)
    ) w; N: }3 P3 t( a) g& a6 Y# X
  200. Title : Turkish [Full]
    $ ]+ r- U7 _( z" ?
  201. Language : Turkish
    ) [  c) E: Q! m8 D8 _0 d
  202. Default : No, h8 U$ D- u) ]! p% E9 V
  203. Forced : No, H0 M" [3 m9 }! a$ q" m: g; d
  204. : W4 }3 |. U2 \5 ?
  205. Text #129 ~5 \. D- y% x, S0 o3 L* p
  206. ID : 14- c! V+ W' Y% }! d& ^
  207. Format : UTF-8
    8 [- z2 h( g8 Z1 w3 E6 J5 H7 N
  208. Codec ID : S_TEXT/UTF8: ?, W) e* T  F3 R2 g; A
  209. Codec ID/Info : UTF-8 Plain Text9 V1 E, K! }2 g# H- |3 a& @4 R
  210. Duration : 36 min 47 s
    9 ?# \8 ?  z9 _7 r4 B
  211. Bit rate : 101 b/s
    8 W) t1 K- j# j$ s2 }8 r4 J
  212. Count of elements : 770
    0 l7 J& P! H. N3 {
  213. Stream size : 27.3 KiB (0%)- r" M9 F6 d$ B5 e5 Y1 \8 P, U" x
  214. Title : Swedish [Full]
    . p' w/ S$ j: X# g- |: V
  215. Language : Swedish: F: x3 X, }# {' \" h4 [5 P7 G" ^
  216. Default : No
    1 f  z# K* b8 F" f& y" Z
  217. Forced : No
    % @: b+ e" l8 k: u7 d

  218. + h' u7 F( C  N+ `1 I6 X
  219. Text #13
    0 y; `3 \8 D& O: T3 I' N
  220. ID : 159 ^. [5 }, y" b+ D
  221. Format : UTF-81 j# l! B( D. I2 j7 G9 D% |9 p
  222. Codec ID : S_TEXT/UTF89 ]2 a: d; J# p6 x
  223. Codec ID/Info : UTF-8 Plain Text
    ) g: ]/ t3 }) g4 U# G5 o9 n' c; J
  224. Duration : 36 min 48 s7 t# K& M( C/ c, e
  225. Bit rate : 91 b/s
    ' ]4 G4 g9 v% W
  226. Count of elements : 698
    2 W4 w3 h* Q: H
  227. Stream size : 24.6 KiB (0%)
    " \4 f4 ~* T# I! X
  228. Title : Danish [Full]  l2 W& `# T1 J& H8 a! b
  229. Language : Danish0 n9 e& W; l9 l6 x% p
  230. Default : No% z* r9 {! V! k( b
  231. Forced : No! x- I# t" T9 {) {3 W
  232. + W/ {- ]- u/ Y2 |* I* E6 w" R
  233. Text #14
    6 L" b5 [" Z7 |& S2 q1 `
  234. ID : 16- r: t% V  _8 b5 O7 q4 K
  235. Format : UTF-80 @/ N0 l& }( N. U$ T
  236. Codec ID : S_TEXT/UTF8
    5 J1 g% ?/ Q5 S0 B8 o8 l$ v
  237. Codec ID/Info : UTF-8 Plain Text
    5 Q. G  @) S- b, t. |# [. B" ]- ~; y
  238. Duration : 36 min 47 s
    : A: K5 S+ \& T4 P( H
  239. Bit rate : 94 b/s8 `6 ?! m( y5 M
  240. Count of elements : 632
    $ w9 r; f9 a$ s1 D  m
  241. Stream size : 25.4 KiB (0%)
    8 f9 n( J- i  X! R
  242. Title : Finnish [Full]
    ' e8 B+ S5 |4 M8 b2 f, o: l
  243. Language : Finnish
    * D( y# m& E+ Y
  244. Default : No
    . j/ a* B$ ~* |4 H; ^/ y* j
  245. Forced : No# ^) S& p: U7 @. n; K" \6 f/ g* v
  246. 4 K% X) z2 U. F3 w$ r
  247. Text #15
    ) p4 n7 E$ n) t% e) m: R; s+ q
  248. ID : 17) J" n- y8 J: V$ L& b+ I9 U
  249. Format : UTF-8. v. r* k+ ]5 a) b- P3 V
  250. Codec ID : S_TEXT/UTF8- g" a* I9 O* M& Z6 v/ B0 E
  251. Codec ID/Info : UTF-8 Plain Text8 L) V0 [9 {. r( {
  252. Duration : 36 min 50 s
    $ M- T' ^1 D+ a4 y' l) a
  253. Bit rate : 86 b/s
    / K/ O+ `% G$ V0 l7 ^9 s
  254. Count of elements : 7229 ?/ G; F/ r, o
  255. Stream size : 23.2 KiB (0%)3 @( U4 U) r5 Z
  256. Title : Dutch [Full]9 W' w7 b) U' A( ^
  257. Language : Dutch
    . E; N6 }9 }- n, Z& ?; Y
  258. Default : No5 {0 y& `3 K7 y/ f6 ]) I
  259. Forced : No
    2 o+ V/ o/ C' }$ w3 h
  260. $ T+ v5 v! ]  u, U  |
  261. Text #16
    9 ?" c. B! }1 h0 v! c
  262. ID : 18& w8 V  |7 J8 Q5 t
  263. Format : UTF-8
    : F/ u1 |0 J8 h' g; L
  264. Codec ID : S_TEXT/UTF81 B& d/ @7 Q' {' s+ t
  265. Codec ID/Info : UTF-8 Plain Text" ]: N/ E% [" z4 |. m- R
  266. Duration : 36 min 48 s
    $ L( d" S3 y+ x* i) j
  267. Bit rate : 92 b/s
    7 |; d8 W" U; j
  268. Count of elements : 632
    9 U& {6 `* b) {  a; Q3 h
  269. Stream size : 25.0 KiB (0%)& U) r( {/ C) f4 ^) I
  270. Title : Norwegian [Full]/ \8 T5 X* Y7 @6 c
  271. Language : Norwegian
    5 I( [3 G$ m, W, V% ^$ q, X
  272. Default : No) S2 \- @' ~) e: K' a
  273. Forced : No
    & z3 c/ }# P8 C% Z

  274. 8 ?$ }7 v% \) l' D
  275. Text #17
    7 C' V7 o9 `8 h, Z
  276. ID : 19
    - m) c: D5 p7 C: W3 B- b5 m
  277. Format : UTF-8
    * P# D6 w( F$ [: K
  278. Codec ID : S_TEXT/UTF8, j! z, t( A! @7 Z" J
  279. Codec ID/Info : UTF-8 Plain Text3 I9 x- M. c# g3 ]& \* w  a
  280. Duration : 36 min 48 s
    ! X2 E) H+ k' G% X
  281. Bit rate : 145 b/s
    ) G5 S( N9 u& p: @. b3 n
  282. Count of elements : 733  N6 t+ S, h# i" a
  283. Stream size : 39.4 KiB (0%)! U8 V$ r9 e+ n3 Q' P& I
  284. Title : Russian [Full]
    7 H, g4 b: E: e4 E6 x1 S, D
  285. Language : Russian2 S4 t/ \4 ], J: M
  286. Default : No
    - |6 K" O. c4 m
  287. Forced : No- ~- m1 w& w1 Q. j; ^9 b

  288. % z2 \& D" O5 R
  289. Text #18
    6 V# y$ f  M6 H3 F; ^3 f, Q
  290. ID : 20
    8 D: k& q6 R4 I6 L) N
  291. Format : UTF-8
    ( }1 G4 K6 R- ^" ~7 U
  292. Codec ID : S_TEXT/UTF8+ N( E' b7 Z" a" w& i" q3 Z
  293. Codec ID/Info : UTF-8 Plain Text
    4 f, E+ m' }2 l' a4 \, E* f
  294. Duration : 36 min 53 s- P1 l, D2 ^3 M* B* B0 A& I
  295. Bit rate : 100 b/s
    3 S3 Y& W% L# o6 X. \# d0 N1 }
  296. Count of elements : 779' C7 |6 Q) |2 d* [
  297. Stream size : 27.1 KiB (0%)
    " [& Y8 p6 D" b5 b* ^, T3 x1 N; Z7 Y( v
  298. Title : Hungarian [Full]% I8 v' \% O- v
  299. Language : Hungarian1 @: R# Q6 g# @, J
  300. Default : No' [- U% _9 {3 o
  301. Forced : No, b' z" C/ M# E! L: L; Z

  302. ; j2 k0 {7 W5 A0 |- f8 \: U6 K8 s" F
  303. Text #19
    % L; k6 h/ {1 K2 U, W
  304. ID : 21
    8 B: U; K# u% I' s# ~; L5 B
  305. Format : UTF-8
    1 I1 j4 x& g5 X: W
  306. Codec ID : S_TEXT/UTF80 d6 Z: k9 W: |  f0 s
  307. Codec ID/Info : UTF-8 Plain Text. G1 u0 k, ?: K1 o% G
  308. Duration : 36 min 47 s+ h. B4 \: d2 ^2 ~
  309. Bit rate : 162 b/s
    + b6 @6 \" o# f& b
  310. Count of elements : 778
    : D3 W& W% x1 [! w! _
  311. Stream size : 43.9 KiB (0%)
    , j( W+ R5 ?4 ~8 a6 ]. {
  312. Title : Greek [Full]! N$ }: b/ z6 ~: a
  313. Language : Greek& e" C% T& i# k+ Y% j+ Y  `* B
  314. Default : No
    ) e; F7 \( K0 u. g' C
  315. Forced : No: e/ Z0 l, X1 e; [* w2 p4 n

  316. $ S5 c/ P" d; `' P' f2 M
  317. Text #20  O( x% ?$ S0 R6 ]2 R1 J. v* w, |
  318. ID : 22
    7 _! ?7 C9 |. O) X  x
  319. Format : UTF-89 y( a! [/ d, [2 P
  320. Codec ID : S_TEXT/UTF8
    # u  a! U4 ~6 Q4 j( U9 Q& A, R
  321. Codec ID/Info : UTF-8 Plain Text* p! k7 t. [8 ^$ {: ^2 L
  322. Duration : 36 min 51 s
    ! L+ g7 G5 x% d! b+ L9 o
  323. Bit rate : 142 b/s
    $ l+ ^1 J* Q% y: p) [9 V
  324. Count of elements : 729
    % l- b. S$ c& ~& D6 U9 w
  325. Stream size : 38.6 KiB (0%)
    # K  Q3 V7 y- Q+ R! I( t% X1 R
  326. Title : Hebrew [Full]
    - L% e  O# `+ d; p& S2 T2 B0 i
  327. Language : Hebrew
      @' c4 W0 {0 u) e5 d% ]( t
  328. Default : No
    ; U$ c5 J9 V! f; m6 o3 {; N
  329. Forced : No
    4 P6 G4 N, l% a  ]

  330. 6 u' g' a. j, q/ z- _* f( J  v3 k
  331. Text #21. K0 q& v% Y" \4 e( d2 r) k
  332. ID : 234 Q: d+ I0 g8 j/ z; s. D0 M' A7 n
  333. Format : UTF-8/ h! c1 ]$ z9 p: H3 W
  334. Codec ID : S_TEXT/UTF8  V7 ~& G8 a- i  M# ]- ~
  335. Codec ID/Info : UTF-8 Plain Text
    - A( [0 u8 R. Y& O' ?/ [0 n
  336. Duration : 36 min 47 s
    6 S/ r- Y* {9 d" t3 b
  337. Bit rate : 167 b/s/ H2 E/ `) T$ [8 f& v7 q
  338. Count of elements : 748
    / ]% O: J1 E0 k9 I  I6 r
  339. Stream size : 45.3 KiB (0%)  r( [# t' b# K; F  Z9 ?
  340. Title : Arabic [Full]( B3 y/ R4 y! t( Q
  341. Language : Arabic% D" V- }: U/ E; g  g
  342. Default : No! x4 }2 w% W. u1 ]) y* t: E4 K
  343. Forced : No# ]+ X/ v3 e$ c7 Z- v- G6 s% J6 F
  344. 4 H/ ]2 U) k4 [( @, A+ q: o
  345. Text #22
    - i  p" C: D0 V. ]* b3 u1 @# R5 I
  346. ID : 24
    - S% U$ Y0 ^3 ^$ h* b* c
  347. Format : UTF-88 q+ T& l$ x) y% W
  348. Codec ID : S_TEXT/UTF8
    * F( J3 C* P1 K( f" _! n
  349. Codec ID/Info : UTF-8 Plain Text
    % j- f/ j7 ^* Y" ^5 ~3 n
  350. Duration : 36 min 47 s
    / |* `& Y4 W: d+ B
  351. Bit rate : 107 b/s
    $ y# e$ g9 w: f# n6 @6 e" d
  352. Count of elements : 7770 e' ?5 B7 [7 N5 p
  353. Stream size : 29.1 KiB (0%)- l7 t7 Z% K4 o
  354. Title : Romanian [Full]
    ' c4 k2 A* T8 f+ b& n: M4 e. l
  355. Language : Romanian6 m1 F7 ]  \$ I) ^1 t2 F
  356. Default : No5 }* L1 X5 E( ~0 @0 {5 s
  357. Forced : No
    0 {' C$ `& A, q+ @- r2 g( W

  358. 8 A7 p$ e7 S7 i( M8 C9 ]' E- t4 C
  359. Text #23* P; Y/ X6 W) E8 D$ M2 W
  360. ID : 25/ I- `1 ~7 }8 c5 U( U
  361. Format : UTF-84 y6 V# `1 v8 w7 o' E
  362. Codec ID : S_TEXT/UTF8. Y: j7 |, g$ K; }% v
  363. Codec ID/Info : UTF-8 Plain Text0 }; @7 c: q" q
  364. Duration : 36 min 48 s) D! b6 ]- }' ^
  365. Bit rate : 101 b/s
    ; ~- S, e% J% h; v' ^
  366. Count of elements : 717
    : x8 l1 A. P. Q
  367. Stream size : 27.3 KiB (0%)
    / {1 S  X& }/ q  ]
  368. Title : Czech [Full]
    % K! I& d  _" K4 |7 i' o5 e+ m
  369. Language : Czech4 }* n' W' ?  g( f; ^4 b
  370. Default : No
    0 g: m- Y) p4 F9 r
  371. Forced : No
    % ^, r) U. o' l8 q9 k& I

  372. , v" k" x8 g" l8 ~+ @. ?; D
  373. Text #24
    - `0 a! K" |9 |- N
  374. ID : 26
    3 ?! H0 i& g, }) h/ L4 Y7 A4 N6 N
  375. Format : UTF-8# H! e" T  B! w5 g0 a# A! z( v
  376. Codec ID : S_TEXT/UTF8) y) j) A$ p; N
  377. Codec ID/Info : UTF-8 Plain Text2 |1 [2 }1 ]( V+ h5 F* y
  378. Duration : 36 min 48 s* [" d% x3 |. b  p
  379. Bit rate : 106 b/s
    ! x5 d% j$ j7 Z8 G
  380. Count of elements : 780
    & ]' W( |& H# J/ |1 l& F8 c. {% G& B
  381. Stream size : 28.7 KiB (0%)
    1 X2 B) E( Y* L8 N0 W, {
  382. Title : Indonesian [Full]) S+ Q6 `" w" j" a8 V1 E, A- b
  383. Language : Indonesian
    - x1 G7 f" \! R
  384. Default : No4 X  Q1 D" b$ O
  385. Forced : No! k. G, ?" w) l  Z7 T

  386. - m4 R- y; A3 K0 P. ^
  387. Text #25! h' H1 E/ k. [( p  E: }& p- y! `" C
  388. ID : 27
    7 |" i8 x! i6 h2 r5 V! v
  389. Format : UTF-8" D$ r$ v; N) q- q0 p3 B/ U
  390. Codec ID : S_TEXT/UTF8
    3 Y6 g, R$ c6 T$ Z& m3 {
  391. Codec ID/Info : UTF-8 Plain Text
    + @, F% I: Q, m; s+ L& A; z
  392. Duration : 36 min 47 s
    * k. `, V3 f$ s- r: u/ m! D
  393. Bit rate : 137 b/s
    , h. n9 V9 z( z% ?' m+ F0 w
  394. Count of elements : 762
    + q5 {$ F- }! c6 s5 C1 H
  395. Stream size : 37.0 KiB (0%)
    . l& b  S1 S9 m/ j3 M$ [
  396. Title : Vietnamese [Full]' R* c( e6 l; N. A
  397. Language : Vietnamese
    6 B! @4 d4 {: d9 X- q. K
  398. Default : No
    % [) l7 v4 u1 C6 L4 |
  399. Forced : No3 L4 Z% ?1 l& @% Y; {- o
  400. ) e) r3 t: n; T5 p1 [  }5 h! A
  401. Text #26: R1 G* A5 I* K/ F) C+ `0 `
  402. ID : 284 l3 [' J( \' P
  403. Format : UTF-8
    5 z  l# i$ e0 s+ a2 M5 n! u5 G
  404. Codec ID : S_TEXT/UTF8  N' i' ], I# ^  h
  405. Codec ID/Info : UTF-8 Plain Text7 H" _4 l( B. u" u( {% d# p
  406. Duration : 36 min 47 s
    ' O% H# E: l0 c$ A7 e1 z
  407. Bit rate : 247 b/s5 J( d6 s+ k/ X/ q; H. j( O7 {+ x
  408. Count of elements : 776
    % w8 i8 N3 i; i, ?8 n9 l5 J2 g
  409. Stream size : 66.6 KiB (0%)
    + J4 M0 h* E) m4 T" Q
  410. Title : Thai [Full]% _" E6 h3 R6 }/ j. a, ~
  411. Language : Thai
    ! N* @7 P* A0 P: ~
  412. Default : No% C( ?8 I7 d. `) t
  413. Forced : No
    ! I* b; \; c. V- d4 j! M8 M

  414. 1 x& E5 V) Z- x- x3 V4 n
  415. Text #276 N: `3 w. K* Q0 T8 p5 N
  416. ID : 29+ s& V1 q4 c3 Y- s3 a) ?0 J
  417. Format : UTF-8% G* u) _( N) Z" J
  418. Codec ID : S_TEXT/UTF8
    . W, p$ c7 G6 \) p
  419. Codec ID/Info : UTF-8 Plain Text, [- p8 ?  Q/ k+ u- U; O; t
  420. Duration : 36 min 50 s3 i- q% f) }9 ]7 X2 l
  421. Bit rate : 115 b/s6 i: c, x5 [  Z4 ?: e
  422. Count of elements : 778) F  {: \0 I6 [; a  t6 h! H2 }! Q, q
  423. Stream size : 31.1 KiB (0%)" E/ X) ^) ^3 T5 t. y0 Q4 c. e
  424. Title : Korean [Full]
    ! f  f6 y/ @* `) A/ Q
  425. Language : Korean
    ; `+ E) Y% O0 v& |4 U" Y, _3 y
  426. Default : No3 A$ Z4 }" T% P! C
  427. Forced : No
    5 L$ n, c1 H; y4 E7 E8 \+ c, L# `8 O
  428. 9 E8 ]7 ~4 e2 C- ?  x$ d& x: [. M
  429. Text #286 |! e$ T& t4 [/ g
  430. ID : 30, x) T* H; o/ v- O  l
  431. Format : UTF-8  M) N% Z8 v+ f8 X5 `
  432. Codec ID : S_TEXT/UTF83 q; L& p5 @7 I+ s$ \: Z
  433. Codec ID/Info : UTF-8 Plain Text- h5 w0 c4 P, Y) i
  434. Duration : 36 min 47 s
    " q3 d6 l1 A: A) F
  435. Bit rate : 85 b/s
    , ?- M# z* s# h* k# u
  436. Count of elements : 776
    & d" J6 ^/ c; ?( |
  437. Stream size : 23.1 KiB (0%)- g2 p2 N6 [+ Q, \! r( l
  438. Title : Chinese (Simplified) [Full]7 P  R2 D. m! N* t% [2 j; ~
  439. Language : Chinese
    & b. Q0 v5 j( G& a/ F/ ^1 R1 P$ D
  440. Default : No
    : ?; _0 l; y$ X9 w# }) x3 `  @
  441. Forced : No0 C! |9 X) D0 C3 v) l
  442. ( u  V8 c& |9 N2 ]
  443. Text #29) ?0 _- x  y  Z6 @" O$ ~
  444. ID : 31
    " q' S6 Z, y0 `: r+ `
  445. Format : UTF-86 D; J9 E7 |& [1 S: r% ]
  446. Codec ID : S_TEXT/UTF8& v0 l$ n+ s* H& n0 U. k! H
  447. Codec ID/Info : UTF-8 Plain Text
    % R% h9 Q  g7 U' Z/ F, K5 h
  448. Duration : 36 min 47 s5 Y* V! L% u5 R% C% l
  449. Bit rate : 88 b/s
    9 [( J* y( z6 r4 n2 X$ T
  450. Count of elements : 779
    7 {' [6 G8 H0 i$ w9 x7 N
  451. Stream size : 23.8 KiB (0%)
    2 J" c& S# P' ^3 l& V
  452. Title : Chinese (Traditional) [Full]: @% ^  L' _% G3 [$ U0 t9 L
  453. Language : Chinese
    9 q, {& y( [6 G: b: G2 L
  454. Default : No
    - L8 @9 E2 `- k
  455. Forced : No
    ' s/ c6 d# I. F) {& R7 T

  456. : G+ y! a) t! a, i- ]
  457. Text #30
    + }6 X. t% o+ [1 N: d8 |+ j" z6 }
  458. ID : 32
    ' v, _. r7 D5 S! ^% _/ D$ {' e/ ^: f
  459. Format : UTF-8
    : P7 `# j4 _% y5 c0 t1 Z1 e
  460. Codec ID : S_TEXT/UTF8, X, b3 D( t$ N/ H8 m& t7 {
  461. Codec ID/Info : UTF-8 Plain Text9 {; t& U0 U, j  {. p. ^; x) \* e
  462. Duration : 36 min 47 s
    ' X; D7 d5 ?9 U. z6 h# y2 P7 S
  463. Bit rate : 105 b/s
    + g: I* e7 X+ ]
  464. Count of elements : 8238 \) H( B* u, }9 q  L4 Q
  465. Stream size : 28.4 KiB (0%)0 y5 i/ j, r' A, p6 ~
  466. Title : Japanese [Full]* {3 f- F0 b$ [* c+ P( P1 V
  467. Language : Japanese
    ( j5 l/ D% d7 @1 `" ^  ~8 _
  468. Default : No- M/ t$ h/ m3 i' Q* {' t% p
  469. Forced : No
复制代码

$ Q6 _' U( W4 |5 Z* ]& d. J
. N3 I/ n4 f- A3 r8 ^% |8 s. M2 |' F3 R* E; j, L: t7 ~

3 X- h; \0 A6 g8 i' s7 I9 B  `
8 d0 O, y5 ]1 \0 p) }& Y
! b# ]$ g; b: A3 K7 r) ]
游客,如果您要查看本帖隐藏内容请回复  VIP可免回复查看隐藏内容 详情请点击
发表于 2020-3-16 00:14:00 | 显示全部楼层
多谢楼主分享!
发表于 2020-3-16 05:23:21 | 显示全部楼层
谢谢楼主分享
发表于 2020-3-16 07:00:16 | 显示全部楼层
又可以看美国综艺,谢谢楼主分享。
发表于 2020-3-17 07:32:21 | 显示全部楼层
这个,不是蓝光啊,那先谢谢楼主了
发表于 2020-4-2 08:41:01 | 显示全部楼层
" r5 M" t5 g5 x7 {% P
多谢楼主分享
发表于 2020-4-2 09:44:54 | 显示全部楼层
感谢楼主分享
发表于 2020-4-28 21:21:57 | 显示全部楼层
感谢分享美国真人秀节目!
发表于 2020-5-9 17:54:40 | 显示全部楼层
一直追看这类型节目辛苦哂
您需要登录后才可以回帖 登录 | 立即注册

本版积分规则

QQ|封号公示|手机版|有问题发邮件到admin#(换成@)hd1tj.org|微博|免责申明|HD一条街

GMT+8, 2020-7-7 06:40

快速回复 返回顶部 返回列表