HD一条街

 找回密码
 立即注册
搜索
查看: 1112|回复: 22

[1080i] 机智牢房生活 全16集[自带中文英文多国字幕]Prison.Playbook.S01.KOREAN.1080p.NF.WEBRip.DDP2.0.x264-ARiN 30.96G

[复制链接]
发表于 2020-3-1 15:26:58 | 显示全部楼层 |阅读模式

马上注册,结交更多好友,享用更多功能,让你轻松玩转社区。

您需要 登录 才可以下载或查看,没有帐号?立即注册

x

% p  B( Z1 U1 y  O8 i                               
登录/注册后可看大图

: Q/ ^  k1 @8 v' B
% r8 f/ \! Q% I6 n◎译  名 机智牢房生活 / Prison Playbook / Wise Prison Life / 智慧的监狱生活 / 机智的监狱生活 / 监狱 / 监狱手记 (港)" `" ^, A( P3 T6 }; D) Z
◎片  名 슬기로운 감빵생활
& v! v7 E  g' q6 Q5 d◎年  代 20177 J( U) C7 U. k* `; G5 v% |2 ~
◎产  地 韩国4 c: u0 D9 w+ {6 D( u
◎类  别 剧情 / 喜剧0 r( n7 C1 `2 E+ b3 G( h5 O+ b
◎语  言 韩语
; u/ \7 u" P1 e7 p( I6 W  X◎上映日期 2017-11-22(韩国)! [* x1 f1 I8 h( W# m* M% V5 V
◎IMDb评分  8.3/10 from 844 users
3 s# |1 B7 |3 E1 @7 Q( j! w◎IMDb链接  https://www.imdb.com/title/tt7622902: K- h: x. {- M" |
◎豆瓣评分 9.4/10 from 94716 users
7 h6 R% S2 H0 ^) o0 T5 t! q% S◎豆瓣链接 https://movie.douban.com/subject/27081753/1 \7 P$ C5 p$ }( b
◎集  数 16
* t# _$ K* Z: M◎片  长 90分钟
- p$ Q+ U" r6 M! p& z7 m8 O# `◎导  演 申源浩 Won-Ho Shin& {' q5 x- t; ^6 {' F# {3 y
◎编  剧 郑宝勋
$ i* j8 n/ I, b9 G$ ?& F3 _◎主  演 朴海秀 Hae-soo Park
6 |3 S" h5 ]. F( D! [       郑京浩 Kyeong-ho Jeong3 y9 a5 `. v, ?, V  K
       郑秀晶 Krystal Jung$ `7 a5 z# g- x+ C( P7 K0 P
       林华映 Lim Hwa-yeong
# E# j1 e) `, H       丁海寅 Hae-In Jung6 E: p5 F8 C7 ^
       郑雄仁 Woong-in Jeong! ~- `2 Y7 D; E: s
       金成哲 Song-chol Kim
' g4 Z7 ~3 p5 Z       李圭亨 Kyu-hyung Lee& ?) ?. _$ [" b1 w3 W+ P  ~
       郑敏圣 Min-sung Jung) n, s' J/ X1 ]1 b" C8 m
       朴浩山 Park Ho-san
2 S6 g; g+ E" R4 Y       姜昇润 Seung-yoon Kang' ]4 A! H1 v# a& M
       金景南 Kyeong-nam Kim; i* t9 x" g; G. u9 U+ E! v) T* m
       崔武成 Moo-seong Choi
* Y# ~2 m) _/ t! |       崔胜元 Seung-won Choi
1 d) v( Z' H; @7 M$ K       成东日 Dong-il Sung
& |4 d% O2 ]8 v+ @9 L3 Q8 \       金漢鐘 Kim Han-jong
7 S( ]9 W/ L5 P3 g, a  n* c- [8 ~       周锡泰 Joo Suk-tae5 h; [5 |2 l- R2 Z- p  A
       姜基棟 Kang Ki-doong" D5 D# [/ a# [( I( S* o
       朴亨洙 Park Hyoung-soo
/ i+ O  @8 Z) ]0 k2 k8 h       李道謙 Lee Do-gyeom1 o2 _7 o% I- j! {3 N
       申在河 Shin Jae ha4 D  S$ H; Y! I/ s
       廉惠兰 Yum Hye-ran0 i7 X% I6 J+ r# a
       林哲亨 Lim Chul-hyung* p5 v6 V3 M2 T5 `3 g2 s
       芮秀貞 Ye Soo-jung/ M, Y" ]- ~& Q) p) d
       李浩哲 Lee Ho-cheol
5 N4 T& V' l6 E* e9 b       刘在明 Jae-myung Yoo9 B. p# l  A+ D( _
       申邻雅 Rin-Ah Shin, A' |* J! L& l  P
       崔光日 Choi Kwang-il7 Q2 \4 O- A5 n" |
       张赫镇 Jang Hyeok-jin, @8 |6 C% q% D) J: }/ T) |( s  b
       金基楠 Kim Gi-nam
; O  Y: F% C" V! O- I% o: D+ C       李太善 Lee Tae-seon
# @+ T4 w! N+ N( i& h6 w0 ]       徐志焄 Ji-Hoon Seo) b* W# m9 a3 K. |$ a
& o( H' @) c& ^$ `

4 d6 t8 `; _: s◎标  签 韩剧 | 黑色幽默 | 监狱 | 韩国 | tvN | 喜剧 | 搞笑 | 电视剧
; D4 B1 S; w. e* A7 b* J: h4 v1 g+ s1 ]" Z0 G
◎简  介  ; O5 j9 C+ o- b9 z

+ O- d- o7 o3 U2 l6 N* W$ D  该剧是讲述超级巨星棒球选手金济赫一夜之间变成阶下囚,以及监狱里的人们的生活的黑色喜剧,3 C4 h* v# d0 z7 K6 f0 }
  该剧内容以监狱为背景,通过犯人、监狱管教、家属等角色展现各自的独特个性和存在感,展现给大家监狱这个特殊背景下并不沉重的故事。* J, U) i) {8 y. J

, y. X) j4 R' E7 A/ f# h! y% _* I◎获奖情况  # B5 T; M3 J- F

+ B5 X! Z! v+ M$ e: r+ ~6 o  第54届百想艺术大赏(2018)6 [* Y, a. j: C
  电视类 最佳导演(提名) 申源浩; N# v- n+ F0 n. n7 H
  电视类 最佳男配角 朴浩山
8 g: w& l1 x( v4 {; w1 z  k9 M  电视类 最佳新人男演员(提名) 朴海秀
7 s6 J9 c& V5 u9 \: o) {/ J  g3 _  电视类 最佳剧本(提名) 郑宝勋+ t: X- K) I* w* v6 c+ j0 L
  电视类 最佳人气男演员 丁海寅
' D) P: q! X: s* D5 l! f$ [
2 K% u  V# s9 n  第4届豆瓣电影年度榜单(2017)
: c! k/ o, F" E& O' e  评分最高的韩剧(提名)
  1. Video; B, T4 J0 W, L% {) E9 L
  2. ID : 1
    * W, y$ \( _, r" }
  3. Format : AVC
    " {, }. f6 J" z
  4. Format/Info : Advanced Video Codec
    / X& f, B& v1 K# c
  5. Format profile : Main@L4( B# g. g$ |  ]2 E* B$ K
  6. Format settings : CABAC / 3 Ref Frames6 T2 M+ p, _" p, |  p5 n- y# j
  7. Format settings, CABAC : Yes
    7 ?: s8 I, T4 w# f( g
  8. Format settings, Reference frames : 3 frames
    - m& P) Q' D4 i0 F; L! m
  9. Codec ID : V_MPEG4/ISO/AVC
    8 G0 B$ d+ s4 l/ y6 H
  10. Duration : 1 h 33 min
    ! K- g; h1 k" H& n
  11. Bit rate mode : Variable# k' x& H$ y7 j8 i# e6 m) c
  12. Bit rate : 4 220 kb/s
    + e3 w  M) z3 x4 @' t
  13. Maximum bit rate : 6 330 kb/s7 K, q. B( y9 ~) q8 Y& v% Z2 T& w6 B
  14. Width : 1 920 pixels- X. e; J: i' |4 i  g8 ?* y
  15. Height : 1 080 pixels: ?* `+ R+ O- H/ y/ w
  16. Display aspect ratio : 16:9
    # f) _" E+ B# \' l1 G& q7 l
  17. Frame rate mode : Constant( W1 X' e7 d; x' g3 E6 \
  18. Frame rate : 23.976 (24000/1001) FPS6 o- W6 Y8 c5 ~) U) S& \# g
  19. Color space : YUV
    3 w! I* {5 p  k. R* t. M7 I, @+ @
  20. Chroma subsampling : 4:2:0; G6 e+ B* R& K- T8 U
  21. Bit depth : 8 bits
    # f% `) b- i. O
  22. Scan type : Progressive
    % Z1 v2 w* H! p1 {; Q; C
  23. Bits/(Pixel*Frame) : 0.085
    " u, k$ W3 t2 j; e" h' u! W4 ?
  24. Stream size : 2.74 GiB (97%)/ m4 t% Z9 B  d  V4 _4 {; V
  25. Writing library : x264 core 148 r2714 2daf636
    7 T: G- x: p# y4 q, f( Y
  26. Encoding settings : cabac=1 / ref=3 / deblock=1:0:0 / analyse=0x1:0x111 / me=umh / subme=10 / psy=1 / psy_rd=1.00:0.00 / mixed_ref=1 / me_range=24 / chroma_me=1 / trellis=2 / 8x8dct=0 / cqm=0 / deadzone=21,11 / fast_pskip=1 / chroma_qp_offset=-2 / threads=8 / lookahead_threads=1 / sliced_threads=0 / nr=0 / decimate=1 / interlaced=0 / bluray_compat=0 / stitchable=1 / constrained_intra=0 / bframes=2 / b_pyramid=0 / b_adapt=2 / b_bias=0 / direct=3 / weightb=1 / open_gop=0 / weightp=2 / keyint=48 / keyint_min=25 / scenecut=0 / intra_refresh=0 / rc_lookahead=48 / rc=2pass / mbtree=1 / bitrate=4220 / ratetol=1.0 / qcomp=0.50 / qpmin=6 / qpmax=51 / qpstep=4 / cplxblur=20.0 / qblur=0.5 / vbv_maxrate=6330 / vbv_bufsize=8440 / nal_hrd=vbr / filler=0 / ip_ratio=1.40 / aq=1:1.00" O5 a1 x+ v/ W
  27. Default : Yes
    2 P# c8 L( C1 o1 I$ J- y+ F) D
  28. Forced : No% }  b1 u4 z2 [

  29. 0 |! s  W# f# p; B! L" a( d
  30. Audio
    : g+ r# V3 }5 A4 [
  31. ID : 2( Q3 p1 h+ _0 a6 w2 I6 @/ |9 i+ v
  32. Format : E-AC-3
    2 ^1 a* ]6 b# L9 D. l5 J2 t- [
  33. Format/Info : Enhanced AC-3
    * C4 {6 z+ `" n6 K2 y
  34. Commercial name : Dolby Digital Plus
    8 J, n3 J+ E# `" M; f6 I
  35. Codec ID : A_EAC3  g$ C# I- `/ H/ K& P8 E1 \
  36. Duration : 1 h 33 min
    # D# z: {* R2 v
  37. Bit rate mode : Constant0 @4 X, t0 O$ M/ H- {3 f
  38. Bit rate : 128 kb/s8 [6 F$ M% S, v4 c
  39. Channel(s) : 2 channels
    - I: B% l% V( @' I$ C
  40. Channel layout : L R
    % i6 ~+ [: |3 A7 Q
  41. Sampling rate : 48.0 kHz
    ; q% n3 j6 h9 E' n. w
  42. Frame rate : 31.250 FPS (1536 SPF)
    . a. H" n% f8 W% `- G- d8 ?3 g6 H
  43. Compression mode : Lossy4 j" O4 e. V! g6 ^
  44. Stream size : 85.3 MiB (3%)
    . m+ n$ h9 t/ M/ Q; J
  45. Title : Korean
    5 t" M6 f$ d5 B/ u6 f. d
  46. Language : Korean
    . T  T/ v+ y: B
  47. Service kind : Complete Main* Z0 ]: D5 R' `, b/ q
  48. Default : Yes' S. _2 h- d8 {0 S# X# Y( _' P
  49. Forced : No( M' A. ~5 U  v0 R0 n! a

  50. 3 {9 B+ L3 }* a( G+ l- M2 F
  51. Text #1
    4 L7 Y' U1 W0 }1 H6 J" E- e+ c
  52. ID : 3
    6 ]' B: g# ^* u; k6 C
  53. Format : UTF-8& u! T4 B  W6 F4 W
  54. Codec ID : S_TEXT/UTF8+ E; G5 a: v' ?3 p/ |+ j* F
  55. Codec ID/Info : UTF-8 Plain Text
    7 c8 ]8 x& z5 A6 n# C9 n& A& f
  56. Duration : 1 h 32 min
    3 W6 p6 R  v6 d) V# l7 r3 f
  57. Bit rate : 52 b/s
    / N9 R2 Z! M% b  f( ?
  58. Count of elements : 1167
    % I7 P3 a, Y" E1 N! F1 g$ ?
  59. Stream size : 35.7 KiB (0%)1 Z3 T" s1 l+ m, b" d* M
  60. Language : English  |3 `7 [, d9 h! C& k, C
  61. Default : No1 |0 q+ h: g9 _; B% Q( U6 h
  62. Forced : No
    + z+ Z0 v- Q; a

  63. ) \0 N0 V; u. f( f: A
  64. Text #2
    ! Z' B! L5 V6 n+ G
  65. ID : 4
    % H. O& l( y5 `$ \
  66. Format : UTF-8
    5 z* l) M$ n2 K4 g: R7 F, ]
  67. Codec ID : S_TEXT/UTF8
    & A' f4 }$ ?) @5 A
  68. Codec ID/Info : UTF-8 Plain Text" D5 E  [4 W: i! K9 F- t/ D- `5 f
  69. Duration : 1 h 32 min. m, c9 C: N# `* O
  70. Bit rate : 49 b/s7 n9 U7 q: u  t! B8 g
  71. Count of elements : 12167 c$ Z! K1 s6 ^5 _
  72. Stream size : 34.0 KiB (0%)
    - E+ w) }9 j1 L3 \8 G
  73. Title : Simplified5 l9 m. N6 ~! C' X
  74. Language : Chinese
    5 n$ ^5 f' c1 X1 Y) `( f$ R
  75. Default : No
    1 l1 _+ J2 Q0 K, J
  76. Forced : No
    / G9 j6 h/ o1 p, a6 V" f# S
  77. ) O6 p6 Q4 X( a2 q6 a$ [( [
  78. Text #3
    2 }) p7 n! |7 E" t& W0 f9 `
  79. ID : 5- t1 T8 C/ E) v! ?
  80. Format : UTF-8) t! d- s9 c1 d7 p* n) z, b
  81. Codec ID : S_TEXT/UTF8
    4 ^. J  W' e6 U3 k3 X0 H
  82. Codec ID/Info : UTF-8 Plain Text/ l& W: E9 f% _- g6 g9 J
  83. Duration : 1 h 32 min9 t; {9 J6 t, Z
  84. Bit rate : 53 b/s
    . W9 @; I# ^+ }- X; I, x: n4 P( _
  85. Count of elements : 1212- `6 p2 Y' f9 W* p9 X* Z# l* E
  86. Stream size : 36.3 KiB (0%)
      O( H% V, W+ `0 U7 p! c- |" n5 e
  87. Title : Traditional( e" K1 O* Y' y- W% f7 m: a3 B
  88. Language : Chinese: m, |3 q8 m/ G! ?' h
  89. Default : No
    * w1 a2 w! R1 Z. @, ?
  90. Forced : No! g/ l! x. v  b  Y  T" o. }
  91. % ^- ^8 |$ q' x/ f8 `
  92. Text #41 h$ Q8 G* y8 G: \, x- a
  93. ID : 6: F- [7 w6 h1 ~6 k& T: \
  94. Format : UTF-8
    / i9 R5 c! W- z; f
  95. Codec ID : S_TEXT/UTF83 V/ B& S! K( Q( s& C+ D3 O
  96. Codec ID/Info : UTF-8 Plain Text, Y1 R# K, K3 E! x
  97. Duration : 1 h 32 min) O7 i; ]5 ~' @
  98. Bit rate : 43 b/s7 D* l, H' L0 P* X
  99. Count of elements : 1047
    ) f8 x* q* W" C3 ?7 J
  100. Stream size : 29.3 KiB (0%): s8 r, b* \4 t5 f( t4 d
  101. Language : Japanese
    4 ]' N2 L% s6 }5 r! _. {
  102. Default : No
    ( Z" e/ e5 T6 i2 _# R: b
  103. Forced : No2 O' @& c/ W# p8 e9 A' w/ K# F

  104. % d0 E" ~5 T) D$ z( l4 y
  105. Text #5
    6 k1 i! u% r8 B
  106. ID : 7
    * s: j. T& {- C0 h( g: I
  107. Format : UTF-8
    * r1 X) C5 `! j8 b7 w* J: t
  108. Codec ID : S_TEXT/UTF89 g: x& D3 M$ Q# z' [
  109. Codec ID/Info : UTF-8 Plain Text
    ; H5 D6 g. l' A4 F# j( w/ @% ^
  110. Duration : 1 h 32 min5 T' D9 k! P7 G1 x0 X; \3 c+ ^
  111. Bit rate : 52 b/s
    + q4 k1 M! Z" J. |
  112. Count of elements : 1178: d) B+ K  _" q# ^) |( b
  113. Stream size : 35.9 KiB (0%)
    5 T9 q# _+ P8 b! P7 Y1 I7 E; S
  114. Title : Castilian
    9 p7 N6 [( v% P$ R8 Q) z3 A
  115. Language : Spanish7 v/ W! t. l& Z% [
  116. Default : No
    6 v! T, a( \, p/ ^; }4 P
  117. Forced : No
    ( ?4 Z- [$ _# Y' ^& K

  118. ( g& v. S+ L% H8 q% W* X9 u( c$ _# R
  119. Text #6
    / ]# w: N8 [' C* L/ K  y
  120. ID : 8
    7 n( w, H9 K9 z
  121. Format : UTF-8+ _% `3 H% s7 [8 T9 W0 j7 X
  122. Codec ID : S_TEXT/UTF8
    . t* Q! Y( t2 g5 g' H
  123. Codec ID/Info : UTF-8 Plain Text
    ! d; s4 @/ @# Q
  124. Duration : 1 h 32 min
    & s* K1 X9 d' M. P
  125. Bit rate : 52 b/s
    / ?0 E% V1 ?$ j! x4 \5 S" x; ~2 R/ z7 E
  126. Count of elements : 1178
    4 R, c& c0 v8 R7 Y! y1 o6 M, B! x
  127. Stream size : 35.7 KiB (0%)
    ; e9 T8 W$ {3 r; s! W' K) N+ l+ q
  128. Language : Spanish
    % p: i3 h1 G6 t2 ]
  129. Default : No
    7 I! D2 y' K7 J  C/ t5 w# S
  130. Forced : No' E$ z* R* O' j" f$ Q
  131. / u8 i3 _, v5 {+ E$ J1 T
  132. Text #71 S' p! }$ b# B7 s; F4 @  _4 b
  133. ID : 9  O' y0 z9 i2 E4 B! Q
  134. Format : UTF-8) C7 p. u2 K/ z4 X
  135. Codec ID : S_TEXT/UTF8
    , K7 h$ F& D9 a7 W. B
  136. Codec ID/Info : UTF-8 Plain Text
    5 V$ q  k0 s9 U9 F* |# c% n+ o
  137. Duration : 1 h 32 min
    7 ?! h0 [! j! S- W2 ?
  138. Bit rate : 54 b/s
    4 U" U  V+ r# m
  139. Count of elements : 1166
      J9 E7 U2 N- f$ D% m  |4 ]% s
  140. Stream size : 37.2 KiB (0%)
    + b& Z, ]7 |6 G! }- ?& s$ Y
  141. Language : French, t3 W  c) p  L' S% S9 e
  142. Default : No% i! w- y! C3 H6 r$ ]* l
  143. Forced : No; ~  G, f9 T4 Z* C

  144. $ X# V% z3 e9 }, o2 b
  145. Text #8
    3 B9 g; L: c2 w+ n- C$ y1 m; x
  146. ID : 10* ^8 q: o1 P+ `: w2 U' W- x
  147. Format : UTF-8% a, J# y# Z! `1 K
  148. Codec ID : S_TEXT/UTF8- [$ u+ N9 K% C4 C$ p% X; ~
  149. Codec ID/Info : UTF-8 Plain Text. N, r; D$ p8 X9 j2 m( b4 G
  150. Duration : 1 h 32 min
    + |; d4 U0 o6 ?3 C; _3 F& D
  151. Bit rate : 54 b/s5 P/ P8 E% I9 q' u8 Y1 I5 q% a. K/ N2 g
  152. Count of elements : 1170
    % N' Y+ j9 R/ k7 ?: j9 U
  153. Stream size : 37.1 KiB (0%)
    ' N9 f) ^6 ]5 P' K" W# \
  154. Language : German8 T/ {3 u# ]0 B- v
  155. Default : No
    - i& X" [2 n0 E8 n) z& {
  156. Forced : No
    , v" F8 ?1 ?: l9 U7 q3 B9 z0 l
  157. ( b. B+ `1 }+ T& z1 @* ]# `9 {
  158. Text #9
    & k" b! ?2 I) H! z6 k
  159. ID : 11, `) j8 q5 {& q" D) G' s; c
  160. Format : UTF-8
    . L- D0 D: j7 b
  161. Codec ID : S_TEXT/UTF8/ g7 S; I, \. k) `4 \: p0 h( f7 t
  162. Codec ID/Info : UTF-8 Plain Text% I6 V6 ~( k  U9 U7 C
  163. Duration : 1 h 32 min3 _9 Z9 ?! O" M; x6 w
  164. Bit rate : 53 b/s
    $ h5 ~6 g( u: e1 s! {
  165. Count of elements : 11776 l% ?9 [7 Y+ n  c: i" B/ L
  166. Stream size : 36.7 KiB (0%)
    + ]5 }( F& d2 @/ z: j) t( U! h+ F
  167. Language : Italian$ \" O  ~0 g1 @3 L
  168. Default : No$ z3 y% k1 l  [3 p
  169. Forced : No) d9 A- q2 W' {; \3 q, h, V
  170. , T0 c) J1 w1 U" Z% C! P$ _4 K
  171. Text #10
    9 Q& H" Z) e& V( F& M  t- ~8 p' x$ Y' L
  172. ID : 12- X% n0 w8 v% e5 x0 s  y0 i) d4 D
  173. Format : UTF-8
    " h" A4 y; V. R1 \% d0 J9 j3 Z# U- S
  174. Codec ID : S_TEXT/UTF8
    9 t! D, Z- B$ A, x7 |
  175. Codec ID/Info : UTF-8 Plain Text
    : \/ P% p( T4 D5 j7 p
  176. Duration : 1 h 32 min/ Y  J0 X1 Q) F" z
  177. Bit rate : 51 b/s
    8 E. V' [7 @" V- }2 P- N* _
  178. Count of elements : 1179; [4 Z' h: s1 F4 [  V
  179. Stream size : 34.7 KiB (0%)  X; _# G) }0 P: Q. X% T1 V
  180. Language : Portuguese& z1 t: o3 }* j4 y+ r0 ?) D
  181. Default : No
    ! ~+ B9 T+ U) a' O, C5 o, y
  182. Forced : No
    $ r8 R1 v4 H: y5 W. }) c
  183. & X4 _/ {  }. k+ b2 X
  184. Text #11. S8 ?9 m3 D4 H  f4 d
  185. ID : 13
    ( z7 [: F4 D& M8 A) e* Q% r1 @
  186. Format : UTF-8
      K8 i1 W$ w- n7 c2 S3 a
  187. Codec ID : S_TEXT/UTF8; w0 ]! E& `# w1 c
  188. Codec ID/Info : UTF-8 Plain Text4 j0 J3 {; T. k0 m" |
  189. Duration : 1 h 32 min0 V2 K; M# p  V$ {: `6 ?: J9 R
  190. Bit rate : 51 b/s
    ; n4 ?; k! H3 `
  191. Count of elements : 1174
    ; }0 I+ W, K- ^  B
  192. Stream size : 35.0 KiB (0%)# T. n8 H# E: L) P0 Q
  193. Title : Brazil
    , x: Y9 c* C& K, Q
  194. Language : Portuguese* A+ K- c  `: A
  195. Default : No
    5 V7 ]' |, o6 {  O. l
  196. Forced : No
    " p7 a; Y+ p8 |+ F/ r4 B

  197. - u$ O( e) p: V
  198. Text #12
    6 Q/ p( `2 R+ r! j$ E2 j/ e
  199. ID : 146 {: ]7 _+ J( M1 F" d
  200. Format : UTF-8* w+ n6 b' o+ h- e  l* v
  201. Codec ID : S_TEXT/UTF8
    0 h3 e( L- S* v
  202. Codec ID/Info : UTF-8 Plain Text
    ; k5 i& P) P" k
  203. Duration : 1 h 32 min# r" S! |& u* m2 {: G% f
  204. Bit rate : 48 b/s& e6 D6 _1 g; q, [5 C7 o# ~
  205. Count of elements : 1179
    4 P8 O9 ^1 ^* M2 `7 w! {7 ?
  206. Stream size : 33.1 KiB (0%)
    5 G: p9 L$ M5 C3 u8 ?- C
  207. Language : Polish
    . [3 [* E4 N) C% a
  208. Default : No
    3 O, e- n/ T* b' M2 E( q
  209. Forced : No2 F( d, v1 A% R% \4 q

  210. 3 k( ^# s4 M. P( F# R/ u( |
  211. Text #135 b8 o! `7 X4 q: K1 R8 E; f) `
  212. ID : 15# }$ E1 X/ h: V& k! [
  213. Format : UTF-8
    5 Z+ B0 o, k7 p$ O" w
  214. Codec ID : S_TEXT/UTF8- l- `" s1 r6 ?* }
  215. Codec ID/Info : UTF-8 Plain Text
    ' w2 |5 i3 _7 x! G: u" z
  216. Duration : 1 h 32 min  P5 i6 C$ e' ~! T. U' O. _3 x) K
  217. Bit rate : 51 b/s! f$ ?% E& k* J7 t# y3 O2 t
  218. Count of elements : 1179
    " T- K5 @) Y. D3 w$ n
  219. Stream size : 35.3 KiB (0%)- Q7 y% ?5 V2 t- f1 y) r
  220. Language : Turkish0 n! P$ i8 F$ n, o: r
  221. Default : No3 c& ]9 ?: E" `/ v- y0 p7 a( U6 J
  222. Forced : No
    6 ?9 u! p# _7 d4 U( u
  223. . W2 J3 f9 x( Y6 @/ U: E- p  ^
  224. Text #14! Q7 ]( x2 h9 H# g
  225. ID : 16& O! f5 K; Z0 d
  226. Format : UTF-8
    , j/ X* L& d" l- q# J" y4 a
  227. Codec ID : S_TEXT/UTF82 s3 D# j' j1 Y9 }* s
  228. Codec ID/Info : UTF-8 Plain Text
    ) v5 T8 J  _; g; U8 M( K
  229. Duration : 1 h 32 min9 W+ E, K/ K7 C  y; ^$ E0 Q
  230. Bit rate : 51 b/s
    4 p0 b# H" V) r( t
  231. Count of elements : 1175
    0 O+ Y) d; h/ r; v- A. e
  232. Stream size : 34.7 KiB (0%)
    , J  t3 t& P6 Y$ z
  233. Language : Swedish
    " \+ s$ r3 M  t. z* g- t6 d2 z
  234. Default : No: u4 i4 u$ ?! a! A) s) |
  235. Forced : No
    8 T# O" C; p8 ?4 n3 G2 h
  236. 2 P" q7 N5 }1 F& g& h: r2 [
  237. Text #15: S5 ?6 W' y" U. ?
  238. ID : 17' L" h2 l/ _" a9 [& n$ ?, {, q
  239. Format : UTF-8
    ' G) w" W6 e' s+ n
  240. Codec ID : S_TEXT/UTF85 n* ?+ r5 V- `( D
  241. Codec ID/Info : UTF-8 Plain Text* t& P: w$ Y8 z
  242. Duration : 1 h 32 min$ B% D7 ?! n6 H
  243. Bit rate : 51 b/s
    ; a4 x# k5 B$ a) c: ?1 [6 V5 w3 e
  244. Count of elements : 11751 A. b8 d; O1 x
  245. Stream size : 34.8 KiB (0%)5 V- u! W) N1 t' W6 W1 r$ s
  246. Language : Danish
    - {' v9 _( L+ v9 X) {
  247. Default : No
    & b8 _5 V* C. T/ b/ J, D
  248. Forced : No& z5 x$ i2 B7 e% `, Q6 m

  249. " H+ a4 x) w! R' {# o
  250. Text #167 {, B0 ]! T$ }- j# k, N3 ?$ M
  251. ID : 18% B' c. Q$ F- _1 y) X
  252. Format : UTF-8) ]6 N7 }9 V9 W0 ?7 y6 R( U# P
  253. Codec ID : S_TEXT/UTF82 ^" v; ]- l3 L  R8 p" ~
  254. Codec ID/Info : UTF-8 Plain Text
    / E  J  P$ M. n! w6 \( r* U; n
  255. Duration : 1 h 32 min# ^8 l( t. R% G7 Z4 y" j; x8 t  G
  256. Bit rate : 54 b/s
    / i- G1 a7 E. R' b- L- q
  257. Count of elements : 1179
    $ u: m% }3 ]9 R3 j$ ^, v, q
  258. Stream size : 37.0 KiB (0%)9 {, g% r: y7 i, T0 o0 A8 z6 E
  259. Language : Finnish
    3 p& V1 P5 z, F  f  i
  260. Default : No
    3 r: H$ ~4 ?, V8 L
  261. Forced : No
    # S8 u* q' X5 Q2 v( l$ v8 j4 f7 [
  262.   x$ b3 W$ d+ f
  263. Text #17, Y& j1 |- n/ N) S8 F
  264. ID : 19
    2 F6 ^+ S9 K) @
  265. Format : UTF-8
    ) y6 B) G! v- o% S) O
  266. Codec ID : S_TEXT/UTF8
    ' b$ |& I. u; @$ G
  267. Codec ID/Info : UTF-8 Plain Text
    7 s" K4 F! \( ^+ K& z' ]( h
  268. Duration : 1 h 32 min
    6 g$ V1 @3 F" V9 j$ g# F
  269. Bit rate : 50 b/s: G7 V4 A5 f0 Q8 ^* a
  270. Count of elements : 1171
    0 ~& s9 }& k2 z" K: L2 v
  271. Stream size : 34.6 KiB (0%)  t/ x3 I7 ]! N# n9 ~: _1 ^8 w% [) u
  272. Language : Dutch
      p2 \) {, v9 u
  273. Default : No
    / C2 m3 o! S! R
  274. Forced : No$ E% T# c7 P+ _( C' o1 H( \

  275. 6 m! v- m$ l# o, |6 G* p' S# h
  276. Text #186 Z5 A0 o6 b; ?" j) @7 G6 N# Z, ]
  277. ID : 20
    5 s, `+ Q4 n/ ~) j- R$ B
  278. Format : UTF-8
      ~- m# Y4 \( W* R! Z5 S
  279. Codec ID : S_TEXT/UTF8
    # ]" k6 |. n  O9 P; m0 ^0 a3 o) V
  280. Codec ID/Info : UTF-8 Plain Text
    2 R$ T4 }- V/ B+ q
  281. Duration : 1 h 32 min
    # V" `4 S2 c8 Y. f7 L, i
  282. Bit rate : 52 b/s
    " k0 K; j2 h- w8 ^0 a, a5 ]' @
  283. Count of elements : 1180
    / l7 }" a6 q' C8 t
  284. Stream size : 35.6 KiB (0%)/ B2 H# z9 J% ^
  285. Language : Norwegian" X/ P9 p$ m# A! f% T. X& e& G
  286. Default : No( D& `- ?; }$ B$ M/ ?
  287. Forced : No
    1 K% x+ a( q  w
  288.   `) I5 A; u( g. ?9 v9 g
  289. Text #19
    4 x/ p5 e4 N1 `1 L: @7 ^
  290. ID : 21
    $ M. D% S4 s: T+ @; `
  291. Format : UTF-8
    . P* ^1 ^' B1 ~9 V9 d+ |8 U
  292. Codec ID : S_TEXT/UTF8( r0 O% J5 O8 a$ W: T# _. g0 S
  293. Codec ID/Info : UTF-8 Plain Text9 y, `+ l- C' r6 p5 Q
  294. Duration : 1 h 32 min
    6 D) [( ]. D% k! ?8 H  \1 T+ R
  295. Bit rate : 80 b/s8 W. O) v% C# p3 o
  296. Count of elements : 1167
    $ m- d5 G& U' H% k
  297. Stream size : 54.9 KiB (0%)
    & K  X3 T" o7 `; q7 q
  298. Language : Bulgarian. k/ O( Y" O2 F1 s
  299. Default : No* F' a0 o& d& T  R( A8 m7 H% z
  300. Forced : No9 X0 h1 |) j$ Q- j- f- m9 J( |
  301. - b4 ?7 v$ P* \1 d
  302. Text #200 j9 P) q6 j( ~( V' d0 g
  303. ID : 22" v- }3 F3 r3 z/ }6 f2 y, P( E+ v
  304. Format : UTF-8. Z) e, d: {( E
  305. Codec ID : S_TEXT/UTF8
    2 H: T; _/ S0 ~& [* a
  306. Codec ID/Info : UTF-8 Plain Text8 `( F, K. R3 G8 r
  307. Duration : 1 h 32 min$ ]+ q" {$ g& F0 B) O3 t
  308. Bit rate : 92 b/s
    $ t# I% j. q/ ?
  309. Count of elements : 1181
    : i3 Y& G* E, K9 r
  310. Stream size : 63.2 KiB (0%)
    ; `3 X4 N# l- i& O+ m$ v! T" X
  311. Language : Greek
    3 l0 d9 n+ h- S: l
  312. Default : No9 O$ I1 R4 u( H* z: v& R
  313. Forced : No3 j  i2 r+ y( Y
  314. " Z8 Z; R) b9 ~  e/ B* c
  315. Text #21
    # i6 f; S& [( n6 C+ M3 f/ ?
  316. ID : 23
    5 h" q5 L- S  D5 ?3 n
  317. Format : UTF-8
    2 v! v" ^$ ]- |8 q6 N: P
  318. Codec ID : S_TEXT/UTF8
    * t8 R0 {* C' p9 o0 D. D2 ^! t
  319. Codec ID/Info : UTF-8 Plain Text8 O  G9 w/ `" H# h
  320. Duration : 1 h 32 min
    & s' W9 C8 h. C. [9 G6 y# w
  321. Bit rate : 71 b/s0 p* b& J0 u! M% c* c% |
  322. Count of elements : 1182
    / I2 c" q; B; ]$ [( K9 {( G# ?
  323. Stream size : 48.3 KiB (0%)5 ~. J8 |" M) R$ a( g$ r
  324. Language : Hebrew9 T  ^; h0 X+ w4 O+ m
  325. Default : No" J" e. [. a/ z/ k
  326. Forced : No& _! A/ l3 Z& d# |" O
  327. 7 l( B8 `" d8 f, h( F6 X+ c
  328. Text #22, _" R6 d4 |9 V6 `  L$ f8 p
  329. ID : 24$ t7 E1 m. C0 f" \4 b5 k! p3 T# B7 `
  330. Format : UTF-82 o1 o( J2 B# L. j
  331. Codec ID : S_TEXT/UTF8
    , q+ _0 h$ S  D3 {( X
  332. Codec ID/Info : UTF-8 Plain Text$ t8 ~& R$ v6 z( N
  333. Duration : 1 h 32 min8 o" ]: B, [5 z. D) n
  334. Bit rate : 77 b/s
    9 F0 ]" B! _; Y6 h
  335. Count of elements : 1182
    % G- e6 A7 f1 r% l+ A( m1 L
  336. Stream size : 52.4 KiB (0%)
    ( |% m$ \8 c  g7 k2 f. ^& B
  337. Language : Arabic4 i2 h3 K6 b* g  |0 v2 \
  338. Default : No
    ; B1 v% O( `* e2 y/ V7 e
  339. Forced : No
    7 N" q5 N0 L) i5 W
  340. " ~( B- S* m7 Z5 E% A2 V" W% G; w
  341. Text #23
    # f: P$ N  t7 b% q+ f0 V8 u( C
  342. ID : 25, F2 Z6 s& S0 V; D: d
  343. Format : UTF-8
    # Q- H% ?) Q! C; y4 j
  344. Codec ID : S_TEXT/UTF8( v% j& N: l! q4 n6 _# B; U0 I, G
  345. Codec ID/Info : UTF-8 Plain Text/ o/ @0 D( }! C8 Z# t  _
  346. Duration : 1 h 32 min5 ^- {8 ^; p2 ^+ U
  347. Bit rate : 52 b/s6 x- x* j3 v$ v7 Z! y& R
  348. Count of elements : 1183' Q& m/ M9 P7 h1 |9 A! Y0 \
  349. Stream size : 36.0 KiB (0%)
    : A9 ?" u: Z" x) \; B0 f( L( I
  350. Language : Romanian5 D& k% k; N; T& V
  351. Default : No3 X: D+ x# C( d8 J
  352. Forced : No# H! T* Y  z, a! S+ [( A

  353. 0 h4 y  T5 D- Z0 |6 j
  354. Text #248 S' g/ \6 d5 L. }& L, L9 _
  355. ID : 265 c2 l% \- G5 Q" v
  356. Format : UTF-87 l+ U: C* c% \) l( [* n
  357. Codec ID : S_TEXT/UTF8
    " y* {7 j! Z" }: D+ \" N7 Y7 W) v
  358. Codec ID/Info : UTF-8 Plain Text
    ; Z& ~, Y( w0 c6 B# f0 W
  359. Duration : 1 h 32 min# O! l' V+ O! j! v  K' w" X# j. f
  360. Bit rate : 126 b/s
    , `; F, q+ \5 E" y, s
  361. Count of elements : 1213
    8 q) {$ g' @, H# W
  362. Stream size : 86.3 KiB (0%); h% y/ B- Y7 {
  363. Language : Thai: ]8 i! c% B/ m4 K4 [. H6 j* H; ~
  364. Default : No$ w& d3 t" i) @& h
  365. Forced : No
复制代码
" a; d% h6 D0 @& [& c  e1 g
8 p/ F4 b" {4 @. X7 u, \2 S

/ q* g/ y& _7 }7 ?0 f7 j0 v, i9 k" c# S5 h9 j% }. i3 X
, Y) R( |; N/ `+ M* d
3 n" i4 R  ~1 M' [7 m; Y( }
游客,如果您要查看本帖隐藏内容请回复  VIP可免回复查看隐藏内容 详情请点击
发表于 2020-3-1 15:38:18 | 显示全部楼层
我的天啊,最近我就是在一直找这个资源啊,论坛的那个不允许我回复了,这下终于有新的了,非常感谢。
发表于 2020-3-5 07:16:57 | 显示全部楼层
谢谢楼主分享资源。
发表于 2020-3-5 14:39:04 | 显示全部楼层
这部剧还真是没看过,听说那年的大热剧啊
发表于 2020-3-6 12:58:22 | 显示全部楼层
感谢分享,有点意思
发表于 2020-3-7 09:25:48 | 显示全部楼层
高分韩剧呀 肯定不会错过 谢谢分享啦
发表于 2020-3-7 22:04:49 | 显示全部楼层
豆瓣九点几的评分
发表于 2020-3-9 15:40:09 | 显示全部楼层
一直想看看这部剧的 谢谢分享
发表于 2020-3-9 16:07:03 | 显示全部楼层
对棒球的了解还是来自《斗魂》
发表于 2020-3-9 18:02:22 | 显示全部楼层
初来乍到,不知道什么情况,刚刚看见一个帖子又要回复又要收费
您需要登录后才可以回帖 登录 | 立即注册

本版积分规则

QQ|封号公示|手机版|有问题发邮件到admin#(换成@)hd1tj.org|微博|免责申明|HD一条街

GMT+8, 2020-11-25 13:20

快速回复 返回顶部 返回列表