HD一条街

 找回密码
 立即注册
搜索
查看: 66|回复: 8

[1080p] 大闹广昌隆[粤语 英文字幕]Finale.In.Blood.1993.CHINESE.1080p.BluRay.x264.DTS-FGT 8.6G

[复制链接]
发表于 2020-2-14 16:33:46 | 显示全部楼层 |阅读模式

马上注册,结交更多好友,享用更多功能,让你轻松玩转社区。

您需要 登录 才可以下载或查看,没有帐号?立即注册

x
; l% l" d1 I. j* ~7 `, W* s
                               
登录/注册后可看大图

: e+ Z/ ^* ~. t: x, T) d: U& `! V4 Q
◎译  名 大闹广昌隆/Finale in Blood
) Y* ~3 O# {9 [: O3 G) d◎片  名 大鬧廣昌隆
" p0 v0 w( p, C+ ^6 `1 `" G6 J: Q, S◎年  代 1993; u# ~# w  \3 E: y0 P. @
◎产  地 中国香港: D9 c) k9 A: X6 n8 C' ~
◎类  别 剧情 / 爱情 / 恐怖) U+ `* S8 E3 o7 p, A
◎语  言 粤语
  E- @0 h- T- r8 J: v8 @4 z◎上映日期 1993-11-06(中国香港)" Y0 ~6 G* b2 M1 Z
◎IMDb评分  5.6/10 from 74 users$ p+ v) z2 u( K' [7 C
◎IMDb链接  https://www.imdb.com/title/tt0101644/
! C- X- M* q0 X4 f; M+ o6 u4 F◎豆瓣评分 6.8/10 from 2,334 users
) ^; c0 h. z' x$ H◎豆瓣链接 https://movie.douban.com/subject/1305059/
; D! ]+ t* j; S1 {! l8 |◎片  长 94 分钟
7 S9 z8 ~6 `; h0 [◎导  演 陈果 Fruit Chan( a  d! j2 a# {
◎编  剧 陈庆嘉 Hing-Ka Chan / 张小娴 Siu-Han Cheung* e4 V& T: T) |6 N; @2 o/ r- {
◎主  演 郑丹瑞 Lawrence Cheng% u6 G# U; z( H# Q5 b
       吴大维 David Ng
0 y" t* S+ ?2 V# {8 P& P/ r. u0 ]       陶君薇 Ruth Winona Tao  D* a) f/ O) |$ D0 U
       青山知可子 Chikako Aoyama
6 F' {7 @# h8 J- n7 Q2 }1 W* O7 r& `
◎标  签 陈果 | 香港 | 香港电影 | 爱情 | 吴大维 | 郑丹瑞 | 1993 | 恐怖
; `% `! C) `1 F) ], M& L' M4 r
  a8 T, [% S1 {# I% t3 t8 U◎简  介0 o* E0 V# q4 i5 X
' ]9 K6 T& }7 t8 y
  郑明宝(郑丹瑞 饰)是香港某电台播报猪肉价格的DJ,他的朋友陈七本想托他走私药品,没想到郑明宝把事情搞砸,害得他锒铛入狱。郑明宝无意中得到了一把雨伞,并由此结识了冥间女鬼方茵(陶君薇 饰),为此,郑明宝专门做了一档晚间鬼故事的节目,由方茵现身说法,收听率居高不下,连当红DJ蕾莎(顾美华 饰)也对他另眼相看,暗送秋波。2 O/ S7 J# ^$ [9 A6 b  P7 z
  节目中,方茵讲述了自己的一段被负心汉欺骗、惨遭情敌迫害致死的过程。原来,她本是从南洋来香港接管广昌隆饭店的女继承人,偶然见邂逅了警察马光燊(吴大维 饰),并堕入爱河。但是,马光燊其实是个花花公子,几次三番伤害了方茵纯洁的感情。特别是当他的情妇(青山知可子 饰)登堂入室后,更是把伤心欲绝的方茵逼上了绝路……
7 U# W5 W- v; o
% V. W& c5 X) A" ?+ [◎获奖情况
4 P& U4 {2 d* r/ z- u2 s5 z4 _. A- `/ E( ?5 C* C
  第13届香港电影金像奖  (1994)  z% e3 k0 K8 F# b) o" d( D1 y  \
  最佳摄影(提名) 钟志文 / 敖志君
  1. Video
    . ^  A. j$ ]: g* F1 I6 y
  2. ID : 1
    ' l. U4 w! U7 e
  3. Format : AVC
    2 J3 b( o# i& B6 l1 ]8 |* m8 t
  4. Format/Info : Advanced Video Codec- i; k% E0 O2 J
  5. Format profile : High@L4.1% J# ?. P. r$ ?+ j* ^+ A; i
  6. Format settings : CABAC / 4 Ref Frames: u; x) e: k( Z2 ^2 U
  7. Format settings, CABAC : Yes
    3 i# y9 j$ S4 }/ H
  8. Format settings, Reference frames : 4 frames
    : @3 U( U* ], o
  9. Codec ID : V_MPEG4/ISO/AVC
    9 |8 c0 p, m- f6 U; J8 ]
  10. Duration : 1 h 34 min: j" F! G9 s" m' Z
  11. Bit rate : 11.5 Mb/s: M4 U, \! f3 F4 c: _$ v8 q
  12. Width : 1 920 pixels
      `7 }- a, ]' X8 E4 Z4 h/ S
  13. Height : 1 024 pixels
    5 @, k% i; Q3 d
  14. Display aspect ratio : 1.85:1/ Y, `0 l& e; P# p% a' A
  15. Frame rate mode : Constant
    9 t0 Y+ W# l4 t( k$ |
  16. Frame rate : 24.000 FPS/ {7 T1 S% q2 c; @2 T; t) g
  17. Color space : YUV$ |7 I' O( T* O4 o
  18. Chroma subsampling : 4:2:0
    : _" M6 d0 `& n9 y# A
  19. Bit depth : 8 bits
    0 h! q* i+ T) s; B% W, o
  20. Scan type : Progressive
    2 ?; w* m! N" j' C  Y) \, z5 P
  21. Bits/(Pixel*Frame) : 0.244
    . X' i. O$ T* A6 i
  22. Stream size : 7.61 GiB (88%), U  h7 `* T8 z  u& z) M
  23. Writing library : x264 core 148 r2795M aaa9aa8! f& p# u# w; w
  24. Encoding settings : cabac=1 / ref=4 / deblock=1:-2:-2 / analyse=0x3:0x113 / me=umh / subme=9 / psy=1 / psy_rd=1.00:0.15 / mixed_ref=1 / me_range=16 / chroma_me=1 / trellis=2 / 8x8dct=1 / cqm=0 / deadzone=21,11 / fast_pskip=1 / chroma_qp_offset=-3 / threads=24 / lookahead_threads=3 / sliced_threads=0 / nr=0 / decimate=1 / interlaced=0 / bluray_compat=0 / constrained_intra=0 / bframes=3 / b_pyramid=2 / b_adapt=1 / b_bias=0 / direct=3 / weightb=1 / open_gop=0 / weightp=2 / keyint=250 / keyint_min=25 / scenecut=40 / intra_refresh=0 / rc_lookahead=50 / rc=2pass / mbtree=1 / bitrate=11500 / ratetol=1.0 / qcomp=0.60 / qpmin=0 / qpmax=69 / qpstep=4 / cplxblur=20.0 / qblur=0.5 / vbv_maxrate=31250 / vbv_bufsize=31250 / nal_hrd=none / filler=0 / ip_ratio=1.40 / aq=1:1.00
    , X. N; O- A) U0 m. ?
  25. Language : Chinese! ?/ s3 R3 z6 Q4 v" j+ T% X
  26. Default : Yes0 P2 X- }, r& {/ F/ W# [! w6 C5 C
  27. Forced : No* z! }* m7 Q% B' O" g

  28. - P3 ^0 B" D/ ?5 r
  29. Audio- O/ g* b( P$ y3 a# e# R
  30. ID : 2
    / f( {& r( }: W7 |. d, q; j
  31. Format : DTS
    8 w& k- x) K, \; I+ K
  32. Format/Info : Digital Theater Systems- R6 {( m8 H0 z/ }, N
  33. Codec ID : A_DTS0 s' U: u" S2 z. g7 \; }& L3 `
  34. Duration : 1 h 34 min
    5 ?8 ~" x/ S! ^" N8 L- q
  35. Bit rate mode : Constant" }- ?' _6 {  b
  36. Bit rate : 1 509 kb/s  A7 j5 E2 P) J5 o7 M1 U6 i' \
  37. Channel(s) : 6 channels; u8 w" q! P) r1 H
  38. Channel layout : C L R Ls Rs LFE
    ; \' B4 \' |+ q" b
  39. Sampling rate : 48.0 kHz+ A' x6 N& W; H. K6 t0 U0 t( L
  40. Frame rate : 93.750 FPS (512 SPF)1 Y2 d1 i/ Q8 g8 e: r: N
  41. Bit depth : 16 bits! o; `; u- F! X3 k* F
  42. Compression mode : Lossy: d, z: l3 z! D- a$ [: i
  43. Stream size : 1 023 MiB (12%)8 `' q( [6 {- Z% [" S: |+ q
  44. Language : Chinese
    ; j& l, I$ F' N9 M% A
  45. Default : Yes
    , h; k& q* v4 y; O; R3 H( z6 Y
  46. Forced : No
    0 k( b- y$ N9 j, q/ z
  47. 0 b' B- O: d: F6 Y5 `. ~# D
  48. Text
    / ~* l7 t! Q5 x! w  y
  49. ID : 3
    & N  N4 |. \# \- f7 Q/ C: R. p2 J( V! X
  50. Format : UTF-8
    9 {2 I; i- c& s9 E& \* o& V
  51. Codec ID : S_TEXT/UTF8
    ; o) [9 _9 g! l6 O7 D
  52. Codec ID/Info : UTF-8 Plain Text& s( V5 |0 F: ?1 N3 D3 C- l! ~: j
  53. Duration : 1 h 30 min
    " T6 D5 n  X+ d
  54. Bit rate : 40 b/s
    , C6 h: S$ s; z+ O3 Z1 W0 L3 Z. J
  55. Count of elements : 956
    + a6 n6 d: `8 x0 r
  56. Stream size : 26.8 KiB (0%)
    9 o9 r, U: G$ ^9 T8 g; t* [
  57. Language : English
    6 ]( B6 ?6 J5 H* F
  58. Default : Yes  U* q4 U1 K0 G7 P' C
  59. Forced : No
复制代码

' N* F' i0 s; j, t8 e9 z% n0 W# T- E) I" t9 U8 u

2 Z9 T7 Z+ R- y' ~6 y* v# ^- E
; Q) t' c2 H- l, `- D9 Y9 {
% P+ }1 \: P: x7 G9 j3 s, i7 Z; o% T$ s  ?
游客,如果您要查看本帖隐藏内容请回复  VIP可免回复查看隐藏内容 详情请点击
发表于 2020-2-14 16:51:48 | 显示全部楼层
感谢楼主的分享  
发表于 2020-2-14 18:48:38 | 显示全部楼层
多谢分享了啊。
发表于 2020-2-14 21:29:52 | 显示全部楼层
谢谢分享,下载看看先
发表于 2020-2-15 00:13:09 | 显示全部楼层
这截图截得好啊。感谢分享
发表于 2020-2-15 00:56:13 | 显示全部楼层
这部片子还真没看过,谢谢分享
$ W: N& O2 I+ Z, [
/ c1 Q2 a% y! o) z, A* \0 S, Q
+ K1 h8 Y/ j8 t4 T
发表于 2020-2-15 07:51:30 | 显示全部楼层
多谢楼主分享!
发表于 2020-2-15 10:23:04 | 显示全部楼层
多谢分享了啊。
发表于 2020-2-15 10:49:05 | 显示全部楼层
看过电视剧版本这个电影版本的从来还没看过支持一个
您需要登录后才可以回帖 登录 | 立即注册

本版积分规则

QQ|封号公示|手机版|有问题发邮件到admin#(换成@)hd1tj.org|微博|免责申明|HD一条街

GMT+8, 2020-2-26 14:12

快速回复 返回顶部 返回列表