HD一条街

 找回密码
 立即注册
搜索
查看: 67|回复: 8

[1080p] 少林五祖[国英双语 英文字幕]Five.Masters.of.Death.1974.CHINESE.1080p.BluRay.x264.DD2.0-FGT 9.4G

[复制链接]
发表于 2020-2-12 11:42:35 | 显示全部楼层 |阅读模式

马上注册,结交更多好友,享用更多功能,让你轻松玩转社区。

您需要 登录 才可以下载或查看,没有帐号?立即注册

x

5 R( r0 p3 g0 h) c# |" x                               
登录/注册后可看大图

# s7 q- k! C6 O5 a5 Q+ _
, M- Q8 e$ D; P3 E9 W◎译  名 Five Shaolin Masters
0 s- K1 z" w9 B; D$ k0 n0 J◎片  名 少林五祖
$ G9 l' L8 B4 ]: P& {; }3 ~# W◎年  代 1974
' D  E- j+ t6 c; b' j% `◎产  地 中国香港; z5 t2 J4 ]. Y
◎类  别 剧情 / 动作 / 武侠 / 古装: z6 Q; D, m9 x5 V% R" x8 R9 S/ G
◎语  言 汉语普通话
6 n1 d$ |6 I# n◎上映日期 1974-12-258 U2 |/ u3 L  e; ?1 S" f: j5 m
◎IMDb评分  6.7/10 from 908 users- e6 e! K- @9 k# e8 n5 _+ l
◎IMDb链接  https://www.imdb.com/title/tt0072991
& l) C, g8 v, f4 R; G0 D( \) k◎豆瓣评分 6.6/10 from 1522 users
1 z. C! n+ j- C: I4 g: S) c# J◎豆瓣链接 https://movie.douban.com/subject/1304503/3 D; i  ^/ ]" _- ^1 N. u/ R
◎片  长 Hong Kong: 105 分钟
% T: l, q# {! G4 e7 D◎导  演 张彻( F3 M+ x' w+ m  y
◎编  剧 倪匡6 f# B8 A* \3 I
◎主  演 傅声
$ B0 z) }$ V% {1 f       姜大卫$ c! I$ T* q/ J: N- @
       狄龙- S4 x7 @+ m- P, j( ~6 P6 g
       戚冠军5 M7 \( X9 E& R1 w+ V- }7 Z% B
       王龙威
) u0 i) f, e5 e9 o( ~       孟飞: K7 x/ f7 R" |
, v$ v# v- U0 ^! T/ w

/ k9 ~1 s: I3 D* t. j5 E8 w, r◎标  签 邵氏 | 张彻 | 香港 | 姜大卫 | 狄龙 | 武侠 | 动作 | 香港电影
) S9 X  b1 c' g
  E+ T  t0 Z( d◎简  介  , ?5 B! S3 n& t2 i9 o9 n0 u# W, J6 ~
; S. z1 ]  g0 A9 [6 X  j
  将少林寺视为眼中钉的清廷利用安插在少林寺中的奸细提供的情报,调遣了各路高手火烧少林寺,处心积虑地想一举消灭少林子弟。事出突然,寺中僧人及俗家弟子仓促应战一番后十死其九。% N7 g! H+ `& x
  捡得性命的方大洪(孟飞)逃向广东与李式开(戚冠军)会合,商议如何继续反清复明。而胡德帝(姜大卫)、蔡德忠(狄龙)、马超兴(傅声)等人则北上中原,千方百计查找寺中内奸,决意为死去的少林弟子报仇。——五人一度对少林功夫有所怀疑,后来才醒悟怪不得少林功夫,只怨自己学艺不精,于是潜心修炼终成正果,被后世称为“少林五祖”。
* d/ @2 T  E' Y6 r1 d/ N6 S; g1 @& @! [- U7 T6 s
◎获奖情况  9 R: ]* s! W& S/ ~/ ?  X9 d' p( ~

$ T4 f6 O! |+ k3 ^% ?1 O" \* O  第12届台北金马影展(1975): n* N1 d2 b2 S( G
  金马奖 最佳音效 王永华
  1. Video
    + e( y! n1 v+ z
  2. ID : 1  r1 ^5 I+ X; A
  3. Format : AVC* J' [4 q$ y& d: a( c( }
  4. Format/Info : Advanced Video Codec, i2 h' X5 p7 C, J$ F2 J
  5. Format profile : High@L4.1
    - W4 w4 C0 @$ a
  6. Format settings : CABAC / 4 Ref Frames
    - A+ }6 D. h) j  n2 X% f% C& A
  7. Format settings, CABAC : Yes
    0 k. \; b+ J& z/ X. ^
  8. Format settings, Reference frames : 4 frames
    & m& T1 j- ]& C) h
  9. Codec ID : V_MPEG4/ISO/AVC
      q$ A" E- Y! g+ U' K
  10. Duration : 1 h 49 min
    + e) s6 O, n* {0 b# E6 q% U# F1 H
  11. Bit rate : 11.5 Mb/s
    6 \4 X: G) P; l/ K% m
  12. Width : 1 920 pixels
    ) d: s8 k4 Q" i+ _3 m
  13. Height : 812 pixels" I8 j0 E; M- o5 _' k5 e
  14. Display aspect ratio : 2.35:1& w+ M# {9 ?: C7 W4 T# O
  15. Frame rate mode : Constant3 A3 k/ P/ c  n; W5 S
  16. Frame rate : 23.976 (24000/1001) FPS# Z9 W* h; x, R7 R: H1 [7 R% d8 G! N
  17. Color space : YUV
    . O% l+ r$ K* p  Q* H) [
  18. Chroma subsampling : 4:2:0* w& l" Q3 g0 ~$ m
  19. Bit depth : 8 bits
    , S% k7 h0 E- m4 `
  20. Scan type : Progressive) K8 g' m  T9 S5 z& D% }
  21. Bits/(Pixel*Frame) : 0.308- K6 M, N" C; S# b/ \& f* G4 ~% @
  22. Stream size : 8.81 GiB (94%)* Y. Y" p5 J) N, \  c! {# e0 v
  23. Title : Five.Masters.of.Death.1974.CHINESE.1080p.BluRay.x264.DD2.0-FGT
    2 i5 z) q$ D! P0 e" b3 T' l
  24. Writing library : x264 core 148 r2748 97eaef28 K/ k8 c. h, `8 p; q
  25. Encoding settings : cabac=1 / ref=4 / deblock=1:-2:-2 / analyse=0x3:0x113 / me=umh / subme=9 / psy=1 / psy_rd=1.00:0.15 / mixed_ref=1 / me_range=16 / chroma_me=1 / trellis=2 / 8x8dct=1 / cqm=0 / deadzone=21,11 / fast_pskip=1 / chroma_qp_offset=-3 / threads=24 / lookahead_threads=3 / sliced_threads=0 / nr=0 / decimate=1 / interlaced=0 / bluray_compat=0 / constrained_intra=0 / bframes=3 / b_pyramid=2 / b_adapt=1 / b_bias=0 / direct=3 / weightb=1 / open_gop=0 / weightp=2 / keyint=250 / keyint_min=25 / scenecut=40 / intra_refresh=0 / rc_lookahead=50 / rc=2pass / mbtree=1 / bitrate=11500 / ratetol=1.0 / qcomp=0.60 / qpmin=0 / qpmax=69 / qpstep=4 / cplxblur=20.0 / qblur=0.5 / vbv_maxrate=31250 / vbv_bufsize=31250 / nal_hrd=none / filler=0 / ip_ratio=1.40 / aq=1:1.00" R' v) C( Q, g9 D) t) Y
  26. Language : Chinese1 t, E7 @- `# W# @; t
  27. Default : Yes
    / z9 N8 O: ~: p& w$ \6 z
  28. Forced : No
    " t) D* ]: O& _* f3 F9 P6 j
  29. , R5 h. W# p9 _; ^; P6 b1 b) Z* L
  30. Audio #1+ \1 i$ h: J" ~2 A" T! I
  31. ID : 2
    & B7 N+ h, a8 p$ d, c
  32. Format : AC-3
    / |) F/ E# c. ?8 H" K# E
  33. Format/Info : Audio Coding 35 u  W. X3 [7 V, v7 @+ c
  34. Commercial name : Dolby Digital
    6 Q( W9 s: W2 g; y9 U
  35. Codec ID : A_AC3/ s) M2 T$ y6 g4 e
  36. Duration : 1 h 49 min: \4 @: T# M4 x# u
  37. Bit rate mode : Constant
    4 z) c* ?' M8 ^5 L. m% W# b* D5 l, B
  38. Bit rate : 384 kb/s
    3 V8 V7 N+ _- Y
  39. Channel(s) : 2 channels2 w9 ]) `( n# `2 b. u
  40. Channel layout : L R# w  r9 H9 k: p9 u! H. ^6 P0 }
  41. Sampling rate : 48.0 kHz$ j' V2 X2 {3 d4 h8 C0 f! O
  42. Frame rate : 31.250 FPS (1536 SPF), @- @+ \: q" [$ L) c$ ?
  43. Bit depth : 16 bits
    1 `1 D2 O! V# P
  44. Compression mode : Lossy# _) q6 m! @. L' Y4 A
  45. Stream size : 301 MiB (3%)
    1 w2 l$ l" e6 I2 C  p+ a
  46. Title : Five.Masters.of.Death.1974.CHINESE.1080p.BluRay.x264.DD2.0-FGT
    . K3 t3 {! w7 N3 v5 B  d
  47. Language : Chinese
    ( @; D' M2 i$ X2 x' y
  48. Service kind : Complete Main! D! B, h3 c  r9 [
  49. Default : Yes
    - O! Z# H0 v& r2 C; ~
  50. Forced : No
    . U3 U; r. l- b# }1 }, z; x

  51. 7 D0 w/ \4 \8 S) T3 A
  52. Audio #2
    # c3 m2 i- G: D( ^; x
  53. ID : 3- a. N) t2 S  P' s5 X
  54. Format : AC-3) ^$ j2 L+ g( U
  55. Format/Info : Audio Coding 3
    / g& L4 m0 I+ i0 A$ I# M
  56. Commercial name : Dolby Digital7 h; ?3 r: M# e
  57. Codec ID : A_AC3
    . p. ]% `; Z  g3 n- i* L) T) h
  58. Duration : 1 h 49 min; X6 {: z2 W1 J0 V; Z
  59. Bit rate mode : Constant8 {3 s( G& p/ ^/ S* w
  60. Bit rate : 384 kb/s
    & G$ u5 C9 v  D! Y& Q
  61. Channel(s) : 2 channels
    : z7 b* l% p) a- k- N3 `8 G
  62. Channel layout : L R
    ' M; J9 p0 _8 ?
  63. Sampling rate : 48.0 kHz
    * N+ b: N9 s( ^, U* G
  64. Frame rate : 31.250 FPS (1536 SPF)$ I+ l# j/ B7 z: n
  65. Bit depth : 16 bits1 q0 o. ?8 @# i5 c  f' x
  66. Compression mode : Lossy
    2 f( T( d  M8 `0 u0 p2 W
  67. Stream size : 301 MiB (3%)
    8 A3 v3 V9 U- I4 X- d: M
  68. Title : Five.Masters.of.Death.1974.CHINESE.1080p.BluRay.x264.DD2.0-FGT
    1 H: W3 C0 Y9 _0 H
  69. Language : English6 K& [! p7 @) }- O  i6 k6 _& o' d
  70. Service kind : Complete Main6 u2 f0 [3 p1 x) p8 i' w
  71. Default : No$ d& p7 a& n1 x. q3 O
  72. Forced : No
    9 y+ x3 O5 e4 {9 o
  73. ) x, C! n2 Y0 C9 l0 E
  74. Text
    ; |9 @) W, G2 E0 C6 S) K
  75. ID : 4% N: Q; M- r7 T$ T
  76. Format : UTF-8' Z% A; q# F! Z; N" f
  77. Codec ID : S_TEXT/UTF88 r" A$ j% g. u3 i  I% K* Z4 }5 C
  78. Codec ID/Info : UTF-8 Plain Text1 H6 J+ ^; N+ D& t4 _9 w9 q, F8 w
  79. Duration : 1 h 46 min
      X! ^+ ~! f$ E5 W" a; x9 K+ N
  80. Bit rate : 26 b/s$ P/ g$ W2 f6 l8 @
  81. Count of elements : 793' G7 |/ }5 }8 L  s, f# T6 X  _1 ]
  82. Stream size : 20.4 KiB (0%)! H* f) u3 t& y+ Z. a
  83. Language : English
    - B$ \" V! ^- m: A) A- R' L9 b
  84. Default : Yes
    * @; l) r  J' S# D' @4 U  Q
  85. Forced : No
    / C* `3 }  H0 k
  86. / N, H, T2 k3 ]' k
  87. Menu
    6 X' v( O% M3 @4 A5 b5 F( h) Z& @; X
  88. 00:00:00.000 : :Chapter 018 P, n( j' }' @7 l# G5 o2 i
  89. 00:00:00.375 : :Chapter 02
    0 d! X7 L4 |. V4 H. x2 D' V
  90. 00:08:28.008 : :Chapter 03: s. g: b4 f; M" I+ t8 D9 L
  91. 00:24:05.110 : :Chapter 04
    / q- W+ g, h+ C) I& M
  92. 00:43:35.530 : :Chapter 05$ J" w) o" U( M. }5 D# U4 d
  93. 01:04:58.269 : :Chapter 06- R  A( B" ?6 j. B1 l4 @
  94. 01:29:54.139 : :Chapter 07
复制代码
% l0 Y& g# y7 Z# S7 q. N! I

! B; Q) ~5 O0 F& t! E( @) L6 O: x* m8 d5 O. n/ s5 h$ L, l5 Q2 y
8 y; N* s7 O  P4 i0 P# n7 M
" u- z' o7 G" T! H' z6 d

# K+ ?+ B1 E: n6 Y. F
游客,如果您要查看本帖隐藏内容请回复  VIP可免回复查看隐藏内容 详情请点击
发表于 2020-2-12 13:55:30 | 显示全部楼层
谢谢楼主的无私奉献。
发表于 2020-2-12 15:18:56 | 显示全部楼层
修复了,牛逼啊
发表于 2020-2-12 15:28:16 | 显示全部楼层
谢谢分享经典好片。
发表于 2020-2-12 16:26:58 | 显示全部楼层
这部电影足够经典,感谢了
发表于 2020-2-13 12:26:10 | 显示全部楼层
可惜没有粵語
发表于 2020-2-14 09:12:40 | 显示全部楼层
还是老片看着过瘾,一招一式,有板有眼的
发表于 2020-2-15 16:32:45 | 显示全部楼层
没看过,只记得新少林五祖。
发表于 2 小时前 | 显示全部楼层
感谢楼主分享经典!
您需要登录后才可以回帖 登录 | 立即注册

本版积分规则

QQ|封号公示|手机版|有问题发邮件到admin#(换成@)hd1tj.org|微博|免责申明|HD一条街

GMT+8, 2020-2-26 14:17

快速回复 返回顶部 返回列表