HD一条街

 找回密码
 立即注册
搜索
查看: 74|回复: 9

[1080p] 金臂童 The.Kid.With.The.Golden.Arm.1979.CHINESE.1080p.BluRay.x264.DTS-FGT 7G

[复制链接]
发表于 2020-2-1 20:24:08 | 显示全部楼层 |阅读模式

马上注册,结交更多好友,享用更多功能,让你轻松玩转社区。

您需要 登录 才可以下载或查看,没有帐号?立即注册

x
6 j4 E& N- _* \, ?) j4 n
                               
登录/注册后可看大图
7 [% _; w) d. F# ]& u

) m% v! z! B: P1 B( e◎译  名 The Kid with the Golden Arm
! A' s1 x# Y) Z; D0 _! r◎片  名 金臂童+ O, u6 l2 O2 j$ V
◎年  代 1979. ?1 }5 [2 ~6 J$ N0 @
◎产  地 中国香港# f  Z2 J* a4 m& p+ L
◎类  别 剧情 / 动作# {. Q1 d; m+ {( j
◎语  言 汉语普通话
7 @. C/ ?4 ^" g% w◎上映日期 1979-11-02
7 _! @5 L4 [  D: v& ^$ }& `◎IMDb评分  7.2/10 from 1168 users- M! {! W. U  `
◎IMDb链接  https://www.imdb.com/title/tt0079372
( ~+ L6 b1 P8 r* E◎豆瓣评分 6.6/10 from 415 users
9 T' Y1 r8 t; ^) d% v& h- X; _◎豆瓣链接 https://movie.douban.com/subject/1307296/
& r, Y, w7 U0 w- X, x) K- d6 X◎片  长 86 分钟/ c1 C3 z, u0 f7 p# X
◎导  演 张彻
. d  C0 B" \3 e( C! Z  R$ L) p* s◎编  剧 张彻 / 倪匡; [, Y! ?5 j! S" \. A* O. C
◎主  演 孙建3 V) \1 {" g2 a7 ~  g
       罗莽
3 ]& n: }" }& c* J  D       潘冰嫦
! y7 R- e9 Y; k" W       江生
, i, x9 [2 N3 y' \       鹿峰" |- g" ]6 ]0 [! r
       郭追
9 G# [  C6 N4 m5 S
2 w4 t. Q* ~5 W  \
3 G3 x7 h1 c  N7 Y3 C2 S% U◎标  签 邵氏 | 张彻 | 香港 | 武侠 | 香港电影 | 郭追 | 罗莽 | 江生) D5 Y) c* K2 i

, }% U6 t6 y4 r& Q◎简  介  
$ ]4 y6 A7 @4 C) r
  m. M2 F$ g/ A/ q1 s; C; g- B  本功夫片由張徹導演,並與倪匡聯手編劇。故事講述虎威鏢局總鏢頭楊虎雲(孫建 飾)受官府之託,押運二十萬兩黃金赴黃河流域賬災,武林豪傑「短斧」方十(江生 飾)、「冷月劍」冷鳳(潘冰嫦 飾)等紛紛前來助陣。當時「七殺谷」中一批武功高強的劇盜,金臂童(羅莽 飾)、銀槍子(鹿峰 飾)等早就佈署截劫詭計,鏢隊幸得「千面神捕」海濤(郭追 飾)沿途暗中出手相助,化險為夷……
  1. Video- s; m! R  X8 s+ w7 L
  2. ID : 17 \+ j2 Y$ @6 E( @) A
  3. Format : AVC* i0 P3 K: ]' P
  4. Format/Info : Advanced Video Codec$ V7 \0 M$ B" G  W1 ^# i
  5. Format profile : High@L4.13 R2 z7 t0 q6 Y' n6 B. @
  6. Format settings : CABAC / 4 Ref Frames
    3 A! {0 k) j: F: l8 f4 c
  7. Format settings, CABAC : Yes5 E6 g$ S2 d" x: h  T2 V
  8. Format settings, Reference frames : 4 frames% X* _1 H2 b% r% j, A7 o; @6 j
  9. Codec ID : V_MPEG4/ISO/AVC
    . w) G) d! E8 N: M& a% _! N! k
  10. Duration : 1 h 25 min  }% E$ i" z, Q* Y! C' _. O) W
  11. Bit rate : 11.5 Mb/s4 B# E7 X5 g- S
  12. Width : 1 920 pixels
    + L* N6 B6 C; I$ g/ e% D9 }8 }+ N7 M! e
  13. Height : 812 pixels
    2 ^( {: G7 Y! ^; u/ d& D
  14. Display aspect ratio : 2.35:1! y! i/ }0 p  s  j( \. z5 Z
  15. Frame rate mode : Constant  ^2 c: H$ S& V& H
  16. Frame rate : 23.976 (24000/1001) FPS
    $ f- v# p+ {, K
  17. Color space : YUV
    " t! F$ z+ z" J- v6 C9 |
  18. Chroma subsampling : 4:2:09 _$ S8 a/ g+ U, t
  19. Bit depth : 8 bits! S* [6 ]; R% c1 j  \6 V  D1 B7 H
  20. Scan type : Progressive
    ) j) m. j6 B  c& |
  21. Bits/(Pixel*Frame) : 0.308/ L9 D. {" `! n/ i; t
  22. Stream size : 6.82 GiB (97%)' j$ v) n0 N- K# m. ?( O3 u+ ?
  23. Title : The.Kid.With.The.Golden.Arm.1979.CHINESE.1080p.BluRay.x264.DTS-FGT1 s" g  {/ a5 I+ O  j! e- ~. ]0 }3 Y1 S# @
  24. Writing library : x264 core 148 r2748 97eaef2
    + F5 f. S8 Q1 R# l
  25. Encoding settings : cabac=1 / ref=4 / deblock=1:-2:-2 / analyse=0x3:0x113 / me=umh / subme=9 / psy=1 / psy_rd=1.00:0.15 / mixed_ref=1 / me_range=16 / chroma_me=1 / trellis=2 / 8x8dct=1 / cqm=0 / deadzone=21,11 / fast_pskip=1 / chroma_qp_offset=-3 / threads=24 / lookahead_threads=3 / sliced_threads=0 / nr=0 / decimate=1 / interlaced=0 / bluray_compat=0 / constrained_intra=0 / bframes=3 / b_pyramid=2 / b_adapt=1 / b_bias=0 / direct=3 / weightb=1 / open_gop=0 / weightp=2 / keyint=250 / keyint_min=25 / scenecut=40 / intra_refresh=0 / rc_lookahead=50 / rc=2pass / mbtree=1 / bitrate=11500 / ratetol=1.0 / qcomp=0.60 / qpmin=0 / qpmax=69 / qpstep=4 / cplxblur=20.0 / qblur=0.5 / vbv_maxrate=31250 / vbv_bufsize=31250 / nal_hrd=none / filler=0 / ip_ratio=1.40 / aq=1:1.00; ?3 P. Z- E9 W  J9 e+ _$ ]) A, j
  26. Language : Chinese
    # u" G0 q# a, {
  27. Default : Yes
    ; u( }7 @: w7 @. w" Z0 W# n0 P/ u" o
  28. Forced : No/ G1 F( l+ m& S. W* V/ G% F/ I/ Q

  29. 0 B+ m& b0 w* P. q0 h
  30. Audio3 c: a9 ~7 P; |- k
  31. ID : 25 e8 o5 q" ?! h" ^0 ~3 [! z" v
  32. Format : DTS
    + J, K; M4 R: }4 b" p2 A
  33. Format/Info : Digital Theater Systems
    . G1 K0 ?# K3 Z0 J
  34. Codec ID : A_DTS& u6 z  d( d, i$ T: z
  35. Duration : 1 h 24 min
    # D& n* V! U9 T" z- Z- |
  36. Bit rate mode : Constant
    8 l9 ?- B+ P, U3 q! O) _- {  W* ^
  37. Bit rate : 384 kb/s. n" Z7 M1 W2 N, |8 V- p' F
  38. Channel(s) : 2 channels
    / @; [: s5 J# J" T4 H" {1 l+ ?7 X& F
  39. Channel layout : L R3 f6 Q5 _) z' I- x; z) g/ J7 Q
  40. Sampling rate : 48.0 kHz  P& J% o$ Y/ f. ^: W/ Q
  41. Frame rate : 93.750 FPS (512 SPF)
    0 b$ `- `+ ]% I; m' ?" ?
  42. Bit depth : 16 bits5 Y6 n* [' E2 F: V  m$ [
  43. Compression mode : Lossy
    , g5 A/ O: T2 O& q$ f$ W& g; n- n
  44. Stream size : 233 MiB (3%)
    & S' }8 `6 O; X5 T
  45. Title : The.Kid.With.The.Golden.Arm.1979.CHINESE.1080p.BluRay.x264.DTS-FGT$ t& j' Z1 `% b1 D2 m* E
  46. Language : Chinese
    ' S- z/ y( h& Z( m$ K
  47. Default : Yes
    ' G+ H+ v9 s% e! G( U* S. g
  48. Forced : No0 f. X1 q# L! j4 j
  49. , @. y6 D  q, H: v  m
  50. Text
    % i! r7 S: ~' I! M! w: U  ~
  51. ID : 3
    % h9 F4 ^5 O# H( e
  52. Format : UTF-8
    ; c: [; [- B' o
  53. Codec ID : S_TEXT/UTF8* c7 \$ p9 D# f9 G7 b0 {; ~$ Q) }
  54. Codec ID/Info : UTF-8 Plain Text
    " k: h  m5 d8 m# Y' E
  55. Duration : 1 h 24 min
    ( c. l, V  U; e& s
  56. Bit rate : 34 b/s! `# h( c% F, F0 E8 w- V
  57. Count of elements : 747. o+ X* t; @; _$ w
  58. Stream size : 21.6 KiB (0%)
    # z$ X; w8 J9 A" `
  59. Language : English# O# K- A( ^  |$ d% W& m8 M
  60. Default : Yes/ D- y/ m  m, X7 C% T" b& t/ H
  61. Forced : No
    5 o. V2 Z/ ?7 t# P8 a& z  i6 U: e
  62. 5 {- [' l$ l1 u! e
  63. Menu
    ) t5 @. G# ]. i0 {4 @8 O
  64. 00:00:00.000 : en:Chapter 01  V3 R  q8 @0 F; }( o
  65. 00:07:20.899 : en:Chapter 026 X$ M# o# m& r
  66. 00:10:00.558 : en:Chapter 03
    . I8 R' u$ o7 }8 z0 X4 u
  67. 00:18:23.477 : en:Chapter 04- x0 F; z+ U8 O6 s/ i1 J
  68. 00:24:20.084 : en:Chapter 05
    " x2 ?* c* A$ z3 d; H  o- D
  69. 00:32:57.767 : en:Chapter 06
    : `$ v/ X7 P9 @- w
  70. 00:41:40.164 : en:Chapter 07. ?5 H" K- H3 k! d0 r; m
  71. 00:48:48.884 : en:Chapter 08
    ) U) v$ W* y7 V
  72. 00:56:17.875 : en:Chapter 09
    3 \3 B: y( e: I% \
  73. 01:02:04.095 : en:Chapter 10
      `* _1 K# X/ f/ g9 j4 n: A
  74. 01:08:27.103 : en:Chapter 11
    6 O* ]; A& w5 a9 u& w, B! l7 a
  75. 01:15:37.283 : en:Chapter 12
复制代码
- f& z# i: a) j" K

8 C. e7 R9 U3 _9 ?! |
) z, S# ?1 H1 J" j* @8 r$ A
2 h1 v* x5 E/ C- i% f, m
7 O! d& M0 Q; ]! z. a( w: q
( g8 B: q* v# S# ?  }9 h# B/ ]3 ~
游客,如果您要查看本帖隐藏内容请回复  VIP可免回复查看隐藏内容 详情请点击
发表于 2020-2-2 00:12:43 | 显示全部楼层
多谢楼主分享!
发表于 2020-2-2 01:50:57 | 显示全部楼层
小时候看《少林达摩》《鹰爪铁布衫》帅呆了,别的动作片印象只有片名了
发表于 2020-2-2 08:22:49 | 显示全部楼层
谢谢楼主分享
发表于 2020-2-2 10:00:56 | 显示全部楼层
啥名字啊这是
发表于 2020-2-2 13:46:38 | 显示全部楼层
这个片还真是够老的,感谢分享。
发表于 2020-2-3 11:15:08 | 显示全部楼层
邵氏武侠片,支持你了
发表于 2020-2-7 11:00:48 | 显示全部楼层
港产老电影支持下了
发表于 2020-2-10 20:29:03 | 显示全部楼层
够老,多謝楼主分享······
发表于 2020-2-14 16:53:17 | 显示全部楼层
收下了   感谢楼主的分享
您需要登录后才可以回帖 登录 | 立即注册

本版积分规则

QQ|封号公示|手机版|有问题发邮件到admin#(换成@)hd1tj.org|微博|免责申明|HD一条街

GMT+8, 2020-2-26 13:58

快速回复 返回顶部 返回列表