HD一条街

 找回密码
 立即注册
搜索
查看: 243|回复: 7

[欧美] 真人秀:时尚的未来 第一季[自带中文字幕]Next.In.Fashion.S01.1080p.NF.WEBRip.DDP5.1.x264-NTb 22G

[复制链接]
发表于 2020-1-31 19:24:11 | 显示全部楼层 |阅读模式

马上注册,结交更多好友,享用更多功能,让你轻松玩转社区。

您需要 登录 才可以下载或查看,没有帐号?立即注册

x
5 @! k& x4 a) X- h
                               
登录/注册后可看大图

3 w9 \% U0 s9 W1 t- ^8 q
0 J- v9 k2 j0 B& c/ |/ M+ O' x+ B◎译  名 时尚的未来$ f. h. |. I8 x" f
◎片  名 Next in Fashion! J$ q$ a+ r- K% j1 t
◎年  代 2020
- ~. U7 q" U/ [' i) n2 E◎产  地 美国2 Y8 _  }. l9 T
◎类  别 真人秀$ `. S$ @9 V+ Y" D' ^/ |: H0 |
◎语  言 英语3 ?3 J0 J; g) Y; k' x+ ?, a& e
◎上映日期 2020-01-29(美国)2 s8 n6 e3 t% f: o1 ^
◎IMDb链接  https://www.imdb.com/title/tt103947705 [5 o4 v9 W& |' B! b
◎豆瓣评分 0/10 from 0 users
+ ~; c/ Z2 m% R* s' w% y% G9 e* {◎豆瓣链接 https://movie.douban.com/subject/33451986/
' u' T/ Q, K% m0 B◎集  数 10& t$ {1 f: F" q; ?
◎主  演 谭·法郎士 Tan France
: t/ |- L  y0 F% `: k! P7 h3 @/ P: I( \       艾里珊·钟 Alexa Chung
. W6 [; K. s6 L2 N
) ^9 D0 x% O* j: k% ]; v1 A
# c  Y. |% S% p◎标  签 真人秀 | 美国 | tan | 粉雄救兵 | Netflix | Alexachung8 m- Z- N% I" y' I9 x$ |, d
4 A( L0 ?/ E- ?* k* v- T; e* O
◎简  介  9 ~" o7 m% n. n5 B8 V

% ]" D8 O1 p' W5 m7 y& J$ ^7 X  《粉雄救兵》五人组之一的谭·法郎士将与艾里珊·钟共同主持Netflix时尚竞赛类节目《时尚的未来》(Next in Fashion,暂译)。Netflix已预订该节目首季,共10集。造型师兼时装编剧伊丽莎白·斯图尔特、Instagram时尚合作伙伴主管伊娃·陈等担任嘉宾。18位时装设计师将为一流的名人装扮。他们将争夺25万美元的奖金,并有机会与零售商Net-A-Porter合作推出系列服装。
  1. Video
    3 F9 w9 r$ _% ~0 \" X
  2. ID : 1
    ' f* K! V' K6 ?
  3. Format : AVC
    2 u: A: m/ v& U7 O/ [
  4. Format/Info : Advanced Video Codec
    * \% T  Y0 ]$ C2 |
  5. Format profile : Main@L4, h* h" }( C9 n
  6. Format settings : CABAC / 3 Ref Frames
    # W" G  X) ]3 \" b
  7. Format settings, CABAC : Yes
    ( K5 L4 j+ ?( |, s8 n  z" }9 @
  8. Format settings, Reference frames : 3 frames' M7 X4 X  D0 p9 D2 v8 @
  9. Codec ID : V_MPEG4/ISO/AVC% q( ]4 e1 H! a. x
  10. Duration : 49 min 39 s8 E7 `+ J2 Y/ a* `
  11. Bit rate mode : Variable
    - |" B" V) w. r9 q/ t9 b" j
  12. Bit rate : 7 500 kb/s* r" B1 }# I" T( Z! [. G
  13. Maximum bit rate : 11.2 Mb/s
    # [1 ]. q! O  U4 ~* Y
  14. Width : 1 920 pixels
    # h. ~  P  E1 Q/ G/ L" m
  15. Height : 1 080 pixels
    8 r2 w4 R% i% S" h* _/ @" O
  16. Display aspect ratio : 16:96 N+ Q9 H% G& g* G" Q
  17. Frame rate mode : Constant8 F, ~4 e5 H6 h6 K* ?+ X: s
  18. Frame rate : 23.976 (24000/1001) FPS6 Q- O/ L' D8 z
  19. Color space : YUV( X; ~% r+ u5 v
  20. Chroma subsampling : 4:2:0) V& s$ ]  y9 d( O) [( `6 Z
  21. Bit depth : 8 bits
    " p- b6 D3 L. i6 M
  22. Scan type : Progressive* e) d0 \4 n2 z, f; H: D4 N
  23. Bits/(Pixel*Frame) : 0.151
    1 Z1 Z& P7 `0 @- h
  24. Stream size : 2.55 GiB (92%)
    . K3 {9 U) V$ T! Z, d7 c3 B. Y2 `! Y2 B
  25. Writing library : x264 core 148 r2715 7e752289 v; b3 m8 \+ n' e# f; L: E
  26. Encoding settings : cabac=1 / ref=3 / deblock=1:0:0 / analyse=0x1:0x111 / me=umh / subme=10 / psy=1 / psy_rd=1.00:0.00 / mixed_ref=1 / me_range=24 / chroma_me=1 / trellis=2 / 8x8dct=0 / cqm=0 / deadzone=21,11 / fast_pskip=1 / chroma_qp_offset=-2 / threads=6 / lookahead_threads=1 / sliced_threads=0 / nr=0 / decimate=1 / interlaced=0 / bluray_compat=0 / stitchable=1 / constrained_intra=0 / bframes=2 / b_pyramid=0 / b_adapt=2 / b_bias=0 / direct=3 / weightb=1 / open_gop=0 / weightp=2 / keyint=250 / keyint_min=23 / scenecut=0 / intra_refresh=0 / rc_lookahead=48 / rc=2pass / mbtree=1 / bitrate=7500 / ratetol=1.0 / qcomp=0.50 / qpmin=6 / qpmax=51 / qpstep=4 / cplxblur=20.0 / qblur=0.5 / vbv_maxrate=11250 / vbv_bufsize=15000 / nal_hrd=vbr / filler=0 / ip_ratio=1.40 / aq=1:1.00
    " u; ?, p+ _3 C2 U6 t! d: u
  27. Default : Yes. X! J6 z0 v# \
  28. Forced : No) F" K3 ~/ z0 d- O
  29. / K% v" |& B& v, V( s
  30. Audio
      o9 @6 W, V# H
  31. ID : 2
    7 s3 m0 ]: x& f6 M3 S  h
  32. Format : E-AC-30 \! c6 l7 Q& }7 n/ [, \. ?& W
  33. Format/Info : Enhanced AC-3
    * [, W( @' w5 P$ B& }2 i  X
  34. Commercial name : Dolby Digital Plus
    $ l# V: Q) D$ z+ M# _
  35. Codec ID : A_EAC3
    # W0 G$ r1 a' u
  36. Duration : 49 min 39 s7 C. `$ y, ?2 o' J
  37. Bit rate mode : Constant
    0 o! k$ W( |1 h: U: d( u3 @# r8 U9 ?
  38. Bit rate : 640 kb/s8 f8 r! w  K  I5 D% P; P) v" C$ T3 _
  39. Channel(s) : 6 channels
    # F! p5 p$ t; _# u4 ?
  40. Channel layout : L R C LFE Ls Rs
    ! i6 a7 l" d+ e4 ^8 G/ B' o
  41. Sampling rate : 48.0 kHz
    - ~1 M# U7 {$ J" y
  42. Frame rate : 31.250 FPS (1536 SPF)8 c0 k; n+ }8 E" c( D7 ]/ y' r) a0 t
  43. Compression mode : Lossy
    2 E7 ~* C' I, v
  44. Stream size : 227 MiB (8%)
    , ?5 u" [5 V7 h) x  O- x! [
  45. Title : English
    ) m( a/ u. V( p$ Z
  46. Language : English9 k- q. J! g) e# T% V, S1 ~
  47. Service kind : Complete Main
    # V2 [2 ~/ C" y, Q, ~
  48. Default : Yes6 V) s, e7 W- Z5 \( h( g& j4 y! A
  49. Forced : No
    $ I6 A1 `$ n( `8 P# [

  50. 8 C* S$ K: H7 p3 u5 p% B9 A
  51. Text #1
    2 U0 c: p8 [+ y: F' r% Z$ k
  52. ID : 36 Q) U$ w. e; V% [2 O9 {- e* l1 I
  53. Format : UTF-8
    ! ~7 d, @3 J" N: ?* H& v
  54. Codec ID : S_TEXT/UTF8. Y1 T5 R9 z: a( m8 l
  55. Codec ID/Info : UTF-8 Plain Text
    3 |3 G( U! k+ I; h" X; D2 Q
  56. Duration : 41 min 15 s
    9 G! u0 v/ w! f8 G+ ]; N0 D
  57. Bit rate : 1 b/s0 d! D- t% ]/ M! A1 u' }
  58. Count of elements : 122 M  {" s  M4 H7 z, j
  59. Stream size : 354 Bytes (0%)
    ) y4 G1 \% |6 k+ d. Z
  60. Title : Forced
    * I' N7 Z* W2 ?2 y$ F4 `' _  n4 a
  61. Language : English& J% r% ^, `. A6 ]5 \
  62. Default : Yes
    ( E7 ?0 y2 q6 h+ p5 ^) B1 L
  63. Forced : Yes
    . |2 y) s5 |) u$ y+ n

  64. 3 K, b: b: |# j5 T* |/ f
  65. Text #2
    / s& A1 o! @1 d: t4 o. d
  66. ID : 4
    - Z! x2 J# P$ e, D. o4 H  o
  67. Format : UTF-8
    5 T& n/ Y: P  Q" |7 n& h
  68. Codec ID : S_TEXT/UTF8
    : Y3 j9 v* n; Z9 U
  69. Codec ID/Info : UTF-8 Plain Text
    : |3 Y5 n$ L' a! X0 z
  70. Duration : 48 min 7 s
    & w8 u" u! b8 y, j" d
  71. Bit rate : 110 b/s
    1 j' i& z# K! |. x
  72. Count of elements : 904. s$ [0 x* c/ B  ?4 y3 ]% ^
  73. Stream size : 38.9 KiB (0%)7 z$ e  n4 C- U! n. c) C7 o. @
  74. Language : English9 V! O( l2 G" i2 M7 @  ?8 Q
  75. Default : No
    6 f9 a: \/ o$ p' S9 d
  76. Forced : No
    * u! X1 A* r* f) f: o
  77. + ?. c. t" B* M! Y6 P& l6 i
  78. Text #3. x1 A. w# f, _% r
  79. ID : 5& h1 {5 o. V+ x3 @
  80. Format : UTF-87 V5 r: l: M; Y3 s4 T$ ^( I$ w: `: B/ C" t
  81. Codec ID : S_TEXT/UTF8
    5 H1 ?$ A  {. b3 x
  82. Codec ID/Info : UTF-8 Plain Text1 {3 m" Z% p% W0 G8 K8 u' q
  83. Duration : 48 min 14 s4 `1 B3 h+ J4 a  ^+ j9 _
  84. Bit rate : 115 b/s  G5 i; e" I' @$ Y( _
  85. Count of elements : 943
    , U* l; m/ j8 D7 d; B; I- d6 O
  86. Stream size : 40.9 KiB (0%), J$ W) G9 a9 U2 X- ^6 f
  87. Title : SDH1 l7 [  b- d: E6 Q" c4 j; _- v
  88. Language : English
    / X. ?3 z. ?# d9 H
  89. Default : No  [# \, k7 F; b7 C
  90. Forced : No
    - V3 j  G( _2 t; v4 u0 k
  91. : b* i3 h. `6 v. b3 a- u
  92. Text #4
    ! h, Y1 r- r7 k- n
  93. ID : 6
    # e* d; w/ W6 A  i9 q( |& q, e8 }
  94. Format : UTF-8
    % ?' ]7 s+ z  ~) H' t& s
  95. Codec ID : S_TEXT/UTF86 d: t2 B5 |+ F9 N4 l4 l# p
  96. Codec ID/Info : UTF-8 Plain Text
    5 ?/ [  V7 ]6 ^- i
  97. Duration : 48 min 54 s
    8 }: k4 Z, R1 U: g7 c
  98. Bit rate : 172 b/s
    & S& E" c. N  c: A1 M0 N
  99. Count of elements : 916
    5 G7 c  V) J8 ^1 [8 I
  100. Stream size : 61.8 KiB (0%): l4 l. n) g- I; E
  101. Language : Arabic% n7 ]% P' l9 M0 p
  102. Default : No
    4 v: y5 F. S  p- W# w9 P# `) P
  103. Forced : No! E7 X) R" U; y3 x8 F

  104. ' m& v7 i6 L; n
  105. Text #51 I( i5 d6 d/ a& c$ k
  106. ID : 7
    & {6 Y2 u: w* M, D' Q! y
  107. Format : UTF-8
    0 X. T( j8 D) v, p. ?
  108. Codec ID : S_TEXT/UTF8
    / c3 ?& G; U6 H$ h( p. Z% r! b# C
  109. Codec ID/Info : UTF-8 Plain Text
    6 L4 G: Q, q2 S( j3 b, B" G
  110. Duration : 48 min 54 s
    + q+ z; K& g1 ^
  111. Bit rate : 88 b/s: K) r: u. E$ `7 A4 E' f
  112. Count of elements : 8768 v$ M- M1 k  @' ?
  113. Stream size : 31.6 KiB (0%)
    4 A7 Q) j5 Y- n8 l
  114. Language : Czech* F0 O/ p. z. N# L4 P
  115. Default : No
    9 l: C+ [8 a) C1 q! s" w/ Y2 x
  116. Forced : No1 m2 X; A' ~* m0 V" V' w

  117. 1 \, a8 ]; r" c; \
  118. Text #6- D& \( c: [' j) [3 G$ @: W* ^
  119. ID : 8, A9 w2 }6 W0 L
  120. Format : UTF-88 R* I6 {8 H/ r, e
  121. Codec ID : S_TEXT/UTF8
    0 g0 M6 t" f) R& ]
  122. Codec ID/Info : UTF-8 Plain Text6 Y5 h1 Z$ @: N# e! l" P8 d
  123. Duration : 48 min 54 s- i/ E, o6 d# F- o
  124. Bit rate : 95 b/s+ D" W5 F3 k$ u, n
  125. Count of elements : 889$ f' }% g  o' ~5 y
  126. Stream size : 34.1 KiB (0%)
    / M' r8 X% C# \$ z6 t' C* A) y
  127. Language : Danish
    $ N' Y/ p" _0 k0 E0 S
  128. Default : No
    + x) `5 i! {& o
  129. Forced : No
    ) a% B" T4 {: h2 {6 Z9 i# W
  130. 6 M4 F  C% }, o5 K
  131. Text #7
    : A- L1 [* ?& h3 L+ t) R
  132. ID : 9
    5 A' u6 _0 j/ G0 e$ I; C
  133. Format : UTF-8
    ' O  y8 n4 G5 [% P7 I! P' F
  134. Codec ID : S_TEXT/UTF8/ x% \$ E- N9 p1 _
  135. Codec ID/Info : UTF-8 Plain Text0 C6 v1 L+ S, D8 @
  136. Duration : 48 min 54 s0 s  {8 N( C& ?7 A. r0 B& V2 ^6 p
  137. Bit rate : 96 b/s6 M* X4 w& X, Q
  138. Count of elements : 888
    9 x' ?0 a; b  n; s
  139. Stream size : 34.6 KiB (0%)
    1 C4 [# P2 o3 o' S5 v7 d. k" |- O
  140. Language : German% [% _! f; z  r& m
  141. Default : No
    " a8 c; b, \. T! A) s
  142. Forced : No
    8 z3 V6 }# w" S
  143. * }# [5 n, _, W( e
  144. Text #8
    8 d' {, Q7 C3 m6 p! o2 d2 }* y
  145. ID : 10' X/ l6 t: N9 i9 K. m
  146. Format : UTF-8$ B" K3 K0 y# L; ^
  147. Codec ID : S_TEXT/UTF8
    - F. n( K: q5 k1 Y- K$ F/ T
  148. Codec ID/Info : UTF-8 Plain Text
    3 b! l; J0 c: @1 l+ C: `8 b# L
  149. Duration : 48 min 54 s1 P: e  y1 A  f) a
  150. Bit rate : 157 b/s
    - p1 V$ j( e# M3 J2 o  ~5 r
  151. Count of elements : 875' r+ }$ p! t4 S1 S: B+ Y- i: w8 Q
  152. Stream size : 56.5 KiB (0%)
      _" X/ P) [# E
  153. Language : Greek
    : S0 C! r  ?# H5 l/ |' [
  154. Default : No
    % ^5 h2 H- k6 J) M, S9 R
  155. Forced : No
    ! X, H& T- r5 y* p/ V/ L2 c0 ^; ?
  156. 0 h  |) Z8 a1 d9 m
  157. Text #9
    & r5 Q7 U' n% T
  158. ID : 11% P) B/ s/ k. F! A" O8 K
  159. Format : UTF-8
    . }# _6 w. `) Z" E
  160. Codec ID : S_TEXT/UTF8- Q3 F! k1 P; @+ P! \
  161. Codec ID/Info : UTF-8 Plain Text
    2 h8 I" L% C0 Y7 ]. T; r4 ?. W5 F, @
  162. Duration : 48 min 54 s
    + [. _* B& J) s; M  S
  163. Bit rate : 91 b/s
    7 z% R. R& V; g. j% T
  164. Count of elements : 8401 x; A& b/ a' h4 B
  165. Stream size : 32.7 KiB (0%)) o1 ~( d3 m! ?! B' D, Y$ V
  166. Language : Spanish  l$ c) t* m$ B1 v" u# D$ ~
  167. Default : No
    ) I9 v4 P# q) g; l- ~
  168. Forced : No
    % U8 F2 T. \8 q, [- I  \: t1 j

  169. . K& X4 a2 p) U- a
  170. Text #10# L" c, a# o4 n. e
  171. ID : 121 R  Y$ M& z1 k! {7 e
  172. Format : UTF-82 @: g& N% F: n$ U! Y
  173. Codec ID : S_TEXT/UTF8  Y- u2 U9 z) M
  174. Codec ID/Info : UTF-8 Plain Text# Q/ P. M8 T6 C$ p& o5 [. ^# X
  175. Duration : 48 min 54 s5 O9 a* Q+ I5 o7 _2 p
  176. Bit rate : 94 b/s
    / T: F. V' j5 b* `& r+ L
  177. Count of elements : 918* Q5 @2 @) j8 J' L. U
  178. Stream size : 34.0 KiB (0%)+ [8 b/ H1 f/ r) N4 F6 b- l
  179. Title : European
    & x# b1 q1 ^/ s; r/ g8 P
  180. Language : Spanish
      N" ^6 f) u/ t  y% \* P
  181. Default : No! ?3 _# J! X/ b3 h
  182. Forced : No, s! m: ^: K7 }0 T/ K- k
  183. # `$ c6 ]' D# ]2 A' d
  184. Text #117 X8 k6 O; _: T; e, f( ^/ A, _" O. L
  185. ID : 13& h. z2 k. M" y! ^+ P
  186. Format : UTF-8
    / Z; X. V# _1 l/ \6 O; o
  187. Codec ID : S_TEXT/UTF8
    8 @- j/ {0 s' q6 k7 t3 h
  188. Codec ID/Info : UTF-8 Plain Text& }( ?) n8 R' Y6 A+ K& }2 ?
  189. Duration : 48 min 54 s
    8 ]0 i/ q2 e7 v/ w; ^& K
  190. Bit rate : 106 b/s2 r1 _1 S. i9 A7 v! n
  191. Count of elements : 899% y; C+ ~1 e0 X; E$ H& r
  192. Stream size : 38.0 KiB (0%)2 a$ s0 a+ X5 x. l" b+ D- T
  193. Language : Finnish3 ?( @( b7 V( U/ a
  194. Default : No
    ' O4 @# z  m* G: A% z7 v
  195. Forced : No
    " Y+ A+ G) P/ i
  196. 2 \7 ]& l. e! y1 I- F3 S
  197. Text #126 U/ D' N  e* k! T
  198. ID : 14
    ; _/ u* b0 ?. _- ?
  199. Format : UTF-85 [: v9 N. M" _4 [, J4 l6 w% h
  200. Codec ID : S_TEXT/UTF8
    / Q6 }" z- y8 d( v0 ?+ c
  201. Codec ID/Info : UTF-8 Plain Text
    2 B  h# S  A  }' U5 e
  202. Duration : 48 min 54 s
    / ^6 o. T- L+ g/ V2 ^
  203. Bit rate : 100 b/s3 Z7 _4 t1 Q7 j2 i! N4 o7 g
  204. Count of elements : 905
    3 Y8 h# R) |1 _( E/ L
  205. Stream size : 36.2 KiB (0%)
    . m: |8 e" q# m) ~$ y9 o
  206. Language : French
    " `5 M: q+ S7 ]6 V/ b2 h' u
  207. Default : No9 O2 |+ Q$ s- O- x3 ]' Q* f0 \* ?
  208. Forced : No
    # Z- u% F. D8 Z! P. _0 b4 p

  209. 3 b! O% S2 w& z$ m3 ]. |( J* C
  210. Text #13
    , X+ h, h/ P0 s1 v+ g$ b
  211. ID : 15
    & j, k4 s( j4 o2 F9 a3 E
  212. Format : UTF-8
    # m8 T) K8 V  w# }' Z+ S
  213. Codec ID : S_TEXT/UTF8
    5 C! n: `. V; J5 X# v, i
  214. Codec ID/Info : UTF-8 Plain Text
    ( Q+ M( Z: O' O( v, q% U8 Y
  215. Duration : 48 min 54 s; H+ i5 v7 p4 ]. m% `0 f
  216. Bit rate : 153 b/s
    - I/ A0 n2 R9 y- \, D* _( m9 W% }4 f
  217. Count of elements : 912
    + N% V3 ~) x3 X. K$ ~/ K( }6 q( c
  218. Stream size : 55.0 KiB (0%)
    / K9 h1 C8 n) u: x" O) d
  219. Language : Hebrew
    , P: {0 v' N+ `
  220. Default : No
    : Y% s( I% s3 F7 Z. w) t" y
  221. Forced : No- x/ _" x: v$ H$ m0 k$ s
  222. + N' T8 p. E% C! ~" Z
  223. Text #14
    . p9 K$ h. x7 G5 a
  224. ID : 16
    ! c. z0 f1 v& A2 {
  225. Format : UTF-85 e: X! J# m. V  r
  226. Codec ID : S_TEXT/UTF8, M! b1 F0 |. T# q# f3 K9 b5 u0 K/ p
  227. Codec ID/Info : UTF-8 Plain Text+ s* a" p' Q& K
  228. Duration : 48 min 55 s
    5 T" T0 o* N; k
  229. Bit rate : 93 b/s
      }+ S: L( Q& x& a0 S- ~3 x7 h
  230. Count of elements : 914/ Y' P- E4 V+ F& o, Y! ~+ |- i
  231. Stream size : 33.4 KiB (0%), t) G+ S' q) u; U) ]& n6 d' R& z  G
  232. Language : Hungarian
    * i+ s. ?/ \% O& G* }
  233. Default : No
    ( Z; W+ i7 P. K4 l, v& w6 w6 u) p# H
  234. Forced : No$ x- B1 F! H( C

  235. 5 c& {8 q! c* h6 O; N" i
  236. Text #15
    ' o6 K/ K& h7 g  ^
  237. ID : 17
    ' P- b, u4 N2 N
  238. Format : UTF-8
    4 ]7 c6 L! p$ f  ^. W
  239. Codec ID : S_TEXT/UTF8: E% c% v, D# W- L3 e5 A) ]
  240. Codec ID/Info : UTF-8 Plain Text" j) k, {+ t9 `5 U+ m
  241. Duration : 48 min 54 s
    . }6 P+ @' g( T
  242. Bit rate : 98 b/s8 T/ h5 v- ~  j3 U# Y
  243. Count of elements : 916
    ( w% N- D5 {; u) V
  244. Stream size : 35.2 KiB (0%)
    + W3 F# w* C& C( G- ^
  245. Language : Indonesian. L8 ]& e* r# r) N" `+ _" x( h
  246. Default : No
    0 z/ D4 h+ N4 g- V. h/ N
  247. Forced : No$ D* \4 ^. Z7 N5 \" g

  248. - w; k- R8 H' N6 }
  249. Text #16
    ( T" t6 s, t- ?
  250. ID : 18  m( U  W" `, ^, K3 ?. \
  251. Format : UTF-8
    % i3 W. n4 o; h3 ~; t
  252. Codec ID : S_TEXT/UTF8
    9 c' `: s$ ]$ f
  253. Codec ID/Info : UTF-8 Plain Text2 x6 X4 D* k# c5 J
  254. Duration : 48 min 54 s' T4 ]" i; P. C4 \# X
  255. Bit rate : 95 b/s
    $ Z5 ?8 @$ l& s/ M
  256. Count of elements : 841; G5 P/ R$ t* C8 C
  257. Stream size : 34.1 KiB (0%)" D* Z9 f- ]$ m/ R
  258. Language : Italian
    3 E) u. e. A9 K4 `5 u8 Q
  259. Default : No
    % e% x5 x. N- S# d
  260. Forced : No
    , A4 U% C+ C' E4 \! i: W

  261. 3 O2 V" k) w! r4 t# X7 t
  262. Text #17( G0 j1 o' G/ B
  263. ID : 19$ ]+ \0 P' l/ `
  264. Format : UTF-8
    + U3 |5 V4 l6 m" ~
  265. Codec ID : S_TEXT/UTF85 T/ N+ |0 Z' y' _- h  Y
  266. Codec ID/Info : UTF-8 Plain Text4 P. Y7 ?5 c! ~$ O* O
  267. Duration : 48 min 54 s
    / F, R/ T+ m/ k& v( @
  268. Bit rate : 98 b/s
    ' F  }7 A9 h# s$ X/ M6 r
  269. Count of elements : 1056( @8 B5 d* m& ~+ M
  270. Stream size : 35.3 KiB (0%)7 D8 }2 w) h; U: x& I
  271. Language : Japanese8 L5 @; Z, s) O3 z0 Z
  272. Default : No
    & L3 H6 s6 W' ]! w. }  b
  273. Forced : No
    , t5 k5 ^, P: X# A# A
  274. * h/ f, T' y* r* w6 u8 v6 i& _: ]
  275. Text #18
    5 k- C2 T- P6 `4 H
  276. ID : 20
    5 n" m5 ~+ i' F3 B8 }
  277. Format : UTF-81 z5 }. {; M7 x$ s. j8 g1 q
  278. Codec ID : S_TEXT/UTF83 W: r+ e$ N5 j) T
  279. Codec ID/Info : UTF-8 Plain Text
    - C  p/ R# d1 s/ S" t6 u7 h
  280. Duration : 48 min 54 s
    / N! Y1 u* M$ j4 V3 A3 K! q- ]
  281. Bit rate : 131 b/s
    4 B9 A- H0 Y" _: R5 M6 F& M* o. r
  282. Count of elements : 934
    2 v9 s& z5 w4 \) d
  283. Stream size : 47.2 KiB (0%)) P9 N$ p. G* f
  284. Language : Korean
    + H0 [6 f, x2 |  h( R/ s* q
  285. Default : No
    , |; A& A) f7 g/ q1 p! O3 f2 Z
  286. Forced : No. v) T9 Z& s1 X% O; F# q

  287. * i9 z, x3 P, S2 P
  288. Text #19
    * h1 E" m4 [6 }! T
  289. ID : 21
    - Y; \  `  _* S# c# _
  290. Format : UTF-8
    9 j" u9 f6 P, E* q& ?- E3 O4 g
  291. Codec ID : S_TEXT/UTF83 u/ H; I8 j8 M( U, X
  292. Codec ID/Info : UTF-8 Plain Text- y, P8 }% P# v
  293. Duration : 48 min 15 s# e; e  a; o' J0 g* N
  294. Bit rate : 92 b/s
    * g; a0 H! F8 p& q  d% u
  295. Count of elements : 766  y3 a# N- c5 v# k5 F3 q
  296. Stream size : 32.8 KiB (0%)* f% o, }6 z( Z9 q
  297. Language : Norwegian Bokmal, o0 B0 z  C& Y) z) j
  298. Default : No1 o0 s! Q1 U3 U! Q3 Y- ]+ Q
  299. Forced : No8 g9 ]  H4 d* F

  300. ' |% |5 V# K) w" B
  301. Text #20
    * d& m/ b4 B7 O& H- _% z
  302. ID : 22
    $ r  O# K4 \; O/ Z# C# c
  303. Format : UTF-80 m8 f' R4 F" U
  304. Codec ID : S_TEXT/UTF8  ~+ Y- t# G* [% X1 x
  305. Codec ID/Info : UTF-8 Plain Text4 o8 w& q' |$ S4 A
  306. Duration : 48 min 54 s
    # h' x; V5 l4 {1 z8 v, }
  307. Bit rate : 81 b/s. R( k6 y4 s& {: x
  308. Count of elements : 827  f* M2 v  g& E* D% B! o; p3 o
  309. Stream size : 29.1 KiB (0%)
    % ?1 L- q* P* Z
  310. Language : Dutch6 j& N4 j# m, p% V4 ^; |( y
  311. Default : No
    : X+ k" g/ \3 W; o0 V$ S
  312. Forced : No
    3 Z: C6 Y4 i7 G, T% i/ r8 v& F5 ]

  313. ; L: @- K: o' l4 Y( d
  314. Text #217 x" _4 t6 ~) v" E% L( V) E
  315. ID : 23, S0 h: u2 I! K# A3 A+ i
  316. Format : UTF-8
    . t9 h+ r4 J$ U1 @# L) T& m
  317. Codec ID : S_TEXT/UTF8% H. p  y* [( z" M
  318. Codec ID/Info : UTF-8 Plain Text  P9 d5 u3 N% Q2 _) }) ~9 W4 c
  319. Duration : 48 min 54 s
    0 y) z. E* Q0 A1 u. s5 w
  320. Bit rate : 85 b/s
    9 ?6 Q2 N! i, E: J( ~" M2 j
  321. Count of elements : 9128 @4 S( L& F9 W* J7 C( w1 |
  322. Stream size : 30.8 KiB (0%)
    - P3 t% E/ Y6 `7 f! ]5 g
  323. Language : Polish  m4 v  a* z9 y& I1 [
  324. Default : No
    # K) m2 y# J" i- ~; l" g1 p
  325. Forced : No
    ! ^$ o5 A' Z" N& i& r
  326. 6 ^7 v% `- L, }/ P1 O
  327. Text #223 N) L7 @) g- M* i2 W+ K' A# b
  328. ID : 24
    . |8 z) s! i1 _0 h! E( }
  329. Format : UTF-83 ?4 |7 ^4 ?) c. c2 b0 l
  330. Codec ID : S_TEXT/UTF8; ?! P0 t/ Q" m6 l- P2 V
  331. Codec ID/Info : UTF-8 Plain Text
    " C* I# T. x/ r$ ^  W0 e) k( e) e
  332. Duration : 48 min 54 s! t" M6 A9 u. C$ O& q7 u/ Z2 K
  333. Bit rate : 102 b/s5 ~7 @8 [4 L& o* Q
  334. Count of elements : 8765 L8 n" F8 l6 Y) o- c/ f9 j4 a
  335. Stream size : 36.6 KiB (0%)
    ( T! u1 ^7 R8 g/ C' A
  336. Language : Portuguese0 W  p# y% H4 x# s8 _
  337. Default : No
    / ^  \) s: i3 J$ f& U
  338. Forced : No; K' a: T$ q% L! i' W- ?2 o
  339. 3 d* m# z9 X' t0 s/ z6 e# Y& E: e. R
  340. Text #23
    9 z6 ]* ~$ J# c
  341. ID : 25# ^7 w, w; x3 W. i5 ]' S
  342. Format : UTF-89 t: h4 ^" ~* T
  343. Codec ID : S_TEXT/UTF8
    4 z+ |4 D5 J) N3 X2 r0 Y: n2 b
  344. Codec ID/Info : UTF-8 Plain Text
    # K2 _" T( B- A: l; S# p
  345. Duration : 48 min 11 s4 J: D9 j. b9 Y! {. f9 R3 H" @! ^, Y
  346. Bit rate : 97 b/s# n, ^% i. x  |% c" h: N/ G
  347. Count of elements : 874
    / p8 s! P' l* N" b7 s
  348. Stream size : 34.4 KiB (0%)  y% A) q8 b! ]; @0 i
  349. Title : Brazilian
    " O  U# @" }' d6 r) M' B
  350. Language : Portuguese0 F* J9 k! k, W7 |9 T
  351. Default : No, T; `5 x/ G, d9 b& a- w
  352. Forced : No
    4 @5 v% H! @6 e* `; {
  353. , S+ r0 i8 O+ c8 o2 Y4 x& G6 R
  354. Text #24' [2 y! l" j4 ~9 v1 C% H
  355. ID : 26
    / Z' \8 P9 t) M( i4 m" \
  356. Format : UTF-8
    1 `. [; V9 Q, Z/ C+ q
  357. Codec ID : S_TEXT/UTF8
    : v  ^+ W* U) \
  358. Codec ID/Info : UTF-8 Plain Text/ i7 @) s; ~$ F% M3 c; s3 Y
  359. Duration : 48 min 54 s2 v2 s8 E" A! I0 Z
  360. Bit rate : 110 b/s
    0 {2 Q; S3 ~! I. _8 E
  361. Count of elements : 916
    " T- r. y0 D% ?  G
  362. Stream size : 39.5 KiB (0%)+ r+ R6 V+ L( k- x  Z# }# j
  363. Language : Romanian* O& }" q% |! ]4 d5 O  p- U9 K
  364. Default : No
      s5 r0 k, P  G
  365. Forced : No
    " u7 ?' p& \% `% s

  366. 0 P" Q. f  L& a" ]. e
  367. Text #25
    , u4 O8 B* W8 h. y9 o
  368. ID : 278 `; \% v3 r' o1 p0 n
  369. Format : UTF-87 N: j3 ]9 ?( z+ P" W: J
  370. Codec ID : S_TEXT/UTF8
    $ v3 f- f. w2 G% w) Z% ^1 P
  371. Codec ID/Info : UTF-8 Plain Text
    . y2 ]& z) v0 Y4 _3 j3 a* K4 i
  372. Duration : 48 min 54 s
    6 k; e- K: g. U! B, y
  373. Bit rate : 144 b/s
    % V9 O6 }  M0 i" ]
  374. Count of elements : 912
    1 _% |+ o( N9 k
  375. Stream size : 51.8 KiB (0%)
    % L0 u, |! {0 K& |0 S+ E
  376. Language : Russian
    + k$ f1 O5 Y5 `5 i7 N: w
  377. Default : No
    " i! Q! J. n) r# y% G
  378. Forced : No. F) \4 o9 E. I, v

  379. ' c" i- A& O3 u
  380. Text #26
    ! _8 j! w# ], L. i
  381. ID : 280 {3 p2 E# j1 J8 W5 [; d- \5 b
  382. Format : UTF-8
    . ^8 N# u; g" [. j: j
  383. Codec ID : S_TEXT/UTF8
    ; j# g6 }4 v1 O) I) J* c# i( G
  384. Codec ID/Info : UTF-8 Plain Text3 ]& _7 c. ]& H2 T4 q, Y" y; ]- j
  385. Duration : 48 min 54 s
    6 E) q( O" x! Y( }, I
  386. Bit rate : 95 b/s
    ( G4 S& v- u# K8 l" H! l5 W
  387. Count of elements : 897
    4 Q1 i; V9 y% Q6 q4 E4 v
  388. Stream size : 34.3 KiB (0%)
    / k8 R9 y( {; R9 M
  389. Language : Swedish
    5 `. S" [  L% o: N2 n
  390. Default : No
    " l* c/ ]# k1 O5 S, q
  391. Forced : No& j- K0 i! ^& M/ i& s, T* E

  392. % B( P3 G! p, N) @5 K: |" p. w1 H- n
  393. Text #271 b( J, x" q3 G
  394. ID : 29
    8 Q1 A, g" X; a: B
  395. Format : UTF-8! m! f. R4 b( Q- _: r
  396. Codec ID : S_TEXT/UTF8( C7 d" Q' e  j1 o( b& F6 x
  397. Codec ID/Info : UTF-8 Plain Text; A3 y/ _) G0 e5 L4 W
  398. Duration : 48 min 54 s; Y0 s2 `. _$ o4 [4 Q( F
  399. Bit rate : 255 b/s' w. ~# O  S% d0 T. q  C# {' Q
  400. Count of elements : 9164 v1 h% k- Q# U9 U' k9 u
  401. Stream size : 91.6 KiB (0%). H5 N  Y/ y# t( {2 A. n$ f* h
  402. Language : Thai* i; p( {4 |3 Z" a' I5 _
  403. Default : No
    6 J9 y6 z9 T' J* V% ^0 s
  404. Forced : No
    2 I4 b9 J( M9 @

  405. ! Y, X% e& ]) x+ U0 }" n1 m1 K
  406. Text #28
    , i4 i; z. r6 f, `# g( G
  407. ID : 30
    0 ]' j7 U! s7 g% S) t% s6 l
  408. Format : UTF-8. n+ U( i+ s# E- n; r( M! v
  409. Codec ID : S_TEXT/UTF89 }* S: W+ Y7 P& N" l, k  J
  410. Codec ID/Info : UTF-8 Plain Text
    $ |! {# A1 ]( H1 r
  411. Duration : 48 min 54 s+ M( |- k5 W" h% A* {  w5 r* n* M
  412. Bit rate : 97 b/s+ `% C+ |6 V  W( S% |; Z
  413. Count of elements : 900# a7 X* o0 o& ~7 ?0 a, g
  414. Stream size : 34.9 KiB (0%)0 O8 P& f5 [7 M; }, g. \
  415. Language : Turkish* P) e' M) M! O* m1 l& b
  416. Default : No- z9 ^) V& h# s2 N
  417. Forced : No
    / j7 J" a% [: ]; I  L

  418. ! W6 @7 g2 Q3 c, ^! T& C
  419. Text #292 {7 d5 J1 s, z) b7 k3 V
  420. ID : 315 x9 O: n+ k( f5 R
  421. Format : UTF-8) k9 ]# B. `8 T4 L& P
  422. Codec ID : S_TEXT/UTF8# X* v/ [# v0 x3 c# f1 ]# a, D! S
  423. Codec ID/Info : UTF-8 Plain Text
      D. a# ~( V" }) H/ c
  424. Duration : 48 min 54 s6 _3 O( v1 j. A1 W, g) B( a
  425. Bit rate : 138 b/s* K2 |6 k- e$ E: U) B
  426. Count of elements : 898
    " ^& s- o6 }+ Z* L; r9 R4 I: Y
  427. Stream size : 49.6 KiB (0%)% P7 e- ~  t$ |* x: r
  428. Language : Vietnamese7 m; H' q: C" N
  429. Default : No' a& |7 T4 w" K0 P2 [
  430. Forced : No) q' {- A8 T. A8 o1 {9 e
  431. 2 o! O  ^) ^* T! S! d; y3 n
  432. Text #30) K$ I7 I0 U, Q$ s" L' A6 j0 E% X
  433. ID : 32- L* w% }$ A' i
  434. Format : UTF-8
    $ R& H0 C; X/ ]) x  {: L% A
  435. Codec ID : S_TEXT/UTF8
    1 F8 P( B3 W% E2 ]4 {
  436. Codec ID/Info : UTF-8 Plain Text
    * c" R0 H7 X) D8 R
  437. Duration : 48 min 54 s  A3 E0 a* f/ P6 d/ A' v. j
  438. Bit rate : 105 b/s4 s' ^! h6 a+ c& T, {3 D
  439. Count of elements : 916( j6 s$ F4 w4 j: z4 B5 R2 f
  440. Stream size : 37.9 KiB (0%)6 F/ K7 _* E: {( H
  441. Title : Simplified" F) X' i$ S/ d! e6 y
  442. Language : Chinese. R" A# L; V' d4 g& s3 l: P
  443. Default : No
    ( ]! U9 Q8 o/ Z+ K6 u. o# u: y7 C8 e
  444. Forced : No" ]+ ]' P7 ^+ Q

  445. / Q' [- V) ]: B5 s1 d5 E2 I$ o3 M
  446. Text #31
    6 l8 w2 ^' J  E# D3 M5 \
  447. ID : 33; @1 a& D# r, H  `; E+ K
  448. Format : UTF-85 ~, L9 Z$ w6 L2 F
  449. Codec ID : S_TEXT/UTF8: H) ^/ h; n, a' E
  450. Codec ID/Info : UTF-8 Plain Text9 Y+ S! B' V0 d0 O0 l
  451. Duration : 48 min 54 s
    5 b) q+ i6 Y! V8 S+ h
  452. Bit rate : 95 b/s
    1 h7 u6 }' j# E) U
  453. Count of elements : 921) [( r& h) }/ K  n2 p, w# b
  454. Stream size : 34.2 KiB (0%)
    % p# B6 ]2 W! l* F7 j, G; c
  455. Title : Traditional  v. g" g" ~! [* X! O. x: A
  456. Language : Chinese5 y' y" ?# e  P0 Q: K) `: o
  457. Default : No# l! R& C7 M9 F
  458. Forced : No
复制代码

% A, i; b& e! T" r# d2 ^0 B  W
/ J: m5 g5 J0 T3 b
0 _6 B+ ]3 j* D* L% `* M3 a
0 A, j! V, X  o8 l; _+ v; ~. |; r% l) R
. h3 N0 y0 ?' ~* r' M9 V* Y
游客,如果您要查看本帖隐藏内容请回复  VIP可免回复查看隐藏内容 详情请点击
发表于 2020-1-31 21:07:43 | 显示全部楼层
always good shairng
发表于 2020-2-1 13:02:05 | 显示全部楼层
谢谢分享了啊
发表于 2020-2-4 00:12:51 | 显示全部楼层
为何没有美国达人秀的资源。。。。好想看
发表于 2020-2-7 12:23:45 | 显示全部楼层
外语节目先收下了
发表于 3 天前 | 显示全部楼层
Thank you so much
您需要登录后才可以回帖 登录 | 立即注册

本版积分规则

QQ|封号公示|手机版|有问题发邮件到admin#(换成@)hd1tj.org|微博|免责申明|HD一条街

GMT+8, 2020-7-9 21:41

快速回复 返回顶部 返回列表