HD一条街

 找回密码
 立即注册
搜索
查看: 85|回复: 6

[欧美] 真人秀:时尚的未来 第一季[自带中文字幕]Next.In.Fashion.S01.1080p.NF.WEBRip.DDP5.1.x264-NTb 22G

[复制链接]
发表于 2020-1-31 19:24:11 | 显示全部楼层 |阅读模式

马上注册,结交更多好友,享用更多功能,让你轻松玩转社区。

您需要 登录 才可以下载或查看,没有帐号?立即注册

x

& m7 h, Z' f, x  a; t9 I                               
登录/注册后可看大图

3 b: [4 v$ @8 K9 n/ J9 ?7 s, v4 ?- l( p  j: |! E1 p: o! i! r
◎译  名 时尚的未来8 n/ U: w) A5 M" u) i- S0 ?
◎片  名 Next in Fashion
8 o; h2 T) Z* J  T) |6 T8 Q2 H◎年  代 2020. A" T, T! L0 G6 z5 x
◎产  地 美国
1 t% [4 a. {  m- p! p8 i◎类  别 真人秀  N5 K* A0 Y* Z1 g, @
◎语  言 英语9 I+ i& U) [3 v; @( E+ p
◎上映日期 2020-01-29(美国)( H3 }/ @3 l. n
◎IMDb链接  https://www.imdb.com/title/tt10394770
! X1 E* ]& m$ w. e* E◎豆瓣评分 0/10 from 0 users2 [" p* b, q& P8 E, Y; ]4 Y
◎豆瓣链接 https://movie.douban.com/subject/33451986/
9 B9 L/ U& ^9 {, e5 j4 {- D$ d5 ~+ ]◎集  数 10
, R$ N2 D0 C4 U6 N: T◎主  演 谭·法郎士 Tan France7 U4 D9 l% c$ c4 c8 F
       艾里珊·钟 Alexa Chung
$ l' Z- i0 X  \/ b0 X' s, W* [' s6 S' ~5 W/ e8 k; i+ w
# X1 C0 ^* c9 P0 A  B+ O
◎标  签 真人秀 | 美国 | tan | 粉雄救兵 | Netflix | Alexachung
+ i7 W6 a  t3 ^. ~) N9 z
2 P& E8 S( J  U: I  I! N2 C◎简  介  
1 G% H) y" l5 y7 S! X' v
7 k7 X0 m' F$ r: P; I  《粉雄救兵》五人组之一的谭·法郎士将与艾里珊·钟共同主持Netflix时尚竞赛类节目《时尚的未来》(Next in Fashion,暂译)。Netflix已预订该节目首季,共10集。造型师兼时装编剧伊丽莎白·斯图尔特、Instagram时尚合作伙伴主管伊娃·陈等担任嘉宾。18位时装设计师将为一流的名人装扮。他们将争夺25万美元的奖金,并有机会与零售商Net-A-Porter合作推出系列服装。
  1. Video
      ~. |  ?) G& ^' ~4 k! {; X8 M
  2. ID : 1
    * X+ K. y1 U! L+ v
  3. Format : AVC3 b5 X& ~2 `( {7 S
  4. Format/Info : Advanced Video Codec
    / ~5 @, ]2 M( }3 i% C6 d
  5. Format profile : Main@L4
    7 V6 Z1 J  m! ^7 G4 ~* g
  6. Format settings : CABAC / 3 Ref Frames# M3 D" j$ n# K# l) \
  7. Format settings, CABAC : Yes! a* Q6 y  y" y0 y! X
  8. Format settings, Reference frames : 3 frames& |7 |  o3 J( R
  9. Codec ID : V_MPEG4/ISO/AVC+ }  Z  c' `/ g+ v5 B
  10. Duration : 49 min 39 s) z' ?; D% p# x0 P8 r
  11. Bit rate mode : Variable! ]& H% |, k" l' }  O
  12. Bit rate : 7 500 kb/s% w2 k: o6 n  ]: M" o0 ?
  13. Maximum bit rate : 11.2 Mb/s
    + V8 r7 r* G% p. Q* m0 H3 `
  14. Width : 1 920 pixels
    ' U2 C, g* v6 m6 G$ i, W; A
  15. Height : 1 080 pixels
    4 x! D; b, \+ o; V
  16. Display aspect ratio : 16:9" k$ H8 ]3 ]$ v0 O
  17. Frame rate mode : Constant" T6 k' \9 T* ^8 G1 u0 H
  18. Frame rate : 23.976 (24000/1001) FPS
    & p" a1 M3 p1 t3 K
  19. Color space : YUV; s( g3 l1 f5 O9 w* C7 J. k$ [5 t
  20. Chroma subsampling : 4:2:0& `# T$ v5 Y! k
  21. Bit depth : 8 bits' K# s6 z3 _, ?  V. d) Q% E& ?
  22. Scan type : Progressive
    8 |/ j8 ^9 `# N' w) ~5 a
  23. Bits/(Pixel*Frame) : 0.151
    4 l# f/ w, \+ J. z2 N- R3 z( v
  24. Stream size : 2.55 GiB (92%)
    + B! r# k2 `0 ~
  25. Writing library : x264 core 148 r2715 7e752288 j. Z7 c5 V1 z" u) @5 g
  26. Encoding settings : cabac=1 / ref=3 / deblock=1:0:0 / analyse=0x1:0x111 / me=umh / subme=10 / psy=1 / psy_rd=1.00:0.00 / mixed_ref=1 / me_range=24 / chroma_me=1 / trellis=2 / 8x8dct=0 / cqm=0 / deadzone=21,11 / fast_pskip=1 / chroma_qp_offset=-2 / threads=6 / lookahead_threads=1 / sliced_threads=0 / nr=0 / decimate=1 / interlaced=0 / bluray_compat=0 / stitchable=1 / constrained_intra=0 / bframes=2 / b_pyramid=0 / b_adapt=2 / b_bias=0 / direct=3 / weightb=1 / open_gop=0 / weightp=2 / keyint=250 / keyint_min=23 / scenecut=0 / intra_refresh=0 / rc_lookahead=48 / rc=2pass / mbtree=1 / bitrate=7500 / ratetol=1.0 / qcomp=0.50 / qpmin=6 / qpmax=51 / qpstep=4 / cplxblur=20.0 / qblur=0.5 / vbv_maxrate=11250 / vbv_bufsize=15000 / nal_hrd=vbr / filler=0 / ip_ratio=1.40 / aq=1:1.00
    / l1 e  ?) W2 k2 U& y
  27. Default : Yes
    - o5 W# V! q' r$ F" K7 x
  28. Forced : No
    7 I6 a) f, K9 p0 K# y  [3 _: P

  29. % ]0 W$ ~4 i+ S  D
  30. Audio
    ' ?, X$ b- y) z+ f1 B+ l
  31. ID : 2
    " s9 ^# W) J  O: H: i
  32. Format : E-AC-3, D6 R) T. d" ^. b( J
  33. Format/Info : Enhanced AC-3. b" X: q0 o9 W* z* u/ w) ~1 X/ n$ ?
  34. Commercial name : Dolby Digital Plus
    , P8 i" J( e& H8 y2 N# q0 e
  35. Codec ID : A_EAC3+ {4 h: i% K! l( h
  36. Duration : 49 min 39 s* ^5 V, \7 @+ T5 A0 }
  37. Bit rate mode : Constant
    / _: n% k0 [0 ^+ k5 `
  38. Bit rate : 640 kb/s, L, K! E8 K3 [/ W
  39. Channel(s) : 6 channels
    " O4 ]' P5 b9 _
  40. Channel layout : L R C LFE Ls Rs
      c! S$ _/ t( j+ R/ H
  41. Sampling rate : 48.0 kHz
    ' y( T- S: N/ `* @
  42. Frame rate : 31.250 FPS (1536 SPF)
    ) |! o- g0 r! l0 Y8 J) w! g
  43. Compression mode : Lossy+ Y, M" k' X8 [* \3 E
  44. Stream size : 227 MiB (8%)7 E+ J7 k3 F9 m. t& h
  45. Title : English4 R9 E8 A1 @! W7 i" l) a6 p
  46. Language : English
    & r0 a9 N6 g; t
  47. Service kind : Complete Main
    / O6 m1 V4 U% j; \8 }9 ]
  48. Default : Yes5 d- g9 J; e# i, x1 k4 U+ I$ b
  49. Forced : No
    % r/ |" m3 S) D- ^
  50.   ?9 s. k  M* D: I" S- s
  51. Text #18 U! J# I* {  z- w* I
  52. ID : 3
    7 _& L; @8 h. w+ S' l4 N4 X
  53. Format : UTF-87 E2 ~3 ]: H0 F  Q5 H  y; ]: T: [) T
  54. Codec ID : S_TEXT/UTF87 M0 e. M: c/ C. Y8 r$ W5 C
  55. Codec ID/Info : UTF-8 Plain Text; s9 i$ N: S9 S9 J% D
  56. Duration : 41 min 15 s
    # G5 C6 _& Y9 g3 Q+ G  n
  57. Bit rate : 1 b/s5 w8 D' ?: q) t" v' t, t$ e5 I
  58. Count of elements : 122 ~  P7 H/ X3 E7 D9 y, k  P
  59. Stream size : 354 Bytes (0%), O1 [0 N0 }/ Y+ l  g  a
  60. Title : Forced
    ' m8 p. ?5 u0 `8 A3 k
  61. Language : English
    3 W( I" U, W) c3 ?
  62. Default : Yes2 R& R) e) ~( Y# N  y# ?7 y+ u
  63. Forced : Yes
    , c% ]5 J: n" I

  64. % N6 w- P' v* ]; R& K  a! Q
  65. Text #29 D9 p2 @7 u7 V7 ]0 @* `
  66. ID : 4
    $ n4 m- O+ W7 M+ Z- w& ]* c' E# D
  67. Format : UTF-84 K6 k. a0 E% _+ ]6 |  F
  68. Codec ID : S_TEXT/UTF8
    - M, H; r; O  {' g
  69. Codec ID/Info : UTF-8 Plain Text
    . d; T: e6 I  B- K# K) Z
  70. Duration : 48 min 7 s/ v  D3 ]+ E4 F* e8 `9 ~2 H
  71. Bit rate : 110 b/s
    8 D: U! I- M' b8 @9 ]
  72. Count of elements : 904' g1 J" o% g8 k5 w) ^4 P
  73. Stream size : 38.9 KiB (0%)2 ]9 L" r/ ?3 z# Z; q2 D
  74. Language : English3 I. c% z+ \4 }2 D- p+ i! U
  75. Default : No
    2 p/ E; G) r6 {# G1 |# \
  76. Forced : No
    % x7 t0 w! \2 N. j2 t( @8 f3 O8 H
  77. 8 h! N8 B1 b# G, G
  78. Text #32 z( m# d2 ]+ D$ l
  79. ID : 5$ k! X+ U# N$ t& z6 q+ E/ x
  80. Format : UTF-8: o3 M. }$ U# k+ d7 u4 L/ i
  81. Codec ID : S_TEXT/UTF8
    . [# R, V! H: U8 `/ V9 J* r
  82. Codec ID/Info : UTF-8 Plain Text
    . J0 W, ^3 \5 \
  83. Duration : 48 min 14 s# \* s  a0 o9 {
  84. Bit rate : 115 b/s
    & A# m; w* m4 C* @0 y
  85. Count of elements : 943" K/ w. N" W/ j7 ~) }; T& _9 h# p
  86. Stream size : 40.9 KiB (0%)
    . ~) p' ~" E5 X
  87. Title : SDH
    # B/ X$ X" f: l- A/ Q. G" j, k9 `
  88. Language : English2 m! S- U, K' G5 ~5 P2 n6 J: Q: h
  89. Default : No
    * ]$ H' W: q. C" u
  90. Forced : No& F) M3 `: R" Q& b
  91. ) K; H3 t! A6 b% R; r8 X
  92. Text #4/ x1 N% F! r2 ?
  93. ID : 6: D, W  r8 r; l. L2 e+ r7 t
  94. Format : UTF-8
      v  u, V- s' L2 E5 Q7 E
  95. Codec ID : S_TEXT/UTF8# Q8 N+ h3 n5 s
  96. Codec ID/Info : UTF-8 Plain Text
    4 q# @6 k+ f7 b: S: d
  97. Duration : 48 min 54 s: N& w* T3 g4 l
  98. Bit rate : 172 b/s% |- h. I. C! M3 r0 j' m
  99. Count of elements : 916
    6 \7 k! S! g, k: y
  100. Stream size : 61.8 KiB (0%)/ D" l. V' h- i  Y& c) R
  101. Language : Arabic6 R; d. l3 Y! T/ d: D& C& r+ z: r+ ]
  102. Default : No
    + l# m7 u+ Y# O# |* N9 P3 o
  103. Forced : No
    4 m: s) T  z+ c& R$ H- d( [7 z

  104. - J' ]; O) x' ]+ d
  105. Text #5
    7 W0 V% ]% }" N. N9 c, j
  106. ID : 7
    " @2 k: m8 L$ F' j8 T- _; w
  107. Format : UTF-8' g  B% d# @9 v2 r% q- H+ h* z7 T, I% ^
  108. Codec ID : S_TEXT/UTF8
    ( A  K9 t! F; @) x
  109. Codec ID/Info : UTF-8 Plain Text
    7 B: E' ?+ r# @: R" q! Q, {& n
  110. Duration : 48 min 54 s2 e4 U" g& n& K4 |; e* J, }% g
  111. Bit rate : 88 b/s
    & q( H% a) e' @  @4 a9 g
  112. Count of elements : 8765 i9 L4 Q/ h; V  ]9 ]9 Y1 e& V9 ~
  113. Stream size : 31.6 KiB (0%)- y  ~+ i( g. l( {) `
  114. Language : Czech
    3 S( ~  }! c- {6 S
  115. Default : No
    / S3 b$ ~- {! C" H$ A4 p$ d
  116. Forced : No8 ?$ W: H& I6 v/ q1 }8 F3 H) Y( c
  117.   X) j8 i" j& o. C+ Z  n/ C+ d1 `
  118. Text #6
    % e5 Z+ i1 x' S- O6 l7 p
  119. ID : 8/ d! V$ ~" m, k4 Z; g2 m
  120. Format : UTF-8
    # H8 L4 z. `8 D% ^; S
  121. Codec ID : S_TEXT/UTF8" d0 h$ j: k" r+ e7 N9 \7 q- p5 z$ w
  122. Codec ID/Info : UTF-8 Plain Text
    7 `; x+ r+ R' P+ h$ k9 E1 z, w. i
  123. Duration : 48 min 54 s3 u4 f& O$ s0 A( o" {1 P  A& I
  124. Bit rate : 95 b/s
    0 K% K) V/ N% C( A
  125. Count of elements : 889
    ' s3 }' E; n+ o( n8 I# `. S+ |& H
  126. Stream size : 34.1 KiB (0%)
    4 ?" V5 h( K  B6 S
  127. Language : Danish
    - p' e! {) s' q1 P: I; |( C) k
  128. Default : No# m$ Y( u2 m& [3 Y6 |
  129. Forced : No/ R) U% Y! z# I4 e3 T8 ]

  130. / \2 t9 X( h, _
  131. Text #7
    " }5 O5 z+ a: O2 I' c( S
  132. ID : 9
    1 V, b( u" `- L
  133. Format : UTF-8) I6 K0 X# v- B
  134. Codec ID : S_TEXT/UTF8
    2 f) O( _4 ?( ]/ V
  135. Codec ID/Info : UTF-8 Plain Text
    0 Z, c: ]* ^0 s6 Z
  136. Duration : 48 min 54 s  n% g* f  N* j# [3 \. E$ Z* i
  137. Bit rate : 96 b/s
    - P' e, W0 G+ s6 {; Z$ I7 }9 O
  138. Count of elements : 888: m, s; c) X7 a! Y, X% ^
  139. Stream size : 34.6 KiB (0%)
    ' Y; F$ u& T3 K0 c+ b2 L8 E
  140. Language : German! F) }6 a* L$ s+ ]: e
  141. Default : No2 a% `4 y/ ]3 q: a
  142. Forced : No0 q- q' m% F4 S7 O0 n
  143. 8 I# Q& ~1 b) f% w$ P) z
  144. Text #8
    , }. z" P$ ]5 O$ {7 h+ X+ M
  145. ID : 10- ]# }4 o8 u- {8 |5 ^
  146. Format : UTF-8
    % z  G% Q9 r' C% x* K5 `) f
  147. Codec ID : S_TEXT/UTF8$ t  j: c8 J# T6 R! b; I8 ^" t; A8 m
  148. Codec ID/Info : UTF-8 Plain Text
    , r' c; Q, F" Q
  149. Duration : 48 min 54 s
    ! a  c$ C4 z9 `! E! h7 O8 T
  150. Bit rate : 157 b/s
    # k; E1 c  g$ a5 O1 i
  151. Count of elements : 875
    ; ]6 Q% }+ t2 |8 d- c% u
  152. Stream size : 56.5 KiB (0%), F0 ]5 u2 s$ O6 r
  153. Language : Greek
    . B, M0 K( E& Z( [8 {% u* |
  154. Default : No" \8 K/ s" W7 @9 S* ]
  155. Forced : No9 ?1 d0 |0 V: o1 X9 J! M2 h' P

  156. 9 p* [! O" D" y8 ?$ |/ s( f
  157. Text #9
    $ |6 ?7 W8 h1 V0 s
  158. ID : 11( X9 Y& m: M8 k
  159. Format : UTF-8
    ; s9 z2 S9 l4 D, g2 t
  160. Codec ID : S_TEXT/UTF86 c* z5 N6 g! c0 Q# D3 _
  161. Codec ID/Info : UTF-8 Plain Text
    4 s( [% Y; Y; Z/ @
  162. Duration : 48 min 54 s
    : y( R2 L$ |# i- z' p
  163. Bit rate : 91 b/s$ }/ o$ a' X& P. m/ P
  164. Count of elements : 840
    % d- D( x  e! I
  165. Stream size : 32.7 KiB (0%)+ u# a2 q3 K4 B- q4 d8 J" N
  166. Language : Spanish, j5 h& s# m6 f9 s. L0 _
  167. Default : No- Q& ]$ e& {( c0 X8 `0 y2 l! y
  168. Forced : No6 Y$ g! J8 K, p  c  k, ^

  169. ) f$ H( C- r( A' z1 g
  170. Text #10
    / l7 B9 t" l9 M8 W% z# Y. S
  171. ID : 127 _" H8 n+ g. _3 e7 C
  172. Format : UTF-8
      \9 T8 X7 s' T  q3 S7 S! u
  173. Codec ID : S_TEXT/UTF8
    6 R( ?# H' s( j4 U0 m/ Y( l; A
  174. Codec ID/Info : UTF-8 Plain Text1 }7 v  j; c, s4 x# B% z# ^
  175. Duration : 48 min 54 s
    8 [7 D+ H, A* L+ M7 h- n$ I
  176. Bit rate : 94 b/s% [2 u1 w" w7 {+ Q
  177. Count of elements : 918
    # C( ^- k' j1 ^! u& K
  178. Stream size : 34.0 KiB (0%)  B/ P6 A, N: @$ X- A0 R
  179. Title : European
    + V: p# z9 f6 l6 Z  D3 q
  180. Language : Spanish( I/ ~0 S. d/ L7 f
  181. Default : No
    ) A/ `* o! h/ j: [
  182. Forced : No
    / m: C" O7 R: U: k; s& Y

  183. ( _# h% c* ^; T% p+ E% s
  184. Text #11
    4 W2 `2 f* c  v6 r% Y
  185. ID : 13
    + [1 u3 X# ~% w2 X
  186. Format : UTF-8, a+ |+ u# r- p
  187. Codec ID : S_TEXT/UTF85 G2 V6 u  K5 c1 ]
  188. Codec ID/Info : UTF-8 Plain Text- b6 m1 l# V! X3 P# Q  `$ c& {' z1 `/ c6 ?
  189. Duration : 48 min 54 s$ m4 |' w7 K3 D
  190. Bit rate : 106 b/s
    # G4 O6 ^) e" |2 j; B( ?8 m% e
  191. Count of elements : 899  |( |, E4 M1 F# T; C7 `$ {
  192. Stream size : 38.0 KiB (0%), c; p3 I; J) z: d! b0 u6 W: L3 U3 A
  193. Language : Finnish& I+ E9 d3 P+ j2 f2 y6 i% k
  194. Default : No6 t$ l, U9 T7 ?$ ?# l& I
  195. Forced : No# L. f: z. Q: N2 B0 @5 }" Y- V& N5 v

  196. 3 E# q' V  j/ Z! j/ W
  197. Text #12( |$ X. y! H: X0 W- g; q2 V" ^: {7 r
  198. ID : 149 d$ i; H5 `- P. r) @
  199. Format : UTF-8
    5 f5 p9 V# Y+ y5 T* e4 d
  200. Codec ID : S_TEXT/UTF87 s5 v! P* I/ r; i+ t( O. Q
  201. Codec ID/Info : UTF-8 Plain Text$ D6 e' m( K8 g8 X( l9 W- _" a, t
  202. Duration : 48 min 54 s) ~' N; w+ W2 ?/ x; \
  203. Bit rate : 100 b/s8 h# ^( Z# P" K+ [: F1 P. g
  204. Count of elements : 9058 L1 F8 x3 E7 V$ w  G8 E( L
  205. Stream size : 36.2 KiB (0%)4 s% x' M! {) t; _0 J6 I- d9 Z9 a
  206. Language : French
    3 h; ~+ t. X6 y. Y
  207. Default : No
    5 _6 r, {" h3 u
  208. Forced : No) P( J/ s# Q* i9 e

  209. ( I' T6 p7 a9 B6 S
  210. Text #13  e3 r/ y" j0 B# `& P5 d6 d9 h
  211. ID : 15
    $ Q$ h: r' b7 }, _8 G( G9 a. x
  212. Format : UTF-8) j1 R! q9 U  P, m1 w+ O/ {" y+ p- Z
  213. Codec ID : S_TEXT/UTF83 ^% r8 s$ ?  A+ O
  214. Codec ID/Info : UTF-8 Plain Text1 a9 q9 {* j. o8 X
  215. Duration : 48 min 54 s
    3 x  J' O) t, B1 \/ E' {0 h6 u  a
  216. Bit rate : 153 b/s
    # B' V) v5 ~+ n7 [5 e& l
  217. Count of elements : 912, j% y3 ^; D) j& V0 P
  218. Stream size : 55.0 KiB (0%)
    6 J+ Y- @, }! s6 E5 O* W
  219. Language : Hebrew3 g! H. L$ |) o8 P2 h% n& w% i+ {: u5 [
  220. Default : No
    % a; L8 V$ q+ O$ x0 Y, q' v1 z
  221. Forced : No
    $ R" [5 p6 z& }
  222. 2 f! M% Q4 \9 m$ B3 g. ?% P) |5 r$ n
  223. Text #14! D( r; d4 j/ z0 r9 V
  224. ID : 16
    ' l6 e' C: h; Z0 V
  225. Format : UTF-84 c" z7 d  k$ I" ?
  226. Codec ID : S_TEXT/UTF8
    1 Z0 T" I7 K8 v7 L/ e7 |3 H' y2 g5 U
  227. Codec ID/Info : UTF-8 Plain Text2 I5 d- M4 c* ?& C/ c- C) ^# B5 X
  228. Duration : 48 min 55 s" ^' f5 f  w3 X6 [" x; B
  229. Bit rate : 93 b/s
    3 ^; @( @6 ^& V
  230. Count of elements : 914' Q3 K& V7 }* A* y" G
  231. Stream size : 33.4 KiB (0%)
    ) L2 X# c' w8 i* {5 a+ t
  232. Language : Hungarian+ l. |7 [. o4 s/ A7 I: v' M5 \3 @" A
  233. Default : No, H4 d5 ]3 v3 Y. @3 X- `* I
  234. Forced : No
    7 t! L) x4 [# ?
  235. 3 H, Q) r2 {" x6 z
  236. Text #15
    ! X, e. {2 J! }2 I9 {4 o  Z
  237. ID : 17
    9 ]: D/ j% J, f1 |# B+ J! u8 C
  238. Format : UTF-81 m9 h) c1 }4 T
  239. Codec ID : S_TEXT/UTF87 G2 `- P. |2 f+ I1 l# Z6 h$ k
  240. Codec ID/Info : UTF-8 Plain Text: S* ]% E, P7 `2 c; P
  241. Duration : 48 min 54 s
    ' o# l$ m, ]  Y
  242. Bit rate : 98 b/s; T2 Z4 i# W& e1 V0 H+ Z
  243. Count of elements : 916
    ) _# @5 X$ b& K
  244. Stream size : 35.2 KiB (0%)
    8 p, [; W. n6 u
  245. Language : Indonesian
      A6 W1 q% X7 w2 F& w
  246. Default : No' g5 u* e1 [1 C
  247. Forced : No
    4 W5 p! E6 Z: l, c5 @, [
  248.   n$ ^7 f5 `) |0 z  Q
  249. Text #16
    + z+ z$ q5 @4 N: U* T
  250. ID : 18
    - }+ ^7 r4 _3 @: J: r+ W
  251. Format : UTF-8
      y$ }$ |5 W$ T  P
  252. Codec ID : S_TEXT/UTF82 j  j% V2 v. u& s* B( T: L
  253. Codec ID/Info : UTF-8 Plain Text$ f* J! X7 @  Y3 L
  254. Duration : 48 min 54 s
    ' l8 f/ P' l8 F) w9 \# H8 w" w! B1 j
  255. Bit rate : 95 b/s. P4 }* d- S) k$ b* w
  256. Count of elements : 841
    1 F" c6 a" |% W( I8 U( ?; g& ]
  257. Stream size : 34.1 KiB (0%)$ B1 i5 D6 S: _/ `( O3 h, b5 t2 E
  258. Language : Italian: |& B, `1 c; C! A" _
  259. Default : No/ g, p, P" {! ?/ J8 K
  260. Forced : No0 t# J' H. W/ Q& K$ ]! R
  261. 7 d0 y; e7 A  v& y! G0 U0 f
  262. Text #17  b. m* G9 P+ z) f4 Z& P% H) c
  263. ID : 19: \% C1 n/ i) n6 l) S! g
  264. Format : UTF-8
    1 W. [9 p5 r3 h
  265. Codec ID : S_TEXT/UTF8
    ! \0 {, Z# e; }; N( t/ v* E
  266. Codec ID/Info : UTF-8 Plain Text
    + S! E/ Y% s" Y0 B9 H& Q+ F" m9 b
  267. Duration : 48 min 54 s
    ; G  m2 q  h( r# D
  268. Bit rate : 98 b/s
    . Y- ?- I5 {: O' c
  269. Count of elements : 10566 Z) Q% U. @" s4 ~% o( y3 N$ n# a( B
  270. Stream size : 35.3 KiB (0%)
    ; z7 X/ B  u7 i/ Y  F7 a! I
  271. Language : Japanese9 K6 X7 q5 x! d% G. g9 L" ]& d
  272. Default : No
    * B. ~. q# W& Q: F, Q# z. i$ Q
  273. Forced : No  h+ ?2 U& T+ C

  274. 7 K. L5 h1 O& ~
  275. Text #18
    & g% E* d4 R# r% e5 z+ r" p
  276. ID : 202 A0 t9 b9 l0 B2 Q# t8 G
  277. Format : UTF-82 J+ H- @: P. z
  278. Codec ID : S_TEXT/UTF8
    + K. O4 N8 N5 z5 R5 s- I$ b! v
  279. Codec ID/Info : UTF-8 Plain Text
    $ Q+ I3 `; s6 U' @; O
  280. Duration : 48 min 54 s
    5 `; u. M" G& H
  281. Bit rate : 131 b/s
    % f: x$ W- L9 K  P4 @8 H  I
  282. Count of elements : 934- y& |! q/ y- r/ h
  283. Stream size : 47.2 KiB (0%)1 Z; E# a$ x# S* h" D6 W" |
  284. Language : Korean3 t: m1 n! P( l+ X$ r
  285. Default : No4 a9 E9 O0 c) }# C
  286. Forced : No
    ; o; b* ^1 J* A$ B" U, F

  287. ( I1 T( y/ @* U2 P
  288. Text #19
    & t( `. o; j( t5 \' g  a
  289. ID : 21
    7 _' H+ z' l4 O( i. Z
  290. Format : UTF-89 G2 ~( a; H" o3 D9 A% |
  291. Codec ID : S_TEXT/UTF87 V. W( ]; j' j6 H2 w# H% _& p+ B
  292. Codec ID/Info : UTF-8 Plain Text
    # o9 y. I. ~- B7 ?
  293. Duration : 48 min 15 s2 U% O# e1 r: A: l" M
  294. Bit rate : 92 b/s" I( _7 k& N/ |) Q" z' x* J4 ]1 S
  295. Count of elements : 766" E1 r: f& i1 u; e! [# m
  296. Stream size : 32.8 KiB (0%)
    " {6 V+ Z0 r5 ^) ^% q
  297. Language : Norwegian Bokmal
    6 S5 F; }! `) E
  298. Default : No% X) F! w" q! H
  299. Forced : No. ~. a( J" ]. H% ~6 i1 X2 q/ h8 R

  300. . z$ M3 l4 H, P$ A& t8 i
  301. Text #20# a8 a9 _7 Z& u* ~- L
  302. ID : 225 W1 E2 N. n% |
  303. Format : UTF-8
    - Y5 z9 U  {; \1 ?0 {
  304. Codec ID : S_TEXT/UTF8
    1 x. }" \: p! `9 X
  305. Codec ID/Info : UTF-8 Plain Text4 B: \$ _; u: _2 v& k
  306. Duration : 48 min 54 s$ T# N0 N5 J# d( G' G+ X' x
  307. Bit rate : 81 b/s0 H6 _8 N- E; |, X
  308. Count of elements : 827% r8 d* g1 I: Z- _3 E
  309. Stream size : 29.1 KiB (0%)
    : k5 x* S0 S. k2 F
  310. Language : Dutch! g% A5 i( |5 M0 P1 F# G
  311. Default : No1 R; A4 ]. w( Y) l
  312. Forced : No
    0 m4 c/ z& |, E3 h1 U. _
  313. " y) b8 J( t! f9 c0 U; E+ q  x0 V  P9 X
  314. Text #21+ B  a' t+ p1 U( A7 w
  315. ID : 23# K( C# S  B4 ~: g) h/ t' X
  316. Format : UTF-8
    7 D' J1 @* `) [( K  Z
  317. Codec ID : S_TEXT/UTF8% t- p/ ^) H! l! a/ ?; M
  318. Codec ID/Info : UTF-8 Plain Text8 ^2 O' {* F! m5 e* R
  319. Duration : 48 min 54 s. [& z. B& y& k" q! s) u# g% Z
  320. Bit rate : 85 b/s" n8 S+ u; X2 X  y( j) W5 D
  321. Count of elements : 9120 E  f. G% f+ _
  322. Stream size : 30.8 KiB (0%)
    ) p" v8 H! d8 d) \
  323. Language : Polish' C4 U$ G4 E6 _; ?% k0 v
  324. Default : No& l' a/ R: Q5 ]$ L
  325. Forced : No$ k& p1 M! V9 }# E/ R) @

  326. 8 z4 \: v4 u4 H
  327. Text #22
      m! N* i8 d- H7 _5 P7 |& d1 n  y
  328. ID : 24
    5 z1 T0 W9 U8 @+ u
  329. Format : UTF-8
    / \" F! O$ w( V( C" M- ~
  330. Codec ID : S_TEXT/UTF8& T/ ]8 c+ v) C9 a2 r
  331. Codec ID/Info : UTF-8 Plain Text1 ?: I9 X1 X+ e% T
  332. Duration : 48 min 54 s& ^" d1 N0 A9 Y/ A
  333. Bit rate : 102 b/s
    9 l( M; d% X5 s7 _* M. N
  334. Count of elements : 876: [( Y# B5 u" J1 g. g7 w5 E
  335. Stream size : 36.6 KiB (0%): ^1 b1 C# k- {8 b
  336. Language : Portuguese; j/ l* y# D) g
  337. Default : No9 [; h' Z+ C5 I- W' r
  338. Forced : No
    5 ?' S+ [% r5 I% z4 C, C: B9 _
  339. 6 c' q% ?9 X4 W0 m
  340. Text #23
    : I8 P6 w& O6 H! \- S7 D4 R
  341. ID : 25% o6 }$ h& Y$ X; w- ~
  342. Format : UTF-8- K5 m8 J* g) q  B
  343. Codec ID : S_TEXT/UTF8) a( }2 \# b$ Y! f/ |
  344. Codec ID/Info : UTF-8 Plain Text
    ( X+ a. P: F4 D& W- o* i8 r4 P! `8 O! B
  345. Duration : 48 min 11 s& H9 G, `, I9 R6 T$ K
  346. Bit rate : 97 b/s1 z0 m* E* {; x% _
  347. Count of elements : 8745 B' j4 o/ p; N4 |
  348. Stream size : 34.4 KiB (0%)4 L2 ]! \! R$ D6 _( `! ?
  349. Title : Brazilian
    1 h5 a: ?( _) E3 a! c3 x
  350. Language : Portuguese
    . f/ i2 g9 c' @) l$ P
  351. Default : No
    $ }; E$ L' g: u0 L$ k
  352. Forced : No+ J$ j1 c9 ?2 C, P

  353. ( _$ l* g4 P( Z% X: a
  354. Text #24
    ! y1 L- C" y6 e: q# o9 K
  355. ID : 269 ?! Q1 y  n1 |) s7 ^* v
  356. Format : UTF-8
    ) O+ F( j, }- [7 p! L
  357. Codec ID : S_TEXT/UTF8
    , Q5 U1 d1 e; F/ c; ^% q
  358. Codec ID/Info : UTF-8 Plain Text
    - f/ _' _) t7 a. B" Z
  359. Duration : 48 min 54 s# c: A7 _6 ^" l: q7 q: q' O
  360. Bit rate : 110 b/s
    ! y& X6 O2 H& R! V
  361. Count of elements : 916! u% i, w7 c$ g
  362. Stream size : 39.5 KiB (0%)
    1 ~1 g* @# T( Z, D! X' s) E" ^
  363. Language : Romanian5 m# F+ L8 v- Z. X6 ]) f
  364. Default : No
    5 f( c$ N% ?$ M5 g; O: h2 [* M2 q! w
  365. Forced : No
    3 b- k" d1 u5 d4 o& w

  366. : h5 ^$ \3 M# B7 K- ]
  367. Text #25+ R4 m. Y% }' T0 e; E  j/ ^/ h
  368. ID : 27& ]1 ~6 I+ }! q+ L
  369. Format : UTF-8
    4 ?) J, X) L* C2 {, C- P/ F+ J
  370. Codec ID : S_TEXT/UTF8
    0 H  z: v  t" p0 B& v
  371. Codec ID/Info : UTF-8 Plain Text9 ~% Q* p: u6 P! b! W: ~2 d: J7 I& j
  372. Duration : 48 min 54 s
    6 ?5 A4 V% W! ]$ W. s& |
  373. Bit rate : 144 b/s
    $ Q) B- @" K1 G& C. W4 K* b6 ?" Y
  374. Count of elements : 912' B3 L# S& w- x$ h
  375. Stream size : 51.8 KiB (0%)
    $ W' ~% Z( ^& q8 ^  G* I# B; N
  376. Language : Russian1 O1 l/ d* j5 S& z; T* |
  377. Default : No
    % Z! n( U8 n, {* q7 ~* }
  378. Forced : No+ B/ `  [- q6 C

  379. ) f3 L  r* R& b- G# T
  380. Text #26; t/ F2 B  B! x( k" ?6 D; i- \
  381. ID : 28
    $ l" Y) t( N0 f+ V9 i6 g6 \
  382. Format : UTF-87 J, n4 Y% o) h
  383. Codec ID : S_TEXT/UTF8
    ( u8 S6 m( r  I8 q  t- ~( j
  384. Codec ID/Info : UTF-8 Plain Text
    4 J1 C) Q. z$ z# M! l  b% m
  385. Duration : 48 min 54 s& B. H) i8 k) T+ S% h; ]
  386. Bit rate : 95 b/s# W9 j9 n' m/ C3 Y% j/ \) U
  387. Count of elements : 897" N  s" V$ g4 ]3 d) s
  388. Stream size : 34.3 KiB (0%)0 t( b. k( b; P5 X' y/ Y7 A: K
  389. Language : Swedish5 h& S, Y* M; i2 Y: `
  390. Default : No0 a0 j$ b$ k: Z
  391. Forced : No# _) ~' x& t6 G7 j
  392. 3 s' c  E$ o+ d, a+ f
  393. Text #27
    1 c% I  R- b4 c+ F" B
  394. ID : 299 ]& h' e: }9 f' b1 P) V
  395. Format : UTF-8* \3 ^! o6 [4 H
  396. Codec ID : S_TEXT/UTF89 K' n# F, p# a) H7 S: P
  397. Codec ID/Info : UTF-8 Plain Text
    ) i1 Y1 [6 ~( a& o* {7 ]& S$ m
  398. Duration : 48 min 54 s" Z1 u- l) T  X" i6 C8 K% q
  399. Bit rate : 255 b/s3 c. Q- v9 a- w8 B. S5 h
  400. Count of elements : 9163 g- s$ b& w% n# L+ G5 j! i! ^) P
  401. Stream size : 91.6 KiB (0%)
    ! m9 ~' `3 Z' c. v9 j# S3 q9 Z! [
  402. Language : Thai# y& X0 v$ O% H4 Z7 @& Y$ W, W
  403. Default : No% N, c5 s0 C8 i2 z+ |
  404. Forced : No- E* i% x6 \0 ?) I
  405. 5 f4 C+ l& V( @1 V+ {- {, R0 a* K4 ?3 R
  406. Text #28: @7 \" C/ V" ?
  407. ID : 306 u# g/ A1 M9 b0 G7 K; d* j) P- o
  408. Format : UTF-8
    / n( D) l" v) m6 s: `) [4 s) E
  409. Codec ID : S_TEXT/UTF8+ f  V- Z- k7 o- a9 h
  410. Codec ID/Info : UTF-8 Plain Text
    + Z6 Q. G0 Q5 R* }
  411. Duration : 48 min 54 s
      h" q) _& D& P7 B+ h6 y$ b8 @; B4 H( v
  412. Bit rate : 97 b/s: m, o! \* F' R5 C6 B
  413. Count of elements : 900+ z1 E: |0 z0 _( U7 l
  414. Stream size : 34.9 KiB (0%)
    % ~) E* V  U, o% u
  415. Language : Turkish. z2 {9 x7 q& h- ?+ w* j
  416. Default : No) w2 }2 Q0 O9 ~0 V& i0 |, ^5 j3 ~
  417. Forced : No
    9 g/ }( Q+ S# P, b. {
  418. 3 m6 p- @# b: H; w' X) _8 V6 P
  419. Text #296 M8 G0 z4 V' x: R* s5 Q
  420. ID : 31
    ) v' [3 E. y$ ]8 R5 f
  421. Format : UTF-8
    * `- q; _  C7 ^3 a- q! M) Q
  422. Codec ID : S_TEXT/UTF89 K0 b; p- q) C' Y" D/ a
  423. Codec ID/Info : UTF-8 Plain Text
    * u# q  V/ v! @
  424. Duration : 48 min 54 s
    / B6 n( T: E5 Q) ?; G1 E
  425. Bit rate : 138 b/s
    : p9 S) ]: F7 ?
  426. Count of elements : 898
    5 J2 j& D- k# t$ `7 ~( i
  427. Stream size : 49.6 KiB (0%)' \  l! o; p" B  @0 h/ z
  428. Language : Vietnamese# |3 H! t& k& J  h0 e
  429. Default : No, P5 z( V0 J) i' }
  430. Forced : No
    - a5 Z0 [; V8 Y
  431. : n7 F+ |$ e6 b, c8 [
  432. Text #30& ]1 {) ~( Y4 Z
  433. ID : 329 b* W1 s4 @% F% I3 Z9 ]$ w
  434. Format : UTF-8
    4 p3 v) E7 a0 f. l
  435. Codec ID : S_TEXT/UTF8
    & p& R: e$ o8 D* x+ h
  436. Codec ID/Info : UTF-8 Plain Text8 z0 U% J- f1 m. m& `' z
  437. Duration : 48 min 54 s
    & r% w$ l" c2 i: a5 u1 p
  438. Bit rate : 105 b/s; s2 d( B+ G" g# I% H
  439. Count of elements : 916
    2 T, ?, s! p8 `3 s" A
  440. Stream size : 37.9 KiB (0%)4 z( o0 C9 n) w/ m& q
  441. Title : Simplified
    ) d- k7 ?1 I7 [/ Y
  442. Language : Chinese( G. Q2 _2 f, ^- [
  443. Default : No+ _+ ?/ }$ R/ }$ S: N. A
  444. Forced : No
    4 u7 Q! q; ?! y3 F% Q

  445.   E( k9 k. k' }
  446. Text #31& f; F5 y' Y( d
  447. ID : 33
    / k& A! t+ N" X) |; |, |
  448. Format : UTF-80 A+ A9 w: s- \( K5 l" k! _8 R
  449. Codec ID : S_TEXT/UTF8
    * k. P, V& X0 ]5 i
  450. Codec ID/Info : UTF-8 Plain Text) l+ n2 W- b. l; x& J
  451. Duration : 48 min 54 s
    ; z- j( W  E2 m. ]% l
  452. Bit rate : 95 b/s7 l* X( a9 ^5 \9 e+ K( b3 h
  453. Count of elements : 921
    ; N' X( r- k/ U1 k* y! R
  454. Stream size : 34.2 KiB (0%)
    # u' C- L- \+ |5 }4 F; N* ?# y
  455. Title : Traditional9 P; ^1 K1 Y1 S3 C
  456. Language : Chinese
    & D6 c: s8 r/ J2 r/ ^* F, d
  457. Default : No
    # j" I% E  R5 L$ o& L
  458. Forced : No
复制代码

# U' B# q  L- e# E% j
$ T/ J5 \: R+ e' q$ y1 l( R, y& N" y9 u3 t" Y, A6 }3 Z% k

5 N9 @2 I% y4 r- f2 g" Y+ ?+ b3 g, j: U2 q4 D1 b" U, n* J

4 Q3 a6 I  W8 }# I8 _1 a
游客,如果您要查看本帖隐藏内容请回复  VIP可免回复查看隐藏内容 详情请点击
发表于 2020-1-31 21:07:43 | 显示全部楼层
always good shairng
发表于 2020-2-1 13:02:05 | 显示全部楼层
谢谢分享了啊
发表于 2020-2-4 00:12:51 | 显示全部楼层
为何没有美国达人秀的资源。。。。好想看
发表于 2020-2-7 12:23:45 | 显示全部楼层
外语节目先收下了
您需要登录后才可以回帖 登录 | 立即注册

本版积分规则

QQ|封号公示|手机版|有问题发邮件到admin#(换成@)hd1tj.org|微博|免责申明|HD一条街

GMT+8, 2020-2-23 02:33

快速回复 返回顶部 返回列表