HD一条街

 找回密码
 立即注册
搜索
查看: 104|回复: 5

[1080i] [无台标][台剧:彼岸之嫁 全6集][1080P-Netflix版/9.3G][国语 简繁英多国软字幕][MKV]

[复制链接]
发表于 2020-1-28 12:28:14 | 显示全部楼层 |阅读模式

马上注册,结交更多好友,享用更多功能,让你轻松玩转社区。

您需要 登录 才可以下载或查看,没有帐号?立即注册

x
6 Y+ C, B' E7 C
                               
登录/注册后可看大图

( V% o1 Z! V3 T+ E) V" @  |% M5 B' c/ t2 K6 X0 j+ ^
◎译  名 彼岸之嫁 / 鬼新娘
8 a- Y" [( U; |2 M+ J: \! I◎片  名 The Ghost Bride9 D* C, f, s* r. [& ?. C0 X
◎年  代 2020
5 `1 {1 I) @$ ^( R, r0 x2 K; ^6 @# ]8 `( k◎产  地 美国 / 中国台湾 / 马来西亚+ z$ Q4 ^" }! m- ]( z1 r, y- w  \
◎类  别 剧情, Y( s) P& |& g0 D2 `
◎语  言 汉语普通话2 [% g7 K3 t$ R( a
◎上映日期 2020-01-23(美国)# W" M- {/ ?) \% U  O1 i
◎IMDb链接  https://www.imdb.com/title/tt9690302
' g5 ]9 N# w& |, {/ B2 k# J◎豆瓣评分 0/10 from 0 users3 k+ m# D' c, h+ S9 J$ h
◎豆瓣链接 https://movie.douban.com/subject/30448601/" ?+ l" ]$ t. {
◎集  数 6$ y$ _0 y. \. ^' c8 ?
◎导  演 郭修篆 / 何宇恒 Yuhang Ho* X8 _- W1 Y! y* ]& V! N9 \& H: Z
◎编  剧 Wu Kai Yu / 朱洋熹
0 X9 u5 a% V9 d/ N) N3 W# R◎主  演 黄姵嘉 Peijia Huang+ X3 R- ^% K, c6 N
       吴慷仁 Kang Ren Wu& o) L) N4 z% {3 }1 n' {
       林路迪 Ludi Lin
( a- H( i5 B6 D% B5 _0 ]       田士广
4 X( Q/ p' {/ N& s
' j% j& m% c# t; D' o9 G3 y$ \6 k2 G% Z* n
◎标  签 Netflix | 灵异 | 吴慷仁 | 恐怖 | 台湾 | 台剧 | 2020 | 电视剧& W% S6 v& C: ^# Q
' l; f* Q% u" I
◎简  介  
8 }) C4 `2 i" d" I- a+ E# `6 k( y- H  ~9 G8 ]: h% z
  Netflix中文新片《彼岸之嫁》(小说《鬼新娘》电影版)宣布开机的同时,也发布先导预告。主演吴慷仁(《白蚁:欲望谜网》《下一站,幸福》)、黄姵嘉(《宝米恰恰》)、林路迪(《海王》)亮相,浓浓年代感。改编自美籍华裔作家朱洋熹的同名小说,故事混合了冥婚等中国民俗和浪漫爱情、超自然元素。设定在1890年代,殖民地时期的马六甲,讲述一个体面的华人人家的女儿丽兰因为家道中落,被要求去当富人家林家的“鬼新娘”——嫁给这户人家已死去的儿子。她能衣食无忧,但嫁给死人这件事将跟随她的余生,想逃走更加困难。此后,丽兰被卷入阴间,发现了“夫家”的黑暗秘密,也发现了自己家族的往事。
$ o: d8 Y! g  C  马来西亚导演郭修篆(《光》)和何宇恒(《K女士》)执导。编剧团队来自好莱坞和台湾,领头的是《汉尼拔》《闪电侠》编剧之一Wu Kai Yu。上线日期尚未确定。: F6 R: D9 O5 a" P4 b- ]
  1. Video
    ( N- V3 B# i+ O# E& {: T
  2. ID : 1" [4 R. _( L4 ?
  3. Format : AVC
    3 X8 ]. ^  {4 C: `. c1 U, w
  4. Format/Info : Advanced Video Codec/ L5 |: T( l0 f# i  x; Z
  5. Format profile : Main@L4# h# q4 T1 B1 {( Z9 Y
  6. Format settings : CABAC / 3 Ref Frames' `8 J/ w- C. W
  7. Format settings, CABAC : Yes: I! o0 y: O. h8 L; y
  8. Format settings, Reference frames : 3 frames
    5 N  [. ^8 h7 X8 r+ L; q
  9. Codec ID : V_MPEG4/ISO/AVC; s+ u  x8 A2 u/ `4 [
  10. Duration : 50 min 48 s
    ' I3 Z+ D- G8 `9 h' D- i8 B
  11. Bit rate mode : Variable& `' V! A$ ?, P7 h/ H
  12. Bit rate : 5 110 kb/s  I! m) d0 C+ V% O) r
  13. Maximum bit rate : 7 665 kb/s
    * z# e9 ?% P3 O; x3 u7 w7 A
  14. Width : 1 920 pixels
    * g& o  n* P* D; |* F/ J
  15. Height : 1 080 pixels
    * c  m, I) d7 w# s( L
  16. Display aspect ratio : 16:9
    : [' q9 A- M" P! ^
  17. Frame rate mode : Constant
    ) \. B3 p5 C- d8 u
  18. Frame rate : 24.000 FPS% L" `+ J- @# F
  19. Color space : YUV+ R. H$ G* V4 {3 B
  20. Chroma subsampling : 4:2:0
    ; }6 A. ~4 ?0 g& S" `6 o% s3 R# N
  21. Bit depth : 8 bits
    $ T9 a$ S' K4 {# h/ b: j/ m
  22. Scan type : Progressive
    ) V/ ^' S9 a  s
  23. Bits/(Pixel*Frame) : 0.103
    2 }7 E) Y( Y+ o
  24. Stream size : 1.74 GiB (88%)! E' j0 v& T/ V) a5 t8 j% R) C# ~
  25. Writing library : x264 core 148 r2715 7e75228
    . @  @1 k: P7 W" X/ a6 X  _
  26. Encoding settings : cabac=1 / ref=3 / deblock=1:0:0 / analyse=0x1:0x111 / me=umh / subme=10 / psy=1 / psy_rd=1.00:0.00 / mixed_ref=1 / me_range=24 / chroma_me=1 / trellis=2 / 8x8dct=0 / cqm=0 / deadzone=21,11 / fast_pskip=1 / chroma_qp_offset=-2 / threads=8 / lookahead_threads=1 / sliced_threads=0 / nr=0 / decimate=1 / interlaced=0 / bluray_compat=0 / stitchable=1 / constrained_intra=0 / bframes=2 / b_pyramid=0 / b_adapt=2 / b_bias=0 / direct=3 / weightb=1 / open_gop=0 / weightp=2 / keyint=250 / keyint_min=24 / scenecut=0 / intra_refresh=0 / rc_lookahead=48 / rc=2pass / mbtree=1 / bitrate=5110 / ratetol=1.0 / qcomp=0.50 / qpmin=6 / qpmax=51 / qpstep=4 / cplxblur=20.0 / qblur=0.5 / vbv_maxrate=7665 / vbv_bufsize=10220 / nal_hrd=vbr / filler=0 / ip_ratio=1.40 / aq=1:1.00
      T) r# l, h" q6 ]# b  N7 P
  27. Default : Yes
    5 [9 a" T, R0 t
  28. Forced : No6 \: o8 v% v# k, w  Z) j. |  v

  29. ) U; i* K0 _4 k) S, f/ X
  30. Audio  u) c: [4 E, K/ R" ^2 \2 o% i1 n
  31. ID : 2. V/ j( T% F% L
  32. Format : E-AC-3
    / I, q3 V" T* ~8 b3 Y2 n$ U( p
  33. Format/Info : Enhanced AC-3' i+ R# ?8 J9 E' D
  34. Commercial name : Dolby Digital Plus" K( k+ d0 B( g" p3 c/ f
  35. Codec ID : A_EAC3# w1 Y" |& M3 U+ g5 S4 O  l% ~
  36. Duration : 50 min 48 s% S7 X# J$ ?  e9 M
  37. Bit rate mode : Constant
    . ?8 y% \' I9 K
  38. Bit rate : 640 kb/s
    6 o) p2 y: \; W
  39. Channel(s) : 6 channels- T0 s" a* j* ^; h( r
  40. Channel layout : L R C LFE Ls Rs: L% q, K- C" [5 D( ]
  41. Sampling rate : 48.0 kHz
    " W9 `3 x0 |! }- X9 t
  42. Frame rate : 31.250 FPS (1536 SPF)
    - ^  `! s/ O; C
  43. Compression mode : Lossy
    0 ]8 O% Y9 ^, t5 y* u
  44. Stream size : 233 MiB (12%)
    ( z* ?5 {# H$ g* N* m% m) b
  45. Title : Mandarin5 _" ]; E% Y% |; w/ \% b( g
  46. Language : Chinese  m& m1 }  b* a3 k( e
  47. Service kind : Complete Main
    6 t% L7 f8 b' Q# O& Z$ V3 ]
  48. Default : Yes
    4 o3 N; B4 x. o& F
  49. Forced : No
    ! S* e5 ], |" p1 F
  50. 3 c! H1 L/ K6 G
  51. Text #1
    1 V0 a1 [3 G( F( i9 U' N2 V* N
  52. ID : 34 J+ w- V/ V% r- ]
  53. Format : UTF-8
    ) p" l2 ^' G& Z- ?& l% ]
  54. Codec ID : S_TEXT/UTF81 j' M+ h* T/ s
  55. Codec ID/Info : UTF-8 Plain Text  O, \) J8 I. Q& b, _, A4 T
  56. Duration : 50 min 24 s" l0 i# U" p7 f+ w! e
  57. Bit rate : 48 b/s9 ~- ], T0 U! N/ ]1 x+ S. f% h
  58. Count of elements : 722
    2 M* X7 r) E, x! n
  59. Stream size : 17.7 KiB (0%)
    $ e7 `& k+ z) N8 V) |! @1 {6 ~% ^  d/ }
  60. Language : English
    / [. ~" a) o& S' A: }% A6 {, L! M5 u
  61. Default : No
    + K4 o" l1 l0 E- T9 a
  62. Forced : No2 [! e% W+ @6 {2 n) }1 E/ m

  63. 3 }- ~8 x  c- r3 o+ ?$ q
  64. Text #2
    . ?" Y9 f+ j- [: y* o
  65. ID : 4
    5 g( Y5 Y+ w0 x+ J; q& Q$ }
  66. Format : UTF-8
    & `+ ?: e- \% I* s
  67. Codec ID : S_TEXT/UTF85 A6 R" x- h. Y8 x. ]
  68. Codec ID/Info : UTF-8 Plain Text
    1 l  S: ]& h0 J6 R- y5 T1 I
  69. Duration : 50 min 24 s. m3 \# N. @8 n! J7 ~; H
  70. Bit rate : 74 b/s( M2 E  M( t& T) d7 Q0 @& B
  71. Count of elements : 738
    1 `/ a9 R' W$ x) g$ b' A, @
  72. Stream size : 27.4 KiB (0%)
    - C2 |$ @2 }0 z0 d7 u% g1 U: T
  73. Language : Arabic$ C; i  D1 v* K0 p5 h
  74. Default : No
    $ i" v2 f  \$ b. y) @: W
  75. Forced : No
    / E) n% b: n: f
  76. * |4 i2 I: K9 Y! ~
  77. Text #3
    / z1 m$ V0 E. S$ E3 K2 y
  78. ID : 5: J$ B2 |3 s+ P
  79. Format : UTF-8
    5 Y& @, l5 W7 H0 v
  80. Codec ID : S_TEXT/UTF8  P! i* n& j4 ^
  81. Codec ID/Info : UTF-8 Plain Text4 p% X' O' ~8 s7 W
  82. Duration : 50 min 24 s( b3 w" X5 f. N! e5 y
  83. Bit rate : 47 b/s( F+ A- c' M: @7 I! x
  84. Count of elements : 731
    & Q: r. S$ J, \  M
  85. Stream size : 17.7 KiB (0%)" Y: L, A8 [3 w* H
  86. Language : Czech. W, U* u9 p, _  u5 E$ V% _. Y
  87. Default : No7 [9 c0 V- T6 k  C6 S
  88. Forced : No% {1 M! Z+ t" S
  89. , R4 q, n" ]% p8 ]
  90. Text #4
    7 n3 t0 d5 A. E% _* O  [; [
  91. ID : 6
    2 e% I( U" [# \6 y' j9 z* Q
  92. Format : UTF-8% _0 R# z6 L3 v# s: a/ @, L
  93. Codec ID : S_TEXT/UTF89 d# Q- `* ~8 N7 y0 g& s
  94. Codec ID/Info : UTF-8 Plain Text) a" \% V+ \: c) W2 _7 @9 J
  95. Duration : 50 min 24 s$ y+ o- [  h* P/ x+ N9 ?
  96. Bit rate : 47 b/s
      H7 e6 H! b& y* `* A. i
  97. Count of elements : 737# L0 U3 G& b" |& E
  98. Stream size : 17.5 KiB (0%)
    9 g. J# E+ u: n4 F
  99. Language : Danish; t" A$ E9 I: c3 \+ [
  100. Default : No$ D$ l( a9 J6 Q) b  j
  101. Forced : No# x$ S* ]3 j& Z

  102. $ V+ G3 E- d# N# ], Q% c( W) V
  103. Text #5
    / B, w$ J. ]! q* a4 S
  104. ID : 7
    ' F6 N, B, Q3 A" W% Z) Z9 G
  105. Format : UTF-8
    3 U: a5 T- u/ v) ?7 v* S
  106. Codec ID : S_TEXT/UTF8
    3 t$ e2 P1 ~# k8 \. C( o* D- |
  107. Codec ID/Info : UTF-8 Plain Text
    5 w; _4 l& Q: G/ u: Y8 t
  108. Duration : 50 min 24 s$ U* ~( E, r3 Q/ J/ W
  109. Bit rate : 49 b/s3 b' F( r1 Z6 n8 h. x
  110. Count of elements : 7320 H5 o8 ^4 H" m* l& o, B+ b3 r
  111. Stream size : 18.4 KiB (0%)
    * r" d4 S% ~1 L" m4 b
  112. Language : German
    ' d2 ]1 r+ k% |7 `1 d* T
  113. Default : No
    & S& K. i; T, H; H8 C; s
  114. Forced : No$ ~& {. C: ]' y* G
  115.   ?+ a) v, u& l- @
  116. Text #6
    . p1 k  r( J" N0 u) {
  117. ID : 89 H- k4 F3 u, a3 o; f1 D
  118. Format : UTF-8- y) F4 \/ W* p6 k% p% H$ @
  119. Codec ID : S_TEXT/UTF8: F& F$ z& m% o8 }: @( l. G0 h
  120. Codec ID/Info : UTF-8 Plain Text! F) l2 m" G8 `  X8 a
  121. Duration : 50 min 24 s" K- h. a5 e( y) o4 c
  122. Bit rate : 77 b/s+ U; O, s$ q: O4 F5 f5 `0 f3 q
  123. Count of elements : 736+ C9 b3 V3 m- S  ~4 H/ `
  124. Stream size : 28.6 KiB (0%)5 j6 e4 F& H0 b6 \6 y% U) h9 B
  125. Language : Greek$ v' W; ?3 R( Z3 i" l: W& H( s
  126. Default : No
    5 Y7 @3 l/ V' g$ B* u, w
  127. Forced : No* w( D0 J' j* f3 U

  128. / j% g  W4 i% |9 Z3 ~: ?
  129. Text #79 v' H! f! v" s- j
  130. ID : 9% T1 ?/ \8 h$ Q8 [/ V. F& h! g1 d
  131. Format : UTF-8
    4 F# A! @4 R4 [% c2 P6 [4 n* D
  132. Codec ID : S_TEXT/UTF8
    7 ]. w# {  M8 @3 [1 y
  133. Codec ID/Info : UTF-8 Plain Text
    / _" h' \, F; b
  134. Duration : 50 min 24 s- C% g$ b+ F: O1 k7 R: s; c6 ]
  135. Bit rate : 54 b/s
    ; {* m* p, G# W5 Y) D. ^4 U: j
  136. Count of elements : 784
    0 P3 Y5 H2 q$ s! z7 r
  137. Stream size : 20.2 KiB (0%)% e1 x7 g6 r* t' T0 u; I! L  F
  138. Title : British
    0 B3 W" ?) {  L! ~" G, `) @
  139. Language : English
    ! Z: V" z% L' _$ i8 j7 D
  140. Default : No
    $ i( c" w4 z  g4 J- o
  141. Forced : No
    4 o( q; l, d  q8 F; l

  142. % u/ p. b  ]3 {' |# b
  143. Text #85 c6 J6 q7 H7 I
  144. ID : 10
    4 l! j6 k( ~6 N& I+ y9 z4 k2 S7 ~
  145. Format : UTF-8
    % |5 |& z6 S+ k3 t3 @' _( _' Z  }
  146. Codec ID : S_TEXT/UTF8
      E1 r& Z" p& y' r; S) F
  147. Codec ID/Info : UTF-8 Plain Text0 l  h) D/ D- {% V; [2 E0 M" W5 X
  148. Duration : 50 min 24 s
    ; h/ f9 A8 h  C, f$ n
  149. Bit rate : 63 b/s
    7 T" ^; Z" B* u
  150. Count of elements : 933$ q, n* X+ x7 M% P
  151. Stream size : 23.5 KiB (0%)) t( C, f- g9 S$ L6 G, q
  152. Title : British SDH# l3 `$ \( C# d3 X$ W$ s5 G
  153. Language : English
    2 o, ?9 j/ X9 k9 X9 }! C
  154. Default : No% _4 v5 O3 X- P1 X
  155. Forced : No
    4 l9 u0 l5 E* ?6 [

  156. 1 T, Z7 p$ n1 Q
  157. Text #9
    ) L/ N. s! L; n  w& h; w' S
  158. ID : 11
    , c( x- i* i4 w3 Z( E, n# f
  159. Format : UTF-8
    9 W! v$ b. B4 @, z* k4 ]. u
  160. Codec ID : S_TEXT/UTF8
    $ f( c! h* |- P( X0 c5 m/ o' G
  161. Codec ID/Info : UTF-8 Plain Text# _+ O( y9 X. N; Q; }
  162. Duration : 50 min 22 s
    4 G6 f. Y+ d: k$ w4 }
  163. Bit rate : 46 b/s
    # k" |& D8 f- j2 v% Y; ]/ |0 P9 R
  164. Count of elements : 737
    7 e+ L5 s: B- c* v/ F+ a
  165. Stream size : 17.2 KiB (0%)( c5 S' C& y+ k8 E, T
  166. Language : Spanish/ Y6 S, `! B0 z0 q" A) T3 q* i' H& u
  167. Default : No
      _. c- E: K* W4 ^, f) o
  168. Forced : No
    ) X9 r, j7 N$ \$ Q& f+ I$ o  G4 Q

  169. ; Z8 x/ w1 g8 Q+ ^7 H" a& S0 D
  170. Text #10
    3 H; F0 l& \6 G( j# @
  171. ID : 12
    # e$ H  ^/ O1 X- I  [
  172. Format : UTF-80 Z% }% w" `/ `. R. T3 i
  173. Codec ID : S_TEXT/UTF86 e: e2 |2 U/ _/ D' A
  174. Codec ID/Info : UTF-8 Plain Text
    & ?% }* ~* [$ l/ L3 E! h0 j% R
  175. Duration : 50 min 24 s
    " t* Y. t6 \- C. f+ t9 ?  M5 s& t
  176. Bit rate : 41 b/s
    6 g8 A5 F/ E( T4 Q
  177. Count of elements : 737% u9 U  k" v# r( l* X. G
  178. Stream size : 15.2 KiB (0%)
    2 ]0 ?$ ^; o# n( W
  179. Title : European6 ~1 F$ B) f- A( w' D- H8 W
  180. Language : Spanish0 r# W. l- M2 @# I8 Y+ K
  181. Default : No' h. q# F) ~  O: D3 f& k& |" ]* C! D
  182. Forced : No( N4 a5 }% X; S+ }5 S- m6 o/ D& Y

  183. 7 K# r  k; L+ Q( s
  184. Text #11: f" s6 q7 K4 U3 x( ]
  185. ID : 132 e7 v. O# ?8 C$ z5 w, r! Z
  186. Format : UTF-8
    * g( h  b8 T0 D; [3 w
  187. Codec ID : S_TEXT/UTF8. @. z3 r$ X( h; H, R
  188. Codec ID/Info : UTF-8 Plain Text
    5 W; j# m! E7 R" \- U2 c2 m# i8 Y5 w
  189. Duration : 50 min 24 s
    ; V9 T" [* S& T( W# @
  190. Bit rate : 47 b/s7 l: b$ t* V' h  X- A
  191. Count of elements : 7381 z5 S% Y; z1 P/ M6 d
  192. Stream size : 17.4 KiB (0%)- O5 L6 ?4 A- q  Q* |7 B
  193. Language : Finnish
    - v$ [( [: }3 h  H+ E$ s$ f# }
  194. Default : No5 t' h3 z0 I, o5 p3 |5 i- I
  195. Forced : No! V& L% T% T: w9 {

  196. $ D* c# e" E4 d
  197. Text #12
    - _+ }% J9 H: Q' ~
  198. ID : 149 \; q3 v& |2 [( q  ]" e( a
  199. Format : UTF-8& M) h5 q) h8 e5 p, T
  200. Codec ID : S_TEXT/UTF8
    9 i6 v' a' u: D  ^) D: D% |
  201. Codec ID/Info : UTF-8 Plain Text' [- C( k% t* ^  W
  202. Duration : 50 min 24 s( w: q$ f8 t% c) E& n- N7 p
  203. Bit rate : 47 b/s, d3 |/ f2 ~+ y
  204. Count of elements : 724
    4 p* q+ v# A$ \( Z) o9 P. a
  205. Stream size : 17.5 KiB (0%)
    " Z6 N9 L  _9 v$ x
  206. Language : French
    $ T4 `% m8 h( N/ @  u
  207. Default : No- r1 H$ ?: e4 A2 w5 A
  208. Forced : No' w1 F, {+ ]- y6 {& [5 @
  209. 5 P! j. K9 P3 v6 p6 [9 o2 q
  210. Text #13* }$ Z' y" H; U* _; {$ P$ p: _
  211. ID : 15
    1 k9 s# c1 w$ B
  212. Format : UTF-8
    + P( t& b! j' h* a  X& M& f, ^
  213. Codec ID : S_TEXT/UTF8
    7 j2 y/ J: s4 }" N3 I+ j
  214. Codec ID/Info : UTF-8 Plain Text
    $ C- M' q! Q$ ~0 g. Z
  215. Duration : 50 min 24 s8 L" j8 `" U1 u! x8 e4 F+ G3 N: G
  216. Bit rate : 73 b/s. `, X& j2 z6 N$ f% ]4 `- x; r
  217. Count of elements : 738
    ! q5 s2 T/ D  N# s
  218. Stream size : 27.2 KiB (0%)1 H6 }% N8 \8 G
  219. Language : Hebrew$ v% r( v0 h: o# U! M. v$ C- d
  220. Default : No* ]  P: F" O6 S( l; {+ @/ y* ?( j6 j
  221. Forced : No8 _9 V, j9 h8 S  y2 m0 A' E
  222.   A" p" _' i- R/ |
  223. Text #14. a/ @7 S/ ?% }# B% S# _
  224. ID : 16
    # f: y8 p! Y7 n) j" @& K
  225. Format : UTF-89 F- T3 m' ^- q. O7 V3 Z- l' X2 P
  226. Codec ID : S_TEXT/UTF83 ^( J: h5 [. W, g+ ?& i2 C! U6 a
  227. Codec ID/Info : UTF-8 Plain Text
    7 n, Z7 E) X5 f, {8 U# `( K
  228. Duration : 50 min 24 s
    $ L9 G& Q3 C! r/ m6 J8 s2 B  E
  229. Bit rate : 45 b/s
    & y; x9 e: h( e
  230. Count of elements : 737) {6 S5 n5 o. t; O$ \8 L
  231. Stream size : 16.8 KiB (0%)* Y  V5 C3 a) B
  232. Language : Hungarian" \2 z6 {% Z4 G
  233. Default : No
    " a6 D9 @4 f6 V! l2 |
  234. Forced : No1 W) [" R' u( I

  235. 1 ~9 z5 ?3 ~1 Y$ o* a5 Q  {
  236. Text #15& G, ^1 m" b5 e. k" V
  237. ID : 17
    ( c1 p) O  ~2 B% L
  238. Format : UTF-8, [1 z6 k, C9 @/ b
  239. Codec ID : S_TEXT/UTF8# _" d& \6 k: I6 K5 k
  240. Codec ID/Info : UTF-8 Plain Text
    / `. i4 ^9 O# S) Q
  241. Duration : 50 min 24 s8 [0 y8 `( n; @; k& {9 q0 D
  242. Bit rate : 45 b/s; x+ k9 P* t- E/ ^+ C$ }$ {4 r
  243. Count of elements : 736* q8 R" U1 z- P; w  r: e
  244. Stream size : 16.7 KiB (0%)
    , E1 A; y+ S) M0 a8 I
  245. Language : Indonesian/ t& r# ~. ~# j+ W3 n
  246. Default : No8 M0 A5 C/ `4 U8 u
  247. Forced : No
    8 I8 V! g6 f1 O
  248.   b& k8 |3 b' x2 m
  249. Text #16
    8 H% X; A" Y7 ?- D. u. ^
  250. ID : 18
    3 U# T: S0 K6 o/ u
  251. Format : UTF-8% R8 n$ S  i5 c( ?8 z4 z
  252. Codec ID : S_TEXT/UTF81 W+ M3 @, k( `  Z1 d
  253. Codec ID/Info : UTF-8 Plain Text
    2 e/ p" R9 ]& I+ B( f- @
  254. Duration : 50 min 24 s8 d+ X  o5 s( q7 _9 D! ?9 ?
  255. Bit rate : 48 b/s9 ?$ |' D$ @: n3 Y8 X+ Z
  256. Count of elements : 737
    1 [) E+ c( Z# ?& P+ K( I, @% n
  257. Stream size : 17.8 KiB (0%)
    ! P' K6 b& w+ d) V& e+ I
  258. Language : Italian2 b' V6 m0 X+ D
  259. Default : No
    7 _6 a, S/ d8 h0 `% G; F- N. X
  260. Forced : No) [: Q- Q* E$ k) K1 Y5 ]3 W% f0 C

  261. , n' ^, ~! {( a8 d, o
  262. Text #17- U2 |4 ~2 G. S# ^( C$ z  ]0 e
  263. ID : 19- q, G7 _" a1 T$ d
  264. Format : UTF-8
    ( A: ]! P/ o  z" d& s
  265. Codec ID : S_TEXT/UTF8
    0 S1 F. Z! L3 x" _- ?$ ]  }
  266. Codec ID/Info : UTF-8 Plain Text2 H3 i( L! }) m' d
  267. Duration : 50 min 23 s4 B) l5 i, b7 h
  268. Bit rate : 47 b/s
    ) v" W9 Z& Z: V0 T+ ~
  269. Count of elements : 591
      F! U( k, b, k! T5 |! m& j! i, `
  270. Stream size : 17.5 KiB (0%); E0 h3 |9 ?' W- p1 W% ]2 n3 d( J
  271. Language : Japanese
    3 X! @3 I+ L4 l* f9 U. ^
  272. Default : No! M  J$ j9 Y3 D3 s
  273. Forced : No
    " z, _) H3 u' z) I
  274. ! B- X; [- [7 ?9 g' a( X4 z" F0 m
  275. Text #18
    2 P5 E/ s% f6 i( j- Y. e
  276. ID : 20/ P. `: Y& F  G1 C0 `9 r. n
  277. Format : UTF-82 ~+ @( M. k5 l! ^) j; Y
  278. Codec ID : S_TEXT/UTF8
    2 k" D$ R/ @. f8 ]5 q
  279. Codec ID/Info : UTF-8 Plain Text/ r! |2 d) c+ O8 o; {9 b0 |0 l
  280. Duration : 50 min 24 s; z5 H- U5 u3 U% T7 ^
  281. Bit rate : 71 b/s: r' o, z# C7 E3 ?! h+ q
  282. Count of elements : 7154 L; N2 e0 K$ s$ L: w
  283. Stream size : 26.4 KiB (0%)
    , A# G$ F( p2 U& u1 Z' y% O/ x
  284. Language : Korean) }8 x6 V  W# K7 |
  285. Default : No/ b" \" y* u; V; I7 C
  286. Forced : No# Z! M3 H  L8 g# y2 c0 y

  287. ! _8 ~+ Q: i1 f0 E
  288. Text #19
    7 ~) O4 _. H% J
  289. ID : 21: _, L0 W3 p( J" P0 _
  290. Format : UTF-8( {' L$ Z2 A6 ]# _  Z. y
  291. Codec ID : S_TEXT/UTF87 n5 m- a' i  G5 Z. ~" ]0 E6 c2 V
  292. Codec ID/Info : UTF-8 Plain Text* p1 F- n' O  f3 Z" a) A$ H* l
  293. Duration : 50 min 26 s
    0 O/ {# d: t( @5 h# V- a2 Z4 D
  294. Bit rate : 95 b/s/ H# P- h# Z" s, O
  295. Count of elements : 926
    0 K5 a4 X! S' p1 T
  296. Stream size : 35.3 KiB (0%)
    + y( W0 t, [$ ~: w: I1 ^8 y
  297. Title : SDH
    # i" M  n, n, d3 ?# n7 s! v
  298. Language : Korean
    2 \1 |: ~8 X' q( D
  299. Default : No# O# `$ q; _7 y# r3 j
  300. Forced : No5 |0 i+ A2 O- d8 ^
  301. 3 s" z# ]5 u8 B1 Y# ^
  302. Text #20; i6 L% ^4 E& H* T, ?' f- k& m
  303. ID : 22! G4 Z: Y: [1 ^1 d
  304. Format : UTF-8
    ! G" }8 z. e, Y
  305. Codec ID : S_TEXT/UTF8. X! {$ t: U3 X
  306. Codec ID/Info : UTF-8 Plain Text
    4 z; k) _3 K& ?# M: X7 M3 K' T4 G
  307. Duration : 50 min 24 s: E) G8 W! w8 a2 F1 |( |
  308. Bit rate : 45 b/s
    4 X* S2 c3 V1 d, u2 l$ v" ^
  309. Count of elements : 738
    ( M) O+ R; q+ G! T4 @
  310. Stream size : 16.9 KiB (0%)
    $ M( \5 r6 f" W; a- u/ N. D
  311. Language : Malay
    - r( C) x2 s( B
  312. Default : No
      G/ W* u$ I- c% h5 u
  313. Forced : No5 u0 j& f. @- d

  314. & S3 h% G9 p5 R. k, g
  315. Text #21
    ' C8 \; |& w; g1 F; i2 W3 e
  316. ID : 23( d" x( a5 p+ w3 B2 T. G3 u5 p
  317. Format : UTF-8
    # B1 p' e2 [; P7 E8 X! l
  318. Codec ID : S_TEXT/UTF8
    2 j, Q4 u* p+ q) y  r0 m- A" d
  319. Codec ID/Info : UTF-8 Plain Text
    ; a0 Q2 e' a2 Z, H5 C: E
  320. Duration : 50 min 23 s, g, h+ h$ V3 G3 b. C6 P) H" }' N1 E- K( h
  321. Bit rate : 47 b/s
    1 O& T, q" x3 x
  322. Count of elements : 737. \' r: u: v4 [2 E
  323. Stream size : 17.5 KiB (0%)8 u) _3 z* l; P0 y6 C2 `  v( h0 t
  324. Language : Norwegian Bokmal
    0 S! ~8 H( _/ ~9 A* l- v; [7 L
  325. Default : No! q' _/ ?; L) r6 s7 J$ F
  326. Forced : No+ P/ T, F) X# ^3 H; x; M

  327. 4 U" @) H; }7 _1 k
  328. Text #22
    0 D- V, i2 b; t3 g
  329. ID : 24% p$ s, Q* {1 a( Z5 ?! |
  330. Format : UTF-8
    ' M3 F) d1 l* J! B5 \4 b
  331. Codec ID : S_TEXT/UTF80 ?. `* ^/ L! v9 Y" u4 T
  332. Codec ID/Info : UTF-8 Plain Text
    ) k! K! ^. O. Q0 T  }: U
  333. Duration : 50 min 24 s3 w. p$ `# E. s' y( @
  334. Bit rate : 47 b/s5 H& D0 V7 {9 `, G
  335. Count of elements : 729( m# Z: r3 {8 d" @3 @7 `8 N
  336. Stream size : 17.6 KiB (0%), m9 l* N/ \3 U" ~* F/ c" [" M( ~* y
  337. Language : Dutch) I4 [0 m; \& u9 q, T
  338. Default : No
    9 A% P: s+ A6 y2 D& x+ t" M
  339. Forced : No
    2 @; i4 q+ `3 W  b6 k6 G; K

  340. 9 n5 p  Q5 W( J9 d- U2 {$ ^
  341. Text #23
    # s# K% n. a& \) Y
  342. ID : 25+ ~1 t3 h4 n$ i+ b! w$ [5 z/ A1 `
  343. Format : UTF-8! q5 a3 Z- K; o4 N% F) `
  344. Codec ID : S_TEXT/UTF8: g, j# S1 m0 p6 M
  345. Codec ID/Info : UTF-8 Plain Text
    , \- x( f) N+ f& Y' n$ m
  346. Duration : 50 min 24 s' y+ z. l% g& t1 n8 N3 s  h) [
  347. Bit rate : 44 b/s
    % C' v3 X' j4 {/ M4 Q
  348. Count of elements : 7151 ^2 r( W. }5 G  H* v5 Q
  349. Stream size : 16.3 KiB (0%)
    2 h7 f; |2 A5 J9 |. G: b
  350. Language : Polish
    - G# j  P( c& E  Z
  351. Default : No/ x2 h" i4 I, [& H2 {
  352. Forced : No  Q/ {) i: Y6 t, Z$ Z7 }* z
  353. 8 }1 b$ C1 t' j, r9 p4 ], @$ t
  354. Text #24
    , {# v% v  H! e0 e8 Z
  355. ID : 26& b+ o( u- L& @5 L
  356. Format : UTF-8: R* {, r( I7 O9 {3 i1 C4 T8 d
  357. Codec ID : S_TEXT/UTF8
    # n# ]9 B& o% \9 h2 h4 Z1 N% }' ~3 A
  358. Codec ID/Info : UTF-8 Plain Text
    * g/ A0 a3 k* R7 d2 m$ I" x
  359. Duration : 50 min 24 s
    8 K& u7 O6 v8 |
  360. Bit rate : 47 b/s" U$ {- h3 ^/ H2 b: E
  361. Count of elements : 735
    3 w, o5 E1 p" t
  362. Stream size : 17.4 KiB (0%)
    $ r0 p5 R: ~* a  D) }& w5 L7 K5 D( I
  363. Language : Portuguese5 f" }9 n, o& _% f; v/ }2 [# v( _
  364. Default : No& P) w4 O+ B8 Q) i$ f  q
  365. Forced : No
    % B+ h/ B- ~0 p0 f
  366. 6 v7 R0 J+ C7 X4 ]- q  J
  367. Text #25; Q+ A, J' g+ \! F
  368. ID : 27
    " B. M2 l1 S  m$ ~: I% D. {9 i
  369. Format : UTF-8% o$ a, k3 @- c. w1 E( y5 V4 O4 ]! t4 ~
  370. Codec ID : S_TEXT/UTF8
    * ~/ i0 K) L, ^
  371. Codec ID/Info : UTF-8 Plain Text& q6 E6 Z5 c9 N9 ]9 ]
  372. Duration : 50 min 24 s5 Z9 m6 f* R7 R, |
  373. Bit rate : 46 b/s
    ) W6 ]2 @' p" Y" E2 `3 B$ p; ^* D
  374. Count of elements : 738! X7 f- {6 B) C
  375. Stream size : 17.2 KiB (0%)0 P# F/ r' h, K+ @& \: p
  376. Title : Brazilian( E# b5 q+ j, c# \% D
  377. Language : Portuguese5 H8 K6 u+ W9 a! |7 Q8 E4 l% _
  378. Default : No
    . n  ~. Y. O8 n( [' p
  379. Forced : No3 {+ {) f! Z5 A2 c, P, Q

  380. 0 E+ a$ o* q% E5 z2 X
  381. Text #26
    / v& O. T& k% ]) ^8 [8 X9 ]
  382. ID : 28
    ! [  I; `, `( {5 v# l, E
  383. Format : UTF-8
    6 q, I  u8 I, x' E
  384. Codec ID : S_TEXT/UTF8
    4 h7 r' H6 X! ~: V3 J
  385. Codec ID/Info : UTF-8 Plain Text
    : I. ?' I, F$ U. W# L- u
  386. Duration : 50 min 23 s1 ^$ r5 h: t, h( C4 q! j
  387. Bit rate : 51 b/s
    7 u0 _" T. T- x8 |( C/ \7 _$ |
  388. Count of elements : 737
    4 p8 ^1 V7 R( @8 E
  389. Stream size : 19.2 KiB (0%)! u/ R1 M8 u$ `( t9 F9 c& @
  390. Language : Romanian5 ^- h  \; N% a) n7 U6 w
  391. Default : No
    2 g" H, @1 W# l, a7 a6 W
  392. Forced : No1 H" w( M6 s1 u0 E

  393. + c2 P& Q) R2 J8 V1 C
  394. Text #27  o: N  q2 J; z9 |% {
  395. ID : 29
    0 E! Z( o8 P9 v* y# {8 _' ?- I
  396. Format : UTF-8) V5 G+ q' j% S# n, q( b" ~
  397. Codec ID : S_TEXT/UTF8
    % r/ n; N! ~" u4 S+ ]5 \/ f2 r
  398. Codec ID/Info : UTF-8 Plain Text- G; h6 |9 i! `7 o, f6 V4 ^4 N& q
  399. Duration : 50 min 23 s( G3 `8 f3 i* ?5 a
  400. Bit rate : 70 b/s2 }$ |  A) B+ Q' v3 R
  401. Count of elements : 7374 G; q! p- \: ?: e+ _
  402. Stream size : 26.0 KiB (0%)
    6 w6 k' F. N8 P( U! B. a
  403. Language : Russian
    # ~, P1 {5 {0 ?: X1 d
  404. Default : No" ], M; L" |* _/ f
  405. Forced : No" V9 o  r8 s* r. b# x

  406. 5 H# D! T  m7 F/ t; B6 x
  407. Text #283 a* Z8 O0 o  a+ [9 _0 Q+ A( a
  408. ID : 30
    # b# i' R! U2 p  J' X2 m
  409. Format : UTF-85 f9 R1 @! X; f$ ]: ]0 ~
  410. Codec ID : S_TEXT/UTF8
    $ ]/ ]7 a) e: i* Q$ q' u" \% C
  411. Codec ID/Info : UTF-8 Plain Text6 g$ q: v1 _! y
  412. Duration : 50 min 24 s
    " X0 T* l- j2 l9 L1 U
  413. Bit rate : 49 b/s
    " O' c. I0 C, J5 f# m+ y* H: p
  414. Count of elements : 736+ c: I, S1 ?/ a( h3 @
  415. Stream size : 18.1 KiB (0%)
    # q' e7 U5 {, l' P
  416. Language : Swedish
    ! O5 {0 f7 [" c6 v6 u
  417. Default : No
    ( W5 w5 N; N1 q/ |; H
  418. Forced : No( k5 m+ B  E+ K& ~; D

  419. $ I" t4 Y- n$ {: I" U8 {; S
  420. Text #29' Q- p  t4 t9 h
  421. ID : 31
    1 T# [# N# T8 k6 H" J4 ^
  422. Format : UTF-85 @5 a% e, q$ R# ~
  423. Codec ID : S_TEXT/UTF8* ~# u" A# \3 {- K# N) I$ t, D
  424. Codec ID/Info : UTF-8 Plain Text$ H0 O$ H1 b; O/ _8 y
  425. Duration : 50 min 24 s# _( E. X6 J: g+ }8 l
  426. Bit rate : 119 b/s# a( }+ h4 d/ v9 z
  427. Count of elements : 738
    ) B: k6 \0 ~5 v- \
  428. Stream size : 44.2 KiB (0%)! _9 L# p8 u4 N. P" h5 d
  429. Language : Thai+ J0 M. d) r6 U# n
  430. Default : No  B5 l: _4 ^- x
  431. Forced : No2 i2 [2 O" R" I. N* ^
  432. ( S$ o& [% Z, m6 q% m# k3 C7 U
  433. Text #30: }, v, ]( d* }: o. a4 C+ P1 J
  434. ID : 32: D* ~6 F. p" s  w; s' Z; u
  435. Format : UTF-8. q( u) V( R  H. v9 y: H- I& K+ i
  436. Codec ID : S_TEXT/UTF83 m, _! O1 l$ Y4 q
  437. Codec ID/Info : UTF-8 Plain Text
    * b3 B9 M5 [2 G/ r. Z% X# b
  438. Duration : 50 min 24 s" ?) P9 z( d- {4 v* ?4 f
  439. Bit rate : 158 b/s0 l: o8 K4 Y# ]9 a
  440. Count of elements : 919! R" ], E& Y( R" _
  441. Stream size : 58.4 KiB (0%)/ S# h/ n( M! T$ S
  442. Title : SDH/ ]) N! b( X3 N! `  V
  443. Language : Thai
    6 b+ Z, ~' F1 k. P
  444. Default : No
    ' I. `8 s6 N7 l+ Y/ }- u
  445. Forced : No: q; O) J  N: {( p" F0 K
  446. * |: e( G2 j- e# S! |6 N6 E( Q- p
  447. Text #318 j+ d9 m) V7 v7 V4 j8 x- _
  448. ID : 33
    4 P( I7 s& m; N4 }5 ?
  449. Format : UTF-81 t5 A/ I. |; a# D) o0 V
  450. Codec ID : S_TEXT/UTF8* t/ H- P& {" R+ J6 W% Z# R4 `. K
  451. Codec ID/Info : UTF-8 Plain Text
    0 z! R, U8 b3 j, Z
  452. Duration : 50 min 24 s+ X4 w# r& C3 ]) V; [  b
  453. Bit rate : 46 b/s, z* @& k- ~2 |1 ^8 B9 R
  454. Count of elements : 738' K! V; I0 T: H* c+ q$ u( p
  455. Stream size : 17.2 KiB (0%)4 A  U0 |% T" O3 V! [5 O; b
  456. Language : Turkish
    + i8 f. I0 f. s( n' w
  457. Default : No
    5 Z: ?7 H* O8 j9 a# A2 o7 M
  458. Forced : No
    1 n* h, g; B3 `" ^- |( l& R  [

  459. % d% ~9 V# ^, j. @; d+ d  y" }/ h
  460. Text #32
    0 ]8 }0 s0 t/ \( e8 ^* m
  461. ID : 34
    8 \( q  P2 [8 L7 h) i
  462. Format : UTF-8. U/ g3 P: g( A1 h1 i
  463. Codec ID : S_TEXT/UTF8
    : i2 G' L& Q) L! n
  464. Codec ID/Info : UTF-8 Plain Text
    / ?4 q3 _3 W  B* D9 h4 z0 A
  465. Duration : 50 min 24 s
    ) O: A3 s. M+ v  M% N8 D4 x
  466. Bit rate : 65 b/s. m6 b2 [9 i, l
  467. Count of elements : 700
    ; X  L! r- m, n8 z7 G/ J- J8 b( d' q
  468. Stream size : 24.1 KiB (0%)
    & X2 c6 i2 R  b9 a" E2 S
  469. Language : Vietnamese1 H7 }( G( M' ]5 z. U* s# P* H$ \
  470. Default : No: s# z+ ~( G+ f3 s
  471. Forced : No0 @7 h& U* {# |

  472. 1 [0 r. l) m3 e! q
  473. Text #33& a# v6 F) {' W
  474. ID : 35' d9 N# y- h) m' h7 N
  475. Format : UTF-8
    ; b8 b9 `7 d  u0 r$ @5 G* D. W
  476. Codec ID : S_TEXT/UTF8" m" j7 T. q( o, A
  477. Codec ID/Info : UTF-8 Plain Text
    / l# C" ~- _% Y' m8 [1 }8 A7 C: Q
  478. Duration : 50 min 11 s% O- p$ |% W# ^5 f' B
  479. Bit rate : 49 b/s9 d7 f: Q, B8 j% F; L4 ~
  480. Count of elements : 697. P( Z5 t. }3 T+ s
  481. Stream size : 18.2 KiB (0%)3 W  S  l- h: B8 f6 O1 f# h+ b
  482. Language : Chinese
    $ X6 e, W9 {3 W/ p6 p) `
  483. Default : No
    + r. y- t9 v6 \; Z- M8 i% Z- M$ L
  484. Forced : No
    3 l4 E' B9 M$ I; m8 {

  485. ; Z0 b% y3 n6 y8 l0 M
  486. Text #34- Q- X/ R* o/ y( W- o
  487. ID : 36! N7 W9 ^, K0 @8 a- K$ s$ N% ^
  488. Format : UTF-8
    0 s( i5 l. a4 d9 p1 _% @
  489. Codec ID : S_TEXT/UTF8
    7 H& o5 z. C, @. F$ U/ Z1 D, N
  490. Codec ID/Info : UTF-8 Plain Text3 K( g4 W/ M* M' g& @
  491. Duration : 46 min 0 s4 N. p( n" ~/ @% t* N9 y' N! b* b, |' Z
  492. Bit rate : 55 b/s
    2 C" |% n& g7 _
  493. Count of elements : 725
    8 b( c: }* `3 w6 ^  P8 P' ~- ^/ D
  494. Stream size : 18.7 KiB (0%)
    6 i' v. B" c% u5 J) J$ T# n
  495. Title : Simplified! N2 J0 w& w% f* i) n* v( f/ Z
  496. Language : Chinese
    1 p! e2 Z) o/ H5 p
  497. Default : No
    & g7 m# `/ R+ q3 @6 c- ]
  498. Forced : No+ {, z" i2 `5 y: @& F# z, H+ s8 x4 E

  499. . g/ ]. A4 F; v/ r7 f" {6 V' {- u
  500. Text #351 K1 _$ y  _0 \% N
  501. ID : 37
    2 q0 [" a/ E. j) j/ `3 f- o
  502. Format : UTF-8
    1 v+ c" m4 D4 S6 v! g
  503. Codec ID : S_TEXT/UTF8
    : x# z1 U( o+ x- D- Z2 d5 o
  504. Codec ID/Info : UTF-8 Plain Text
    4 _" s: W7 L9 _! F+ R; l6 }- M5 i5 ]
  505. Duration : 50 min 19 s9 s( c/ G: t8 {6 E; Y7 X1 q$ Z
  506. Bit rate : 68 b/s
    , D3 W* h' E. C, ~) f. R
  507. Count of elements : 9365 R8 Q7 E7 l: @. ]: i! s
  508. Stream size : 25.4 KiB (0%)' A6 l# U( r7 W3 g
  509. Title : Simplified SDH
    3 p# D9 s4 C8 ?% i5 i) a& j
  510. Language : Chinese4 R' a' `: \+ G8 X% y4 M4 c: O# s$ D
  511. Default : No& v) I8 _# n+ L3 G2 @. D
  512. Forced : No
    $ n6 H) Q3 E; p/ ?; ?2 g/ Q' ~: H

  513. 5 k9 l, P$ y! m
  514. Text #36( c, ^$ k( n* E# s, E9 \
  515. ID : 38, N+ g7 s. X0 f
  516. Format : UTF-8
    3 m" _! {0 @- r- U$ Z2 O+ s
  517. Codec ID : S_TEXT/UTF87 E- l. E; P9 v& u4 T/ @1 u
  518. Codec ID/Info : UTF-8 Plain Text& r2 q- A" B; C- E/ v
  519. Duration : 46 min 0 s
      L& C% n0 l( i1 A9 I, U, l
  520. Bit rate : 56 b/s( A$ c4 F8 V7 I/ K/ @/ B
  521. Count of elements : 763
    , Z8 M; W+ n' m6 r/ o; A
  522. Stream size : 19.0 KiB (0%)
    6 f- q6 ^# m# M
  523. Title : Traditional5 Q! p" a. T* z0 s; L& q* f/ J
  524. Language : Chinese
    / i) R- M6 Z* [2 K- B% T! w
  525. Default : No
    5 G; Q( _9 L9 Y* t9 q8 K5 D+ d- N
  526. Forced : No+ x. G/ n+ i! s
  527. + k, q# F' r% N" \  I4 Z
  528. Text #376 [' M; |7 W' J: ~* V' _' X! ^; C8 z
  529. ID : 395 g7 a/ `# S! g: F0 ]
  530. Format : UTF-8
    * x7 K5 t* P5 r) S# B3 A
  531. Codec ID : S_TEXT/UTF8
    ; Q, X5 @- S2 ]1 y/ d
  532. Codec ID/Info : UTF-8 Plain Text
    8 U* [9 `4 A  G  F5 X/ q
  533. Duration : 50 min 19 s
    6 A7 F/ P9 Y3 ^7 G
  534. Bit rate : 69 b/s
    , V( k) a, }3 m+ A
  535. Count of elements : 924
    . _9 S$ _/ a# @8 P2 ?; s. V/ f; t0 @
  536. Stream size : 25.6 KiB (0%)
    / o5 |1 M8 V( N9 x
  537. Title : Traditional SDH: \4 a: o! R2 k  C* `4 D  P
  538. Language : Chinese3 h( V/ ?) \6 |, F6 l7 x
  539. Default : No: h3 o- Y! r' Q! d8 g  A
  540. Forced : No
复制代码

6 t7 K( U' B: ^" @
8 R! o1 H0 ]4 e& K4 J" K
! m9 u: B* ^+ `/ c" x# a& t3 Y4 F: e- v- {: B& @
$ ^: D1 {* K2 |
9 X. U- `. N7 t( b. u
游客,如果您要查看本帖隐藏内容请回复  VIP可免回复查看隐藏内容 详情请点击
发表于 2020-1-28 16:41:04 | 显示全部楼层
谢谢楼主分享高清版本
发表于 2020-2-1 09:19:31 | 显示全部楼层
这部剧 貌似不错的  下来看看  谢谢分享!
发表于 2020-2-1 15:37:56 | 显示全部楼层
聽說Netflix自製的劇都挺不錯看的。來看看
发表于 2020-2-3 23:46:53 | 显示全部楼层
最近几部上奈费的都不是很高分啊
发表于 2020-2-4 22:27:24 | 显示全部楼层
Netflix出品的还是不错的
您需要登录后才可以回帖 登录 | 立即注册

本版积分规则

QQ|封号公示|手机版|有问题发邮件到admin#(换成@)hd1tj.org|微博|免责申明|HD一条街

GMT+8, 2020-2-28 13:49

快速回复 返回顶部 返回列表