HD一条街

 找回密码
 立即注册
搜索
查看: 69|回复: 4

[港台] 真人秀:圆环 第一季[自带中文字幕]The.Circle.US.S01.1080p.NF.WEBRip.DDP5.1.x264-NTb 31.6G

[复制链接]
发表于 2020-1-23 18:22:41 | 显示全部楼层 |阅读模式

马上注册,结交更多好友,享用更多功能,让你轻松玩转社区。

您需要 登录 才可以下载或查看,没有帐号?立即注册

x
1 y( x' V4 M  V. [
                               
登录/注册后可看大图

+ @3 o! @) l9 A2 M' N0 S% P! M
" U. r7 N$ h$ K2 W◎译  名 圆环
$ E5 o. z4 R/ A$ S, r◎片  名 The Circle+ E: ]% ?( |# `
◎年  代 2018" f" x; C, b! c; Y2 Q9 T* X
◎产  地 英国$ A" s: C0 E& R! E+ B8 U( |
◎类  别 真人秀
9 e2 L+ a9 C0 s◎语  言 英语
& p  f- q  d: y$ p- j  K# ~8 s◎上映日期 2018-09-18(英国)% ?0 i+ U, ]! t1 |
◎IMDb评分  6.9/10 from 438 users" ]9 l. A! j/ P
◎IMDb链接  https://www.imdb.com/title/tt8430234. Y/ m$ m0 q4 m/ t: ^& e
◎豆瓣评分 0/10 from 0 users
0 N9 _+ N) f# ^7 C* A+ H, n◎豆瓣链接 https://movie.douban.com/subject/30336554/6 T6 Y" n$ T* e9 {& }
◎集  数 7
" m+ I4 X7 @# L" I$ W◎片  长 60分钟8 ^& q# ]! v; P/ ]# f. r
◎主  演 Sophie Willan
$ f' B  ~1 S& _# {* q1 T& s       Freddie Bentley  d1 [! C1 C6 O  N6 d% G
       Alex Hobern
( h. e; o7 C, z       Daniel Mosaku3 L* q1 R# s0 |3 `) m; t
       Sian Owen
0 x$ k2 J3 K: Z- I. E  G& q+ ^6 p5 r. U/ I" p
, w+ d! j2 s  Z$ o
◎标  签 反乌托邦 | 英国综艺 | 真人秀 | 实验 | channel4 | 综艺
- @3 J5 m2 T! ]7 j4 M$ r% B3 a0 Y4 X0 `. F0 \+ ~0 W
◎简  介  
* l  u9 L0 U. P, h) N
) r9 w* y0 w) N! E, ]" J" c  People from all walks of life compete in a popularity contest to win a cash prize.
  1. Video
    6 J- S  U# e1 f' {' {# Q+ m; `
  2. ID : 1  F' D; q1 ~3 C8 g; d3 O! I$ U& C
  3. Format : AVC& o) c- X- H  s  ^  c
  4. Format/Info : Advanced Video Codec0 W. I" T) \, w: P; F
  5. Format profile : High@L4
    0 {: y, m0 F, G9 |# b- d( k, R3 ~
  6. Format settings : CABAC / 4 Ref Frames' e# S& L. c8 S2 P# z
  7. Format settings, CABAC : Yes& M0 x' s( u, O! R: ?
  8. Format settings, Reference frames : 4 frames
    0 m% `& w* H3 Y1 z
  9. Codec ID : V_MPEG4/ISO/AVC
    ( {% x7 {7 U2 P# o" I1 A' f5 Q! K
  10. Duration : 1 h 3 min
    $ U% M+ h+ [/ t/ P
  11. Bit rate mode : Variable
    3 R0 B' G4 ^6 L, V9 R( h4 A
  12. Bit rate : 6 953 kb/s
    6 L4 Z6 h2 {" T( O- J
  13. Maximum bit rate : 20.0 Mb/s* }9 i5 K, a7 F+ h. p  I
  14. Width : 1 920 pixels9 G% s# s' O. A- a8 s# F( T! c
  15. Height : 1 080 pixels9 t& |& l9 r" j& e5 U  F" B
  16. Display aspect ratio : 16:9" d: }( }+ Z9 ]! {$ m, a: q
  17. Frame rate mode : Constant& v) F; \1 D+ G
  18. Frame rate : 25.000 FPS! o( J2 X$ A: m7 N1 w
  19. Color space : YUV
    ) d( k5 W5 j8 G7 M7 S( Z1 E, ^
  20. Chroma subsampling : 4:2:0
    & e3 U: V& B  ?: q4 s
  21. Bit depth : 8 bits
    ' c# c1 A5 ~5 S. `0 O- `/ D
  22. Scan type : Progressive
    9 V3 q4 V0 n! C8 ^3 B9 ^6 x: ~
  23. Bits/(Pixel*Frame) : 0.134
    1 E; @5 m$ S2 p- q) S* d
  24. Stream size : 3.10 GiB (91%)
    / d' E) z. m/ I+ t: P
  25. Writing library : x264 core 148 r2715 7e752283 X/ r$ D; A- ?1 K
  26. Encoding settings : cabac=1 / ref=4 / deblock=1:0:0 / analyse=0x3:0x111 / me=umh / subme=10 / psy=1 / psy_rd=1.00:0.00 / mixed_ref=1 / me_range=120 / chroma_me=1 / trellis=2 / 8x8dct=1 / cqm=0 / deadzone=21,11 / fast_pskip=1 / chroma_qp_offset=-2 / threads=6 / lookahead_threads=1 / sliced_threads=0 / nr=0 / decimate=1 / interlaced=0 / bluray_compat=0 / stitchable=1 / constrained_intra=0 / bframes=16 / b_pyramid=2 / b_adapt=2 / b_bias=0 / direct=3 / weightb=1 / open_gop=0 / weightp=2 / keyint=250 / keyint_min=126 / scenecut=0 / intra_refresh=0 / rc_lookahead=250 / rc=crf / mbtree=1 / crf=24.0 / qcomp=0.50 / qpmin=6 / qpmax=51 / qpstep=4 / vbv_maxrate=20000 / vbv_bufsize=25000 / crf_max=0.0 / nal_hrd=vbr / filler=0 / ip_ratio=1.40 / aq=1:0.804 L; X* a) x3 Z$ r' a7 e2 Z
  27. Default : Yes1 S& p) p' N/ k% I; R
  28. Forced : No' T: L, |8 X  A. w4 N0 w9 w9 t
  29. # Q0 q6 J$ u: @# S2 z
  30. Audio+ s5 S$ M  f% _$ J
  31. ID : 2+ q4 K' d/ E5 Y
  32. Format : E-AC-3
      T5 M. J1 _# f9 d
  33. Format/Info : Enhanced AC-3
    4 ?% F' k, g( I
  34. Commercial name : Dolby Digital Plus
    0 u+ X1 ~  t" z" N/ P1 a& H
  35. Codec ID : A_EAC3& y6 k$ X$ J- {2 A( \5 x
  36. Duration : 1 h 3 min" D/ Z9 b4 ?8 }, z& i' n
  37. Bit rate mode : Constant3 a. A- Z6 b+ I6 u5 Y, k
  38. Bit rate : 640 kb/s
    + I% [- B; J: A% w" V2 z
  39. Channel(s) : 6 channels- m: m$ ^. _* _0 Q; y5 r8 v6 r7 ]
  40. Channel layout : L R C LFE Ls Rs
    9 o% L4 ^6 w& F  ]6 _, v- e
  41. Sampling rate : 48.0 kHz
    . W, T2 M7 J; X6 n9 S6 |" N4 g
  42. Frame rate : 31.250 FPS (1536 SPF)
    9 E" e" D( B2 x; R) O+ E" P3 @3 n) P
  43. Compression mode : Lossy& p! K5 C# s8 i8 ~- Z  v
  44. Stream size : 292 MiB (8%)* r% r( _8 w4 b
  45. Title : English
    & |- A0 |% U- [2 Y
  46. Language : English3 U# k' N# S# g) `- Q" @; E
  47. Service kind : Complete Main/ N  @6 r" ^3 x( W# Q, z
  48. Default : Yes
    " ^+ ~( z( Z4 u1 D$ p1 K6 J( A
  49. Forced : No
    $ }" \8 J& d) Z$ M
  50. ; u1 k7 o: b8 w/ e" E
  51. Text #1+ _' T% Z' E! ?
  52. ID : 3" V( y4 `1 H& C( p( X$ N; E, G
  53. Format : UTF-8# u5 M- t2 o7 U' ?4 B# m  d/ Z6 X
  54. Codec ID : S_TEXT/UTF8
    2 i' E3 C7 v( u8 W+ I6 _
  55. Codec ID/Info : UTF-8 Plain Text$ B6 T+ p" D% e1 z1 ^
  56. Duration : 1 h 2 min, E, v$ z1 k, f! N: a' T$ H
  57. Bit rate : 106 b/s' @  V9 c% d- c* b! U; F/ [" I
  58. Count of elements : 1299, q" d- i, V. A0 M3 N/ C6 f
  59. Stream size : 49.0 KiB (0%)$ K+ f) `  U9 g7 [* C
  60. Title : SDH" F, }' T- w9 m- `# f
  61. Language : English
    # m) e$ t, ~* d/ m, F' H, ?' `$ A8 i
  62. Default : No
    8 {' p0 ?; P$ N
  63. Forced : No
    7 q8 l* E$ q. l8 j

  64. % @% T3 c+ b; _7 C/ m& W
  65. Text #2
    $ {4 k9 i" U. J9 w
  66. ID : 4
    % I9 `0 u! j6 L
  67. Format : UTF-8+ b0 o4 A4 b: h
  68. Codec ID : S_TEXT/UTF8
    / u$ o* J$ M* b" T9 H7 b
  69. Codec ID/Info : UTF-8 Plain Text+ q1 G  U" `6 K+ z
  70. Duration : 1 h 3 min
    5 a! Y2 u8 A8 P+ @& ^! v
  71. Bit rate : 153 b/s6 X6 |2 H" G$ ?/ e( T# _; r7 E- G4 |
  72. Count of elements : 1229$ A& r' Z0 t, X" t
  73. Stream size : 71.1 KiB (0%)
    & v  l; K5 d' l( D3 e
  74. Language : Arabic
    ( O7 n, f8 j9 E: a2 l$ B( p
  75. Default : No7 s- s' k3 G' @8 j4 @0 ^% _
  76. Forced : No+ b9 \! A$ L7 }: U9 m# I
  77. 8 B: L0 n" e8 E
  78. Text #39 D2 U2 W# }* \& k  S- s
  79. ID : 56 {' }9 R) G3 p/ C& t7 e) e. V. G
  80. Format : UTF-8
    9 k& Z* P0 {: D' A
  81. Codec ID : S_TEXT/UTF8) n) x, D+ |  ?: u* H& L4 i4 x
  82. Codec ID/Info : UTF-8 Plain Text6 H* C# ]* N  t: g* d4 t& R; f
  83. Duration : 1 h 3 min2 B8 C7 s- I/ P7 x, p. Y3 P, v
  84. Bit rate : 87 b/s7 r: n: R+ x( a# t* h% }
  85. Count of elements : 1215, y  [1 R2 N% n' R8 F
  86. Stream size : 40.6 KiB (0%)4 B8 u% |& H1 j$ u( A
  87. Language : Czech
    # x2 L, }  V+ F1 {
  88. Default : No4 Z' J5 b3 g: N3 k
  89. Forced : No% t( o: B8 C% ^0 V
  90. " E% ?" B6 v7 Z7 i
  91. Text #4, E$ t+ y: O6 |* G3 O
  92. ID : 6
    : [% I8 f. w" ?
  93. Format : UTF-8
    - w" c8 h: T9 {" ]: u# B
  94. Codec ID : S_TEXT/UTF8, S7 r' y- y  `4 l4 f; F6 c
  95. Codec ID/Info : UTF-8 Plain Text! b5 y. ^- @! `5 s0 x1 T
  96. Duration : 1 h 3 min' I) }: ?& s+ n. p# j
  97. Bit rate : 87 b/s" D- ]; f! M8 G' {" T. R8 t
  98. Count of elements : 1162! K$ O7 F3 S# {! Z
  99. Stream size : 40.3 KiB (0%)
    : i2 b  j- x1 p6 f( j- `8 O/ P
  100. Language : Danish1 O. c5 }1 D6 G+ G
  101. Default : No* w4 R7 T' \5 Q& j1 X) h# o
  102. Forced : No
    * }  B  w  {0 Q) e. j

  103. 5 p  X. q/ y. {" y* a7 p
  104. Text #5
    ! Y7 |3 ]& g$ e5 A# U) F
  105. ID : 7
    / o  J0 I3 G# _* ^8 S
  106. Format : UTF-81 R3 G6 w% B! [: B+ U8 s- k) Y
  107. Codec ID : S_TEXT/UTF8, G# C: n7 l- Z1 ]+ p
  108. Codec ID/Info : UTF-8 Plain Text3 e$ w* s8 M) `; T$ I
  109. Duration : 1 h 3 min
    4 O  b* v% `) F4 T( g. x
  110. Bit rate : 87 b/s$ [6 U- ~2 W& _: p2 P% ?3 t" z
  111. Count of elements : 1194
    ) e. j$ ^+ `) U7 o5 K  t8 V" s4 z
  112. Stream size : 40.5 KiB (0%)# t+ p0 b1 W/ X0 _) n* |, q
  113. Language : German9 i; m) U" d7 X6 A/ ^- z
  114. Default : No
    ( t2 f" L3 H4 I0 {7 @/ ^
  115. Forced : No
    ! [" u2 |! a2 X+ j

  116. ; h3 m* d; u+ \4 \
  117. Text #6+ @, A. J# j' r& Y" `, v
  118. ID : 8* @: L; ^  J  r& @2 P. G
  119. Format : UTF-8
    1 @! k* Y4 u2 I
  120. Codec ID : S_TEXT/UTF8# V$ u0 S, c# }
  121. Codec ID/Info : UTF-8 Plain Text
    " c% U# c, J# c9 ~
  122. Duration : 1 h 3 min
    * f- l$ g9 f8 \& I3 r1 T0 {" p( z8 ]
  123. Bit rate : 153 b/s
    7 x9 U; K7 `* w/ s, y( o0 m0 n
  124. Count of elements : 1226
    9 Y$ U0 p# h# U
  125. Stream size : 70.9 KiB (0%)* K/ e: Q' K/ v9 D$ U3 N& s0 X) `% ^
  126. Language : Greek, f/ @8 Y# D. F$ p
  127. Default : No1 s% `" M2 m3 M. N' W3 A
  128. Forced : No) r9 d6 E/ Z- S- f* m

  129. # X! L+ H1 P5 }; Q
  130. Text #7
    ' R6 Q1 z* e! H7 G9 ~3 v
  131. ID : 9
    0 I* L( N6 }) B2 ~+ i
  132. Format : UTF-8
    " d$ n) S; m: u* N
  133. Codec ID : S_TEXT/UTF8
    % R2 W1 Y/ B# ]0 r8 f
  134. Codec ID/Info : UTF-8 Plain Text
    & r! I% k$ u& j8 a6 S: U3 l
  135. Duration : 1 h 3 min" Q7 `" H8 r; D$ m  b
  136. Bit rate : 89 b/s: u/ l# L  ]8 p" L: G  \
  137. Count of elements : 11912 g9 P+ o# q9 u' ~7 ^7 g: Z& `8 O
  138. Stream size : 41.3 KiB (0%)
    * W  J; w7 b/ D& Q' I/ c$ w
  139. Language : Spanish
    2 t4 [/ D2 {! n
  140. Default : No
    9 z; k  ~" ]% S" W
  141. Forced : No
    9 o* ^" h, h5 X  @& V) H

  142. 9 B1 {3 R! }# G9 P; }1 s
  143. Text #8" |- `7 K* t3 g9 F" |- h
  144. ID : 10# S0 X; T" D7 C) {, @
  145. Format : UTF-8) k( \5 `0 c( v9 g% Q* H7 O
  146. Codec ID : S_TEXT/UTF8$ `2 o  G7 `! c4 T/ B$ y
  147. Codec ID/Info : UTF-8 Plain Text
    6 |/ d9 |# S5 |4 k; `' y
  148. Duration : 1 h 3 min
    8 r, ?9 I% n& Q( j% O
  149. Bit rate : 83 b/s. P4 D- c- O) B" i# I
  150. Count of elements : 1197- }2 y: [  E% ]/ n6 `2 ]5 t" N
  151. Stream size : 38.7 KiB (0%)8 O- t0 v: K# `2 y
  152. Title : European
    3 M: N' s( L+ W  _- n- c3 b2 n
  153. Language : Spanish- [0 q! A" l) L3 |0 X
  154. Default : No
    4 c0 S# b& [: S1 ]$ J
  155. Forced : No
    + e" q! F' C3 f

  156. & w( a  I$ I0 ?  ?2 _
  157. Text #9
    , [/ F7 h. @1 m' a6 I: ]- m
  158. ID : 11, F0 d0 I( A) q, f+ j. \9 K. i' i7 J
  159. Format : UTF-8
    4 B1 g) q1 y  t  m1 ^  b% k
  160. Codec ID : S_TEXT/UTF8
    # z" j: I8 J2 f8 c  v! \
  161. Codec ID/Info : UTF-8 Plain Text9 k1 a# Q+ b0 A2 n/ v
  162. Duration : 1 h 3 min4 u, G" l4 w9 V# y0 y  R3 {0 y! b+ R
  163. Bit rate : 82 b/s
    3 D8 L% _3 [% k+ Q( }
  164. Count of elements : 1073
    2 z1 M1 F4 d  ]) k7 Z2 P
  165. Stream size : 38.3 KiB (0%); a1 Q4 k; s  F
  166. Language : Finnish/ e9 S) c+ {; E# i4 o
  167. Default : No
    % Q, i+ I2 o- A6 Y
  168. Forced : No
    6 h) {, W* @! i- g& c! J! M1 a- R$ Y

  169. - h3 N+ C- n$ y7 Y4 E
  170. Text #10& k* A4 I% e; A, }! T8 A
  171. ID : 12) Y/ ^- o5 A3 Q
  172. Format : UTF-8  T$ ?2 q$ K. ~% {+ E
  173. Codec ID : S_TEXT/UTF88 n% l5 T6 Z6 B2 @7 ^9 _7 E/ E" J0 u
  174. Codec ID/Info : UTF-8 Plain Text
    ' ?1 H  ~  ~" z- Y7 \
  175. Duration : 1 h 3 min
    % K  S3 L! B2 l% `8 y8 y$ {, P( p
  176. Bit rate : 85 b/s
    ! |( |0 t5 x6 D1 o
  177. Count of elements : 1210
    2 r2 D( \2 c9 s
  178. Stream size : 39.7 KiB (0%)
    2 }( |1 Q+ R) x5 v* }
  179. Language : French
    ! E9 c% M2 Y4 u0 j
  180. Default : No- R/ D/ w. y" r: z5 G
  181. Forced : No. ^* w& F# r0 v2 A, q8 @

  182. . d9 i2 h- i& ?" D
  183. Text #11/ s; ?5 ~- y7 [# s/ S/ F1 ?4 Q+ e
  184. ID : 135 U7 @/ ?  M- R( ~+ [% F
  185. Format : UTF-8* [: E$ f: O' J1 n( H7 z
  186. Codec ID : S_TEXT/UTF8
      y" O0 @- f. P! }) x
  187. Codec ID/Info : UTF-8 Plain Text
    . {0 b4 w: U. @# q" g3 o
  188. Duration : 1 h 3 min7 @, e2 D" F4 K+ z
  189. Bit rate : 154 b/s
    2 S: U2 p0 [  f7 Z
  190. Count of elements : 1211( r2 @: o, T4 H$ o
  191. Stream size : 71.7 KiB (0%)/ a/ R, ^% y% U0 B/ [6 w/ m
  192. Language : Hebrew4 G% d) w8 J3 s4 O5 S, \3 J( |; p
  193. Default : No. V) Z# N1 T+ z. i% X2 e& x! U0 D( K. U
  194. Forced : No
    : D7 q; r+ H3 h7 K/ P+ ?5 t# V9 O

  195. 4 I$ P2 G) B/ J+ W) d
  196. Text #12
    0 ~0 ]7 e: x1 j! ?  O! r# J* y
  197. ID : 14
    / W) l9 H; N1 h7 E8 K; m# F
  198. Format : UTF-8
    ! n5 i$ I3 Y8 N1 O% f- ?; P: N
  199. Codec ID : S_TEXT/UTF8" ^% K3 t  P; F" ^7 o4 O
  200. Codec ID/Info : UTF-8 Plain Text# T; D' u8 L# m2 \# v
  201. Duration : 1 h 3 min
    2 @) G* c9 Y: t+ m/ k* @7 r3 T6 j- t
  202. Bit rate : 95 b/s- t* U# ?1 ^) p' V: a& Q6 i) C1 i8 R
  203. Count of elements : 1204! Q/ z; i& W/ I0 V0 r
  204. Stream size : 44.1 KiB (0%)+ ~7 b; Y/ W! E) n: J$ M% }, o+ g
  205. Language : Hungarian/ p' |0 H5 u$ k" ~+ o
  206. Default : No
    " @; j$ c# J+ z2 \4 B6 I! w
  207. Forced : No
    # B3 Q3 ?. f1 s3 E9 s

  208. ( K7 f+ a4 Y* {0 V- }/ S
  209. Text #13
    " \) w( [6 Q2 N7 R; K1 [0 ~1 E
  210. ID : 15( _; L- u0 L9 r: m
  211. Format : UTF-8
    / y: v; V( J1 E8 p
  212. Codec ID : S_TEXT/UTF8
    . D( T4 ?, Q6 i% K, S) r
  213. Codec ID/Info : UTF-8 Plain Text
    & S& d7 @4 K( h4 j5 W4 t* w9 V2 {
  214. Duration : 1 h 3 min" y" ~6 L0 ~6 m9 p2 h$ a
  215. Bit rate : 92 b/s
    $ O4 ~3 q) z5 Z( _0 y
  216. Count of elements : 1216( O) k0 E8 l0 v! H
  217. Stream size : 42.8 KiB (0%)
    : n! k1 Y7 e8 k* S/ n; T
  218. Language : Indonesian4 ~( M4 C' \/ i  a# w
  219. Default : No
    - T$ P8 t( y; r, l' ^
  220. Forced : No
    : m" e8 B& I! {5 `% T6 X/ N! R
  221. ) Z' c  D- P* h9 Z' j: t0 g, N
  222. Text #14
    ) d: X7 L0 U* c
  223. ID : 160 M9 C7 Z- B; h) {) m1 j8 G0 @- I) ]
  224. Format : UTF-80 d/ f/ \% K2 _7 B1 F9 R
  225. Codec ID : S_TEXT/UTF8
    " L; g& d/ [! ?, a9 N
  226. Codec ID/Info : UTF-8 Plain Text2 m8 ^  r& {; }0 {
  227. Duration : 1 h 3 min2 `& ~: J2 e, X
  228. Bit rate : 82 b/s
    6 \/ V5 O  Y7 I3 Z
  229. Count of elements : 1151
      K5 ?6 l' x0 V; Q! v
  230. Stream size : 38.1 KiB (0%)
    % ~9 d& N4 z+ R9 l$ i4 Z8 [. S
  231. Language : Italian  I# x% [0 u7 R9 i: [2 n- O$ o- s
  232. Default : No2 L$ P" I% {9 C, m+ g: B) e2 `- ?
  233. Forced : No2 j/ d& R( \  F  h' A0 ~

  234. - l( o4 y  q- ~- M. A
  235. Text #15  p7 h3 A5 E) \+ d
  236. ID : 17
    7 S& d% Z4 Y- C4 B) i( d" k# Z; J( l) d
  237. Format : UTF-8) W, J' o( E& @; ^( M% h
  238. Codec ID : S_TEXT/UTF8, P3 ?6 T: P- S- N( S9 H0 }3 e  A
  239. Codec ID/Info : UTF-8 Plain Text
    - h. r+ X1 ?$ |! K+ q* p$ L! g
  240. Duration : 1 h 3 min
    % a. A2 X: |9 Z0 q6 s  W4 U( r
  241. Bit rate : 86 b/s+ [- x& Z0 n& o6 d0 ?  K2 @
  242. Count of elements : 1113' V  O& b& z* N9 q4 `& q
  243. Stream size : 39.9 KiB (0%)
    4 d. W& F6 p( o" t7 q: a
  244. Language : Japanese2 b# j" C8 t1 Z$ j3 R, P, K$ E
  245. Default : No
    ; y9 K  k& R. F) \2 b
  246. Forced : No
    " W4 C6 Q, t4 K4 Z/ i$ M) e- e/ L
  247.   p/ @8 P( j" V  q( g4 N+ f" v
  248. Text #16
    2 s1 x4 j. \# Z7 L  |/ x. a% ]
  249. ID : 18
    & S- X4 D* c1 b( x8 o3 C
  250. Format : UTF-8
    & \! t+ N* f/ ~
  251. Codec ID : S_TEXT/UTF8% U; t8 e; D7 A) w( e0 F3 Z
  252. Codec ID/Info : UTF-8 Plain Text0 ?' J; F) n7 d/ Z8 G
  253. Duration : 1 h 3 min( o: d5 o% P# T+ g1 G
  254. Bit rate : 106 b/s
    ' A! J1 v8 }& \! j
  255. Count of elements : 1224! s' i! A/ k" ~  V9 o, c
  256. Stream size : 49.1 KiB (0%), g& i( ]9 L0 P: ~, V
  257. Language : Korean* i. ^; L- A( E! |: T% J6 b
  258. Default : No; I. U" M3 f9 O
  259. Forced : No0 U% U5 z$ t3 b% H) Y

  260. + B4 m5 @6 E* Q
  261. Text #17
    9 Y# |% e& [0 L* j# e) F" K* n; h
  262. ID : 19: L8 O2 S, y. A2 o; @
  263. Format : UTF-8; n% z, c3 s" R& i
  264. Codec ID : S_TEXT/UTF8
    ! M( W/ e7 J- o  m) N5 g
  265. Codec ID/Info : UTF-8 Plain Text
    2 x- ^7 N8 r' k, k1 p  a1 f
  266. Duration : 1 h 3 min: O9 h0 W" B( p! c
  267. Bit rate : 81 b/s
    9 |0 ^5 e* b0 x6 A) @  F$ e  m- ^' |
  268. Count of elements : 1133
    8 U5 F" h" H/ G
  269. Stream size : 37.9 KiB (0%)
    7 U+ r" ^' _8 T) H' `) u6 T
  270. Language : Norwegian Bokmal# P& J* R, Y% @7 j" U
  271. Default : No& X4 ~+ T) M& \7 ?; n! C  F
  272. Forced : No$ y" u' ]$ c  K/ ]* E

  273. ) g8 G5 L: Z+ `) |9 I3 T
  274. Text #18$ l* ^3 t1 v& {9 U, u. l" R
  275. ID : 20
    & h4 a  `& f* s# h( o. c5 P
  276. Format : UTF-8
    ( K: ~' r  s. Z+ W7 F3 _8 E, q
  277. Codec ID : S_TEXT/UTF84 {, d: r4 C( F  I- Y3 n5 N
  278. Codec ID/Info : UTF-8 Plain Text
    2 I, |. ], M2 r# I% j
  279. Duration : 1 h 3 min
    ( Y- K; ?# U; P* k  t& c
  280. Bit rate : 76 b/s% c, O' O+ Q# Z5 j1 H7 c
  281. Count of elements : 1100
    + Q8 q) P; n' \% k# R/ [
  282. Stream size : 35.4 KiB (0%)
    9 n4 [- B' V0 a& w% E6 v& H( A
  283. Language : Dutch# J% K- D5 R) z
  284. Default : No; W% o6 z7 V+ U9 v9 _; X
  285. Forced : No2 ]$ z0 e) m2 u

  286. 0 G- y) O; \6 v  z% J/ h4 @! H& Y9 K. U
  287. Text #193 b0 B1 p. n: }+ ]
  288. ID : 21
    / m  b+ c$ T3 B) d2 y8 {
  289. Format : UTF-8
      i( j7 B& Q: {7 F  Z+ k
  290. Codec ID : S_TEXT/UTF8
    6 E4 O$ n- J  E3 g  X$ j' E
  291. Codec ID/Info : UTF-8 Plain Text0 e' i* m+ ?2 B. `
  292. Duration : 1 h 3 min
    ' e' `; c- K/ G; r) `
  293. Bit rate : 80 b/s
    + d* ^  f0 Q8 T& d( i
  294. Count of elements : 12015 `+ J- f& j1 F* s3 j5 B
  295. Stream size : 37.2 KiB (0%)3 G& K/ f6 z( b! B6 r0 k
  296. Language : Polish9 _& w0 B# m, n  P: o, P( ]8 p& {
  297. Default : No
    * \* Q3 R' y, w9 x
  298. Forced : No& F. B- b% i# `7 W# N* v8 i% t

  299. ) ?: L' |  G* ]. b
  300. Text #20
    ' l! K" X) F2 Q
  301. ID : 22
    + f7 d1 m# w4 a3 R* g
  302. Format : UTF-8
    " v: D* c) G2 I
  303. Codec ID : S_TEXT/UTF8
    $ H- ]9 v# _* M& ~/ y& m
  304. Codec ID/Info : UTF-8 Plain Text
    7 |" j" d; d! `7 y0 O1 H  Q7 q
  305. Duration : 1 h 3 min
    " h2 L% m3 e4 @
  306. Bit rate : 94 b/s, |. W/ u# }4 O3 c3 ~7 d
  307. Count of elements : 1219# R( Q" F( K! g1 @6 t
  308. Stream size : 43.7 KiB (0%)  E1 f) ^0 f5 w: ?1 ~. {" {2 F
  309. Language : Portuguese
    ) w( _. H7 F' n* f% G. B6 c* I$ p
  310. Default : No
    8 k; D* Z% g  @5 o( j( V
  311. Forced : No1 \6 W' s$ x  N' n4 X2 l2 z6 j
  312. 1 n# c$ @5 l' Y2 R5 b. e' P- S
  313. Text #21
    , p( J% i4 `& g5 Z, A5 V
  314. ID : 23; f- i& V2 r- \0 D1 r
  315. Format : UTF-8
    + I: v* _/ _9 |
  316. Codec ID : S_TEXT/UTF8
    ( r& T: U  m$ p/ P/ d: d, n) K5 Z
  317. Codec ID/Info : UTF-8 Plain Text( v# _* L! z6 S1 `, `+ v
  318. Duration : 1 h 3 min2 K6 ]! j' y( u. ]6 z' a
  319. Bit rate : 93 b/s
    / L. S4 {7 z" l" P, G# Z
  320. Count of elements : 1150) n) S1 c3 J& W! [1 M2 H( ~
  321. Stream size : 43.4 KiB (0%)
    ; y- g: s; l7 A5 k- w3 I
  322. Title : Brazilian
    1 K6 Z: O* t& F8 Y' I1 `" X
  323. Language : Portuguese
    0 g% q% {5 j3 Y( }4 V- F- j0 O
  324. Default : No& j# \2 x1 P; ]
  325. Forced : No
    ' ?! t' v8 n4 ?- M
  326. 4 d* s0 P7 l9 _8 M. w
  327. Text #22
    7 D, Y9 P2 ^7 F+ r1 O; h& @% d/ A
  328. ID : 24
    % b$ W. j7 {. N2 d( j) a
  329. Format : UTF-85 s5 ~  r, Q6 A8 u# U' L* \5 a8 i
  330. Codec ID : S_TEXT/UTF8
    2 q# }+ ^0 [0 q
  331. Codec ID/Info : UTF-8 Plain Text  L6 w. I9 N/ V" M# f
  332. Duration : 1 h 3 min
    - a  l9 A+ g9 {) g
  333. Bit rate : 100 b/s
    / w1 w' x8 i. Y; p" p
  334. Count of elements : 1210
    + h  A$ D/ v/ ?! P, U2 P3 N
  335. Stream size : 46.5 KiB (0%)
    4 k4 J5 l  f  @1 U8 Y4 J4 z. }
  336. Language : Romanian
    7 T+ Y1 L5 S! F2 Q; H6 L
  337. Default : No
      e9 u# U  W+ G2 c# ]% [
  338. Forced : No4 U# x8 X* U0 q9 l$ x. u* y6 Q

  339. 2 T; @% P3 @& R+ g! v" p. l
  340. Text #23
    6 D+ |( d1 {. r1 K
  341. ID : 254 N: a0 B, F% G8 r, d: \! `  R4 A
  342. Format : UTF-8
    3 \+ s( y5 W% @7 ^
  343. Codec ID : S_TEXT/UTF88 N# _* H2 W) n5 U7 N
  344. Codec ID/Info : UTF-8 Plain Text& n* h1 h" B& V# P+ H$ e% s& t
  345. Duration : 1 h 3 min
    9 ^0 W8 c; L* O) q
  346. Bit rate : 144 b/s
    # z2 a" u  h+ f; z7 Z
  347. Count of elements : 1205# b( ^. S: t7 e4 q6 E
  348. Stream size : 67.0 KiB (0%)
    9 b6 M7 ]# t' ]: E
  349. Language : Russian
    , m/ _6 r0 K) T3 L9 r& I5 }
  350. Default : No+ k- A& B' k6 ~
  351. Forced : No/ G+ c4 b) {  n8 y
  352. ' w( X4 u: ?, z
  353. Text #24
    4 y. z5 T$ C% s  d, i
  354. ID : 26
    ! W: R" f2 }) n6 o0 Q1 ]
  355. Format : UTF-89 y& E" a7 G9 l, _% T9 Y& j- _7 \* Q" @
  356. Codec ID : S_TEXT/UTF8" \6 l$ V. A+ O
  357. Codec ID/Info : UTF-8 Plain Text& H1 D% f( l7 r# W( y/ u* o6 U
  358. Duration : 1 h 3 min6 O2 d0 L- I$ u& |* K9 M" c
  359. Bit rate : 80 b/s
    / {7 F& X/ c: g- H1 f  u& f" _
  360. Count of elements : 12122 L0 S9 f. ]! W  p  d) {) J3 {
  361. Stream size : 37.0 KiB (0%)
    3 z1 x& Q+ {4 \. I7 n( w) k/ t
  362. Language : Swedish
    9 V7 Z  S7 i( o2 [3 o2 `
  363. Default : No+ v+ x+ u- ~7 K5 L* |; G9 F* H
  364. Forced : No( O/ V6 _4 J9 N

  365. 8 |# U& Z: u; P; {8 b7 i- p
  366. Text #25: B1 K% |% T9 {' s7 Z$ {! p9 q2 L) D
  367. ID : 27
    . h+ F6 V& v; }
  368. Format : UTF-8" G0 b, h' E4 [. S0 r3 s  ^" N
  369. Codec ID : S_TEXT/UTF81 B9 |" \% c- i
  370. Codec ID/Info : UTF-8 Plain Text& M- Y, r4 z  j! L- ^0 F/ m
  371. Duration : 1 h 3 min+ g- e3 ^! s& [( d( U
  372. Bit rate : 240 b/s, f% W2 B! l- m* X* H, Z
  373. Count of elements : 1238
      D2 J2 F' i' s4 L0 |, i/ B' k2 k
  374. Stream size : 111 KiB (0%)' c$ `: R* F2 l4 n  k& ?
  375. Language : Thai# ~8 ~, C- l; y2 t; t
  376. Default : No
    # x# @9 x$ R. `$ C% J: v, \
  377. Forced : No4 [) }! B7 W8 u6 i- B3 M( G
  378. 0 y$ j7 j8 r/ [0 E
  379. Text #26. s# Q2 G7 @9 q, Y3 Y0 N7 c
  380. ID : 28
    & a0 g* E( o4 ?  N
  381. Format : UTF-8
    ) F. A+ T' c& I6 H7 n0 P
  382. Codec ID : S_TEXT/UTF8
    7 X3 z! J* |2 C0 Q* U& w. `
  383. Codec ID/Info : UTF-8 Plain Text
    & a) h' N3 H$ N+ t5 M3 M- u
  384. Duration : 1 h 3 min9 {6 Z- j- q5 S7 l/ ?4 M
  385. Bit rate : 84 b/s
    . k5 C7 [( K; Q) G; h
  386. Count of elements : 11419 ^9 K. O+ P" l4 c
  387. Stream size : 38.8 KiB (0%)) A2 N+ ^- _2 U
  388. Language : Turkish  J3 A* @) G! I+ O
  389. Default : No: M( I7 p* |9 x9 q4 Q8 x' O2 M
  390. Forced : No
    0 q2 |% U' }$ ?

  391. & d6 Q" K- W% s
  392. Text #27/ K! q' ?0 W# |1 d
  393. ID : 29  Y6 |6 {, e# g8 O3 c
  394. Format : UTF-8
    + `; N" t. l/ y9 ~: x% m7 }
  395. Codec ID : S_TEXT/UTF8
    5 i+ @: A; O& L! f5 M  I- U6 Q
  396. Codec ID/Info : UTF-8 Plain Text
    3 F; o+ L, i& o1 M3 A, E. n
  397. Duration : 1 h 3 min+ U5 P- N# |$ w/ C
  398. Bit rate : 125 b/s
    1 Z% |3 g4 J7 o% y! O
  399. Count of elements : 1215- y- V' t9 Q1 p- i" O
  400. Stream size : 58.2 KiB (0%)4 J6 g( J/ d5 Q6 [/ ^
  401. Language : Vietnamese2 y! d" }6 v, L" K' c
  402. Default : No) e) R8 Q  `7 L; |
  403. Forced : No- S- o. M& r+ W6 W+ M" w" L/ c; N

  404. % ?  {  J1 t- [$ x* r) m- {$ d
  405. Text #28
    & l+ Q& h$ `( x& a# L9 y
  406. ID : 305 p; D3 T+ A  E; o
  407. Format : UTF-8
    6 K( T4 A0 L2 O2 B
  408. Codec ID : S_TEXT/UTF8
    0 f" q5 N" d/ @8 G4 F% [
  409. Codec ID/Info : UTF-8 Plain Text
    2 d/ f: C" |9 j9 K* [6 L
  410. Duration : 1 h 3 min
    # c9 g* C8 z0 l% f$ a
  411. Bit rate : 98 b/s
    / M- J, T, r1 K$ f+ p: ^
  412. Count of elements : 1232
    ) V+ I/ G# V9 ~/ e( U4 v) F
  413. Stream size : 45.5 KiB (0%)
    , U# T2 D5 n. G
  414. Title : Simplified$ J* ^2 O7 y. s9 X: m  |7 E# t0 w
  415. Language : Chinese
    . c7 v3 U6 a3 f% O6 v9 ~6 P
  416. Default : No
    . E. T3 x7 n- {+ V. W
  417. Forced : No6 x+ J6 Q3 K9 h$ V5 d% ]8 E

  418. . h6 v+ ?8 A2 {8 y; o
  419. Text #29
    8 X' `& F; v$ C* S% l2 I2 P# z, B
  420. ID : 31
    * m! P& w0 ?. N6 D
  421. Format : UTF-83 e' h7 O; K* ]# f2 {# F
  422. Codec ID : S_TEXT/UTF8
    0 X* g# G  ]5 J4 I
  423. Codec ID/Info : UTF-8 Plain Text
    : f. d6 X* c3 k6 X. W; E/ m$ n( q
  424. Duration : 1 h 2 min0 g. Y: o7 E; G: p* |6 U3 H/ [
  425. Bit rate : 93 b/s2 \% Q0 E% M( h: J0 w* p, S
  426. Count of elements : 1262' A$ w3 n1 n  C  T; g
  427. Stream size : 42.8 KiB (0%)" M* }1 P. V! u$ Q: x* H. y, b' X
  428. Title : Traditional
    2 v7 _9 S/ d1 h$ y
  429. Language : Chinese
    ; j# Y% \( E* ~  J! t. d$ t5 a& q
  430. Default : No) {- W( E  ?! g. |% K* ?- i' H/ i
  431. Forced : No
复制代码
  }1 c1 E; _: G2 x9 ]$ h$ p
7 u+ c/ o5 x- U  f
& Z  G3 X% j1 u8 d3 y

1 N5 i  a; J9 N& g1 Y# Q9 I- {3 I9 L
7 R8 p  O: K) g' w% w5 M3 s
7 U+ `4 V8 C9 s
游客,如果您要查看本帖隐藏内容请回复  VIP可免回复查看隐藏内容 详情请点击
发表于 2020-1-23 21:32:41 | 显示全部楼层
真人秀 看起来 很好 谢谢了
发表于 2020-1-25 10:33:05 | 显示全部楼层
及时分享高清资源!
发表于 2020-2-1 13:01:35 | 显示全部楼层
感谢楼主分享,真人秀,比较逗
发表于 7 天前 | 显示全部楼层
看上去好像很不错,谢谢楼主分享!
您需要登录后才可以回帖 登录 | 立即注册

本版积分规则

QQ|封号公示|手机版|有问题发邮件到admin#(换成@)hd1tj.org|微博|免责申明|HD一条街

GMT+8, 2020-2-26 13:51

快速回复 返回顶部 返回列表