HD一条街

 找回密码
 立即注册
搜索
查看: 115|回复: 1

[1080i] 日剧:野武士的美食 全12集[自带中文字幕]Samurai.Gourmet.S01.JAPANESE.1080p.NF.WEBRip.DDP5.1.x264-monkee 14G

[复制链接]
发表于 2019-12-31 21:46:18 | 显示全部楼层 |阅读模式

马上注册,结交更多好友,享用更多功能,让你轻松玩转社区。

您需要 登录 才可以下载或查看,没有帐号?立即注册

x
& P  s- T% n- V8 c3 }0 C
                               
登录/注册后可看大图

- l1 k* Z% B) W' I0 I' d
$ g4 r. |" I, D* l) a+ D; q" l◎译  名 野武士的美食 / Samurai Gourmet / 浪人的餐桌 / 浪人餐桌
9 b3 E! b- X0 p& ?; ]+ L◎片  名 野武士のグルメ3 s" f0 w" z6 w1 H6 R6 {
◎年  代 20178 N+ k5 C' G+ _# Z  `: X7 z! T
◎产  地 日本4 H+ f# O( _$ b; d
◎类  别 剧情
+ l; C9 v$ [2 m) {1 q2 `1 [) @◎语  言 日语2 _# ~5 _" O, [5 J
◎上映日期 2017-03-17(日本)
. M( Z8 r1 P' {◎IMDb评分  8.3/10 from 1250 users
- t8 M; @7 J( d) V% t5 v" J6 [◎IMDb链接  http://www.imdb.com/title/tt6304676$ u/ h$ w( O- v  e4 M
◎豆瓣评分 6.5/10 from 1502 users
8 j1 C  P9 X! {- W& H' L◎豆瓣链接 https://movie.douban.com/subject/26935492/  G+ W5 Y( `! O, y+ B) s9 X/ l
◎集  数 12
$ J5 C* _- _- R6 j; S& E◎片  长 20分钟
1 Y; O2 w# Y  {+ s6 [◎导  演 藤井道人 Michihito Fujii / 星护 Mamoru Hoshi / 宝来忠昭 Tadaaki Hôrai
( H2 V9 k- a" b◎编  剧 久住昌之 Masayuki Kusumi
9 g+ _5 }* }* R8 n◎主  演 竹中直人 Naoto Takenaka
& E6 t! w& [: E9 G% s6 }       铃木保奈美 Honami Suzuki  y' F" J% t8 G
       玉山铁二 Tetsuji Tamayama
" v; c" U5 Q: y3 p2 b       柳百合菜 Yurina Yanagi
) H& ^. }$ R; ]- n: Y$ o" J7 [7 Z. G& J. V6 c, `) Y- i2 n

, h" \. X* C% v: ]◎标  签 日剧 | 美食 | 日本 | 2017 | Netflix | 电视剧 | 看过的电视剧 | 日语标签8 q8 E" m" {2 a! c1 M+ X- k  [
5 @1 J8 ?" ]! M
◎简  介  9 a  b$ z7 J/ H: Y; ~2 T" a3 b
- L! L, F$ s* J. h& k% Z! _) @8 Q, z
  《浪人的餐桌》是久住昌之的散文作品,后来由《料理复活王》作者土山茂绘制漫画,这个书名也与《孤独的美食家》第二季主题曲同名。故事讲述工薪族香住武(竹中直人 饰)一个人吃饭喝酒的愉悦画面,由《孤独的美食家》团队制作。久住表示,一边喝酒一边看一定会很有趣。铃木保奈美表示,看完这部电视剧肚子会饿的,希望能让大家的肠胃变得元气十足。
  1. Video/ h2 I  g- F5 J3 w( J
  2. ID : 11 s8 T8 e& s+ X5 u1 m
  3. Format : AVC) U8 w8 T. D: o
  4. Format/Info : Advanced Video Codec
    ( i8 l* g3 q3 |  H( Z7 w
  5. Format profile : Main@L42 ]% z. x8 C4 z# P- v' S. b
  6. Format settings : CABAC / 3 Ref Frames
    $ C5 |0 C5 E5 z; v. r
  7. Format settings, CABAC : Yes* j; |  X5 O- Z3 A- B1 f1 j2 t- t
  8. Format settings, Reference frames : 3 frames
    $ c$ p& P& }, V8 {9 l. ^
  9. Codec ID : V_MPEG4/ISO/AVC2 `8 ~6 e# `: n" ^
  10. Duration : 24 min 42 s2 h( U' U1 |& l" T6 Q% }
  11. Bit rate mode : Variable( |. i$ k4 N/ A
  12. Bit rate : 7 500 kb/s3 N( ^7 E1 L8 T
  13. Maximum bit rate : 11.2 Mb/s3 u4 o/ u5 e  x; n: D# H
  14. Width : 1 920 pixels/ R5 }9 o1 y# i1 t$ O3 A  M$ H
  15. Height : 1 080 pixels  c0 R9 U7 D: C) n
  16. Display aspect ratio : 16:9
    & ~: Z3 V6 K) h* m/ h
  17. Frame rate mode : Constant, n% s! O- G! @; ?0 `
  18. Frame rate : 29.970 (30000/1001) FPS
    % {- |0 H3 I1 }$ w* ^" I0 G: d
  19. Color space : YUV
    / l+ G* ^, g1 r1 v% \7 Z
  20. Chroma subsampling : 4:2:01 e( p0 _3 X* K4 D' d
  21. Bit depth : 8 bits
    % a6 a; u/ u! r0 |- R" x" s8 I- E
  22. Scan type : Progressive& ^1 y: i3 d2 }7 k7 J2 h7 K
  23. Bits/(Pixel*Frame) : 0.121
    1 w3 H0 Q; I7 O$ ]
  24. Stream size : 1.29 GiB (92%)
    9 ~8 a) k2 v; V2 Y  G$ w5 c) C
  25. Writing library : x264 core 148 r2715 7e75228+ X9 _9 p# y. K0 c0 L6 ^  Z
  26. Encoding settings : cabac=1 / ref=3 / deblock=1:0:0 / analyse=0x1:0x111 / me=umh / subme=10 / psy=1 / psy_rd=1.00:0.00 / mixed_ref=1 / me_range=24 / chroma_me=1 / trellis=2 / 8x8dct=0 / cqm=0 / deadzone=21,11 / fast_pskip=1 / chroma_qp_offset=-2 / threads=8 / lookahead_threads=1 / sliced_threads=0 / nr=0 / decimate=1 / interlaced=0 / bluray_compat=0 / stitchable=1 / constrained_intra=0 / bframes=2 / b_pyramid=0 / b_adapt=2 / b_bias=0 / direct=3 / weightb=1 / open_gop=0 / weightp=2 / keyint=60 / keyint_min=31 / scenecut=0 / intra_refresh=0 / rc_lookahead=60 / rc=2pass / mbtree=1 / bitrate=7500 / ratetol=1.0 / qcomp=0.50 / qpmin=6 / qpmax=51 / qpstep=4 / cplxblur=20.0 / qblur=0.5 / vbv_maxrate=11250 / vbv_bufsize=15000 / nal_hrd=vbr / filler=0 / ip_ratio=1.40 / aq=1:1.00
    1 K# [$ \. d; r4 f
  27. Default : Yes
    ( S4 ?6 H9 p; E$ _# m% H6 ]
  28. Forced : No
    ' ^( b+ e* P; n, A' Q0 W
  29. + G3 t9 w/ O1 i. J+ E- D
  30. Audio9 x' ?# r/ g/ V$ n4 A' w0 Y. {) |# _
  31. ID : 2$ W; \+ @" d0 H0 h2 x' I
  32. Format : E-AC-3
    / `0 b3 s' P6 Y) V
  33. Format/Info : Enhanced AC-3& R3 q  f+ M# Y. a4 u$ {0 F) b8 ~
  34. Commercial name : Dolby Digital Plus- I4 j( H2 w! n2 u, H# d
  35. Codec ID : A_EAC3# Y( u- e3 @  z4 j* e. q
  36. Duration : 24 min 42 s! \5 k1 n: g/ D* i
  37. Bit rate mode : Constant
    ! h  h% y6 P& h; Y1 |, E9 k* x
  38. Bit rate : 640 kb/s
    ! e. T5 O  g* T7 u. [* \: `
  39. Channel(s) : 6 channels
    / v5 Q  Q4 O  R# n5 l+ v$ n+ Y
  40. Channel layout : L R C LFE Ls Rs7 Q! E; Q( e& j
  41. Sampling rate : 48.0 kHz
    * c8 b) O! {6 ]
  42. Frame rate : 31.250 FPS (1536 SPF)/ u3 G& n9 V8 y8 ]6 O. u
  43. Compression mode : Lossy
    0 C  D; D% `' ~' N2 r
  44. Stream size : 113 MiB (8%); T# R! m& e% X' G0 |
  45. Title : Japanese0 `1 \) Z- F0 @" h% J
  46. Language : Japanese
    * D* a3 j0 z. r& t0 L
  47. Service kind : Complete Main
      j# W8 u8 @0 ?4 A9 x
  48. Default : Yes6 U+ O5 ^& `. Y) T
  49. Forced : No
    7 k0 {7 l& Q5 I; C3 P+ h
  50.   ~$ T/ R" t0 \4 f3 z  u) `
  51. Text #1- z# S+ X- R) j* ^% e+ n8 f5 {/ E
  52. ID : 3
    ( \  X" E& G3 l! I' y
  53. Format : UTF-87 D6 r% R+ g/ r; y- i
  54. Codec ID : S_TEXT/UTF84 n  T2 [/ l" ^
  55. Codec ID/Info : UTF-8 Plain Text
    8 L+ f) u# o! L
  56. Duration : 22 min 46 s* _! u+ t8 `" H7 h/ w& {
  57. Bit rate : 56 b/s
    , ]; f/ m% Q+ ~" D+ @* D
  58. Count of elements : 3727 d# P3 U' S1 E0 A  ?4 W
  59. Stream size : 9.38 KiB (0%)
    & {/ N% a. [" u9 ~, W
  60. Language : English
    6 p5 v  e# J" m0 t6 l& |
  61. Default : Yes+ V% H0 y& J0 ?1 O7 }# |
  62. Forced : No
    1 Y+ [0 V1 q& @7 |! Z

  63. & Z1 Z3 l4 ^8 o) G  ^1 u
  64. Text #2
    1 [3 M0 X. r" z. k$ E
  65. ID : 4( u9 L! F0 n& R( m) M' Y9 c
  66. Format : UTF-8
    2 S2 f( R; c7 V- J7 S# Q
  67. Codec ID : S_TEXT/UTF8" e- D! W0 [5 B6 j. \& n
  68. Codec ID/Info : UTF-8 Plain Text% P" ^: m1 N8 o0 T1 t" J6 G% w
  69. Duration : 22 min 56 s
    . F: f3 y' t4 n9 l
  70. Bit rate : 96 b/s* W% V" `7 M# G; `- M, y
  71. Count of elements : 372# h& O& M# h- L5 Y, J! O
  72. Stream size : 16.3 KiB (0%)
    , |% [' e3 e3 V, f9 R7 \
  73. Language : Arabic8 f- d1 f& c) i' M- Q
  74. Default : No+ Q( P( p, Y3 k0 C' J3 k1 o. B# E0 N
  75. Forced : No' }( a0 r2 V" p1 F+ t3 m8 K9 l: m
  76. / g( E& F# W  z. y0 e0 p
  77. Text #3
    ) `8 v7 H7 h0 q; ^, H
  78. ID : 5* ?, ]* X+ n8 z# ^7 j4 S
  79. Format : UTF-83 Q9 \3 \; z( F( }1 Y% H& A
  80. Codec ID : S_TEXT/UTF8" u, E( k" e. g0 l! M; L
  81. Codec ID/Info : UTF-8 Plain Text* k: v: b/ e  \; N
  82. Duration : 22 min 56 s
    0 v7 S: O6 v6 |; r6 ~0 t8 V
  83. Bit rate : 53 b/s& Q: g) R% M5 w" D6 z
  84. Count of elements : 371
    0 ~# Z$ ]' I; s: g8 X: _4 J
  85. Stream size : 8.98 KiB (0%)9 y/ {& T( M2 \- i. Z. J
  86. Language : Danish
    5 v( L; h: k7 f# r8 O
  87. Default : No
    ' M8 Y6 f/ A( Y- o2 i: ?0 B7 C' H8 X
  88. Forced : No0 _# v/ i  B1 Q" a; [
  89. 6 P, O. [7 N1 a/ }
  90. Text #4
      c2 Z& Y. q2 p/ o' I2 T# f
  91. ID : 6
    4 J# t0 o& a; H6 B
  92. Format : UTF-89 {& S0 y( i) p& b
  93. Codec ID : S_TEXT/UTF8" D' z: `5 j* a+ A, N7 O
  94. Codec ID/Info : UTF-8 Plain Text5 f! C( ~9 i' ]7 a$ o
  95. Duration : 22 min 56 s' ?  J7 S* ^9 U4 \/ a$ l
  96. Bit rate : 67 b/s
    ) {! C( y; u$ g  t) j* p% h
  97. Count of elements : 372* v0 l, w) p4 N, G' P) R2 m
  98. Stream size : 11.3 KiB (0%). H, P$ y& P& b6 [  o
  99. Language : German
    ! [: V; r, [9 ?' ~& w( t
  100. Default : No: i9 I& h4 }( d" V3 q9 n$ X
  101. Forced : No
      t  ], R2 K. }0 F3 ~- o. z/ Q; b

  102. 3 m$ `* B) g- l2 Z1 `3 g/ Y$ j
  103. Text #5
    5 u' X' U  F7 u# G
  104. ID : 7$ U% ]6 X4 `+ t/ F; Y# |
  105. Format : UTF-8
    ; X6 z' B- v1 M
  106. Codec ID : S_TEXT/UTF8! a0 t4 i4 }1 f+ o! f
  107. Codec ID/Info : UTF-8 Plain Text+ l: C8 a  E# H% u6 \
  108. Duration : 22 min 56 s
    / q/ U1 V) ~6 Q$ a7 G  {
  109. Bit rate : 105 b/s/ S3 p1 t6 Z- A$ W7 c7 J3 X' @
  110. Count of elements : 369. f9 E! Q  \9 A' _& o+ ^2 y
  111. Stream size : 17.7 KiB (0%)
    ! I! i2 y! c, E& M3 I1 A
  112. Language : Greek5 c2 P/ [! W$ O* ?- Q7 R
  113. Default : No
    # m  x( o, T" P, s3 J3 r
  114. Forced : No9 z7 n( ^& U/ J: H
  115. + Q8 J: W6 s, E" {- y' L/ n
  116. Text #60 D$ O5 E$ Q- {7 \. @2 a: T2 y
  117. ID : 85 ^6 Q/ W- J7 o& {
  118. Format : UTF-8+ N0 I2 T3 b9 n& G+ O8 f. ]
  119. Codec ID : S_TEXT/UTF8
    $ _2 {- L3 t3 {* i; d
  120. Codec ID/Info : UTF-8 Plain Text
    " Y5 y# f7 w+ U6 H; M! N' {
  121. Duration : 22 min 56 s
    5 b( ~8 e  h% I* `+ j
  122. Bit rate : 63 b/s
    " U; T' q' H0 U% p$ y* r) _
  123. Count of elements : 364
    % H* S( ?: U+ @# y5 h* S# x
  124. Stream size : 10.6 KiB (0%)0 f; v! d, r1 x1 D% ?, C4 F
  125. Language : Spanish
    ; T( ?' C. i, q# ^( D' S/ A
  126. Default : No* s3 W7 m( G2 V$ L5 p. w% \  l1 X" f2 f
  127. Forced : No
    & ?+ P' ^  f& v( F
  128. 4 V/ Z: y8 Z/ U+ t" m! d+ N
  129. Text #7
    $ _7 D8 F% l0 T0 q& c$ Y, f
  130. ID : 9
    & z( p! K# @3 z" Q# H7 c
  131. Format : UTF-8, n. D* N2 `) k2 Q) a
  132. Codec ID : S_TEXT/UTF8, O) E9 z# A5 K* U7 s6 x2 ~
  133. Codec ID/Info : UTF-8 Plain Text
    % T  j: r' X+ e0 x7 j0 d6 o$ t
  134. Duration : 22 min 56 s
    4 V. _+ a% r& P9 w8 N& [
  135. Bit rate : 62 b/s  D$ W: u& J* [) a1 m* ^
  136. Count of elements : 371
    # r1 c, k2 M. j. Y
  137. Stream size : 10.5 KiB (0%)
    / J$ C1 I* c) m: O. q
  138. Title : European. W8 a* Q8 e: _* w2 n
  139. Language : Spanish
    , Z7 g; V- T( V! i5 g1 E6 ]0 A
  140. Default : No( V8 y+ ]$ u+ g  T
  141. Forced : No4 b- _1 O' Z5 j# D
  142. 8 b6 ?3 a2 B8 x
  143. Text #8
    & Z6 m- q7 C" j+ }, i. L
  144. ID : 10$ U  z/ \- }. r* V5 _
  145. Format : UTF-8. ]/ b- g" I, b8 ~+ \
  146. Codec ID : S_TEXT/UTF8  s. {9 H* m. L1 m
  147. Codec ID/Info : UTF-8 Plain Text! \7 H& d3 w/ d2 ]: m/ O8 {
  148. Duration : 22 min 56 s1 |) N1 `  ]; x+ G9 Y
  149. Bit rate : 54 b/s$ n+ A( I- s' C9 C% g  w8 x1 n
  150. Count of elements : 303# U' x3 U# ~/ E2 M/ f; D0 |
  151. Stream size : 9.21 KiB (0%)5 h, C, r1 a% M8 Z( ?
  152. Language : Finnish3 y/ v- Z* c& `5 c" g% G
  153. Default : No
    ' A  F& g; Q4 Q4 ^& |
  154. Forced : No) o$ p% Z( H0 ^5 d5 ?/ l
  155. 0 W% {9 m3 U7 }' s- Y2 g* e
  156. Text #9
    & b; ]9 H; w4 m* U7 D
  157. ID : 118 ?4 v' H1 k5 a
  158. Format : UTF-8
    $ H; n7 |4 h6 s! B' w
  159. Codec ID : S_TEXT/UTF82 y! c; |$ M/ B4 V8 V% ?! K
  160. Codec ID/Info : UTF-8 Plain Text
    0 m6 B# @2 L* Y1 [
  161. Duration : 22 min 57 s+ U+ w: }2 r/ h+ C# F
  162. Bit rate : 64 b/s
    1 `' x; T& ~# `3 n8 x. d9 c$ J
  163. Count of elements : 363( q7 Q% K3 V7 Z" i& K% `8 K
  164. Stream size : 10.8 KiB (0%)
    . C% e4 I0 `  \% e+ e8 U$ ~; H2 M7 ^
  165. Language : French
    & Y3 `8 S8 z6 ]( h
  166. Default : No
    5 {- {+ P4 i6 k, L% y
  167. Forced : No
    ; _: u7 u5 m6 g2 o$ ~* L5 O! _0 @3 E! X

  168. . C, \/ \: ~8 U- n  j, e9 D
  169. Text #10- I$ a0 D9 q! B: G5 O
  170. ID : 124 k0 E. L+ n3 q% ]3 M
  171. Format : UTF-8. ^5 C4 k* D7 d  n% L
  172. Codec ID : S_TEXT/UTF8
    ) y) |& u& n- H- f9 p5 Y
  173. Codec ID/Info : UTF-8 Plain Text
    7 A/ \! {2 c  D$ P& ]+ D1 W
  174. Duration : 22 min 56 s6 P! W5 M1 }% R/ q. Z$ A
  175. Bit rate : 94 b/s! `. Q9 U7 l8 l
  176. Count of elements : 372
    : K; L% R; R- Z8 j' s
  177. Stream size : 15.9 KiB (0%); J; s9 `& c7 u
  178. Language : Hebrew
    " U4 \+ C) J) p' H4 o! N
  179. Default : No8 W  Y) d- t* p5 ?
  180. Forced : No6 F, b- u, t1 G' |$ ?

  181. 1 u" [+ U5 G( @8 [# C7 P
  182. Text #11
      u( ?& W% Y1 k& R" M
  183. ID : 13
    / U7 q  x+ d( X* w
  184. Format : UTF-8  X7 e$ A6 X/ p; i- b; N- ]& \
  185. Codec ID : S_TEXT/UTF8
    & \- X8 p5 o( b" y* R
  186. Codec ID/Info : UTF-8 Plain Text
    ' {8 J# P# M  {3 @
  187. Duration : 22 min 56 s+ M! U0 ~. M& }! W* q, \$ T
  188. Bit rate : 59 b/s
    ! f3 l" d# S9 _+ q; \3 W
  189. Count of elements : 3726 o* `$ i. h  c7 k! T) H3 X$ d
  190. Stream size : 10.00 KiB (0%)
    4 a2 F7 R' z4 p* o7 q3 s$ o7 w) [% J# x
  191. Language : Italian
    ; d& |& H. ?; K( y! Z" j
  192. Default : No6 \- V2 M3 V8 v, U! V2 z; ]9 h
  193. Forced : No4 T1 N' ?/ j1 P* g( c

  194. 4 K% u1 v  ~2 H8 D$ D! v+ b+ v
  195. Text #12
    . X- z2 }0 @1 s; E
  196. ID : 142 W3 K: k$ v( M
  197. Format : UTF-8
    1 _& i2 ~5 B- `; W- [" I$ H
  198. Codec ID : S_TEXT/UTF8
    + e+ D. P; d! [7 P5 H
  199. Codec ID/Info : UTF-8 Plain Text% b- P! h# k( A  \' Y) V, E: H
  200. Duration : 24 min 10 s! Y, m9 |% H& C# g
  201. Bit rate : 89 b/s& l& ]7 m5 r# z0 q! T  s& O
  202. Count of elements : 389; n4 D  e1 r$ R+ M
  203. Stream size : 15.8 KiB (0%)5 G" ^( s3 y" Z  ]+ M
  204. Language : Japanese
    1 x1 Z4 F. P+ O( B
  205. Default : No$ U: u1 l- i! M
  206. Forced : No
    ; V1 R0 {) B' h9 S! @$ u' w7 ?& J
  207. # D+ v1 k$ {5 u% s
  208. Text #13. f. o( D& Q: Y3 E; I! B
  209. ID : 15' W# W) ~' N% @/ j
  210. Format : UTF-8' E* t4 a/ ]7 a2 N0 b
  211. Codec ID : S_TEXT/UTF8
    . w3 D# n3 T( ]+ l$ I
  212. Codec ID/Info : UTF-8 Plain Text
    ! J6 h- n/ H* z& v5 N) G
  213. Duration : 24 min 10 s
    + B% s' s6 ?4 z" m* }6 b! K
  214. Bit rate : 89 b/s
    " b' s1 g5 l7 K
  215. Count of elements : 396
    1 D* Y, L8 W% r( P" N7 C0 P
  216. Stream size : 15.8 KiB (0%)9 r$ _* `/ y6 R8 L5 V1 _5 L
  217. Title : SDH* U* ?' O5 b3 T7 c: ]0 U
  218. Language : Japanese  d7 Q- x) o, F  @& m1 O. ^4 `3 Y
  219. Default : No
    * @+ u0 r  y6 ~3 I6 b) M
  220. Forced : No; s5 T# ~4 }/ q  K- D

  221.   R; P* g$ d1 {$ n/ D' X
  222. Text #14/ s, w& k( u# k% _6 S9 Z8 ~' E
  223. ID : 16
    * I5 w7 p4 x: W1 n$ A
  224. Format : UTF-8
    ) S  w4 J8 i, `, e" a
  225. Codec ID : S_TEXT/UTF8
    $ Y% k0 _+ \$ M" B3 ?5 r. b! |0 h
  226. Codec ID/Info : UTF-8 Plain Text4 M& y( D% U4 i  U% q( J
  227. Duration : 22 min 56 s
    " \: V9 K8 e' c/ t7 M8 d
  228. Bit rate : 64 b/s1 t. Z& q; Q* T
  229. Count of elements : 3754 L9 X, }" f6 u: I$ C
  230. Stream size : 10.9 KiB (0%). v. i4 t3 x9 @, L
  231. Language : Korean6 i/ Y$ v) \* e) ~/ J3 R& g
  232. Default : No
    3 L; J, \  f' X: O6 r, r2 o
  233. Forced : No  \8 V. P3 K8 v) v8 O

  234. 4 I: V7 k7 _4 F" d! X
  235. Text #15! L6 @5 [+ O+ R6 V4 z
  236. ID : 17' _7 ]1 I1 [, e8 @: R
  237. Format : UTF-88 ?. H! O# s$ G4 |
  238. Codec ID : S_TEXT/UTF89 J' Z# i  G( t
  239. Codec ID/Info : UTF-8 Plain Text9 j+ K6 I( u# g9 v% Q4 p5 e+ T
  240. Duration : 22 min 56 s
    & [- w! }- R) @# Y9 }$ s/ Y& G
  241. Bit rate : 55 b/s7 m3 d- c" ?  m4 _/ q
  242. Count of elements : 351
    1 p! s: H3 h6 {0 b, @6 J
  243. Stream size : 9.25 KiB (0%)& u% R2 L0 Q3 |7 ]5 U
  244. Language : Norwegian Bokmal( A9 W4 \' R+ G! t# ?
  245. Default : No) J3 k1 }2 b, @: \& H3 ?
  246. Forced : No5 x; h# q" {- q( u
  247. ) L* Y: x9 J3 C  U0 |  y; C8 E
  248. Text #16
    4 D4 d3 _2 V7 m! V6 j
  249. ID : 18* G: g1 ?9 K6 J* d2 F0 Z  F; D
  250. Format : UTF-8
    2 y. p- w6 K7 G. ]9 d8 E  f
  251. Codec ID : S_TEXT/UTF85 t* r" A  f6 j% y# K+ v
  252. Codec ID/Info : UTF-8 Plain Text2 A8 j/ S, c( z
  253. Duration : 22 min 56 s
    , y& f! E7 q4 {) I+ `3 c. r  Z
  254. Bit rate : 52 b/s6 o4 ]: ?2 ]% S) S
  255. Count of elements : 343
    . F& O" @8 M7 u2 J
  256. Stream size : 8.78 KiB (0%)
    8 G. w0 L5 N0 z4 ^0 @( T$ B
  257. Language : Dutch* I& r( ~6 j7 Y; t$ X3 {
  258. Default : No# X) i% D9 Q- R) g" ]
  259. Forced : No
    ' o: n1 L2 ~% b+ S  o3 \
  260. . z  ^3 V1 V. d6 l* H- H$ u9 X
  261. Text #17
    / Q' c7 n# z  s
  262. ID : 19
    & C2 P) Y2 R& r; l4 x& a
  263. Format : UTF-8
    8 }, }+ \; \- `0 }2 s
  264. Codec ID : S_TEXT/UTF8
    & }6 [2 U1 c5 E6 o6 N' s  t
  265. Codec ID/Info : UTF-8 Plain Text
    9 h* }3 P4 D3 O3 B
  266. Duration : 22 min 56 s
      ?6 ]) \& w% {) l
  267. Bit rate : 57 b/s: O! s) L7 f1 c  s) g5 |- f
  268. Count of elements : 370
    2 E+ b3 `. l' k' K: |1 O
  269. Stream size : 9.59 KiB (0%); v4 g+ @* _' \7 `  l: m1 o
  270. Language : Polish+ b) e2 s8 L% z/ g% Q" a* P, R
  271. Default : No# i- ?$ g4 z5 M0 ?7 ?
  272. Forced : No% D8 B2 ^+ n6 U

  273. * I0 y2 s7 P% V5 c9 |
  274. Text #18
    ' {/ u, {; w( B% R: R! V
  275. ID : 20
    9 O% P6 K: }0 m/ v  t; H" @: K
  276. Format : UTF-83 G5 o' R2 }* H3 a4 b2 n1 g9 X
  277. Codec ID : S_TEXT/UTF87 E# n* O0 k6 k2 j0 ]
  278. Codec ID/Info : UTF-8 Plain Text
    / {' M$ p& H( o  R* q2 v+ ?
  279. Duration : 22 min 56 s
    3 c" c$ g) A! C. D. \4 Q5 t% \
  280. Bit rate : 63 b/s
    # a9 e! [# c2 O; D' p8 h* M  c. G
  281. Count of elements : 356- t. x% r- y3 q/ ^
  282. Stream size : 10.8 KiB (0%)
    , y, Z  v, x4 o" r$ @
  283. Language : Portuguese) I2 w, b! H: v0 }$ R4 p
  284. Default : No
    ; P- {6 L; ?  c9 e& v1 [) ?8 m
  285. Forced : No' ^; a! f  ^# k* G2 Z4 L5 l

  286. , }# [- b/ s- f0 \$ g/ [
  287. Text #191 A+ V0 K/ i$ I1 _
  288. ID : 21$ t2 B/ M: f, t* v% G7 Y
  289. Format : UTF-89 |! d8 v7 P2 ]* Y- ^9 U- S; H& K: P
  290. Codec ID : S_TEXT/UTF8/ p. \/ j3 L+ r! K+ N, Y9 P
  291. Codec ID/Info : UTF-8 Plain Text2 H, |  ]' j' s5 j" @
  292. Duration : 22 min 56 s
    & g% n- I4 x% j: B9 }) q
  293. Bit rate : 60 b/s
    2 L! c4 n4 F; Y! f3 {4 g- T. j
  294. Count of elements : 371
    : r" v) a8 N) X. m; p$ \
  295. Stream size : 10.1 KiB (0%)* R5 M. p4 d( x0 ^/ ?' F
  296. Title : Brazilian
    " }& F8 C. D! ^
  297. Language : Portuguese
      ]7 }8 H4 i2 |' N
  298. Default : No. x* [# G& O# s4 d2 S. S
  299. Forced : No
    4 |! Q" ?3 s! {$ t+ l; @9 I& l
  300. * K" w1 h4 ~! ]% L' C0 o
  301. Text #20) ?6 ~6 _1 w* U, i/ s( T: [
  302. ID : 226 H6 W2 t  ?8 z# h" c7 b& Z
  303. Format : UTF-83 e0 q/ t0 {; z7 K5 o2 \2 N* v
  304. Codec ID : S_TEXT/UTF82 L1 W+ F$ C: N
  305. Codec ID/Info : UTF-8 Plain Text0 q4 _0 g9 A& r5 e6 P, K
  306. Duration : 22 min 46 s
    # W. @1 D* v$ Q' N- C' h1 [* p
  307. Bit rate : 64 b/s
    5 a4 f; y$ a6 S/ I/ P$ s, v5 d
  308. Count of elements : 371: ^, b  Q( q/ H1 |/ J
  309. Stream size : 10.8 KiB (0%)
    & J: K* y9 p3 m/ o/ c
  310. Language : Romanian$ h: X: h7 |! M0 B2 t
  311. Default : No
    / v  y) ]5 D8 f8 G7 `
  312. Forced : No
    2 Z9 [; G/ |! ]1 V8 m

  313. / b) L5 b$ e2 b9 X+ W4 A
  314. Text #21
    4 z; A$ x; }& v5 d3 b( x' z' W
  315. ID : 23
    4 Z" d& i8 E. D* }( H4 v2 I, D; C
  316. Format : UTF-8& t. S2 \5 k0 `6 i/ U4 P
  317. Codec ID : S_TEXT/UTF8
    0 x" Y- X) w0 v+ D' n9 E
  318. Codec ID/Info : UTF-8 Plain Text
    6 n' ]0 f& h4 l) |5 \
  319. Duration : 22 min 56 s
    ' H  G) y0 `( W; z3 I& d; i" ^
  320. Bit rate : 63 b/s' [2 R  X9 f/ k& N6 ?
  321. Count of elements : 3605 s- e/ B+ q0 x4 i1 i8 L
  322. Stream size : 10.6 KiB (0%)
    ( X4 e- m( X8 @- [- g6 b
  323. Language : Swedish
    9 ?/ D$ }" `& s4 {1 Y) D" e
  324. Default : No
    4 a. q) l% a: ^$ ^
  325. Forced : No0 Y: K  N5 {% ?0 \# b- }; L* o
  326. 7 P! B  g- z7 j  F! e( F
  327. Text #22
    1 Y. z5 E' s* Q: Y; o
  328. ID : 248 l+ T- ~: `$ ^
  329. Format : UTF-8' L% P; \( @, i
  330. Codec ID : S_TEXT/UTF8+ C! J& B) z2 X% q; m( H% ^5 C* E
  331. Codec ID/Info : UTF-8 Plain Text& S  w8 g# D( y; G/ I
  332. Duration : 22 min 56 s
    % W" K" k1 h$ p2 i4 g5 E# i" A
  333. Bit rate : 130 b/s
    . j* e. L" O$ L2 u
  334. Count of elements : 372' K  a+ c/ u( c' b6 D
  335. Stream size : 22.0 KiB (0%)- U% L' N, C* ?4 n
  336. Language : Thai6 U& A! M4 F6 {" b$ x4 Q2 _
  337. Default : No
    " ~0 \8 t" R1 R7 v
  338. Forced : No
    ! G' j- o2 k5 y6 c0 v# J
  339. 5 U* l7 H3 t/ Q# [9 ^
  340. Text #237 T- s* ^  V! r9 S7 X
  341. ID : 25; q- t* P! I& ]: `& j9 \
  342. Format : UTF-8
    2 t$ A  y. Z5 f! l. Q" q  B: B0 J
  343. Codec ID : S_TEXT/UTF8
    - b3 L( s" A4 i/ q, P
  344. Codec ID/Info : UTF-8 Plain Text! t2 c' `' [5 e& L% }% B
  345. Duration : 22 min 56 s1 G; g2 a4 D+ D
  346. Bit rate : 57 b/s
    " K! g( }- _' M$ @
  347. Count of elements : 371
    4 R. Y, h+ n3 L6 z6 ^5 Y- ~
  348. Stream size : 9.60 KiB (0%)
    0 z) w6 j- X6 K, y; N4 ?& p
  349. Language : Turkish6 @* z: r0 g* o) r
  350. Default : No6 W& }. V+ v" e$ T1 W) J/ ?1 e
  351. Forced : No+ o9 r* x- N  R6 i
  352. ) q4 D$ r* x$ u- h; c; e
  353. Text #24
    ! N' G" n( c8 w
  354. ID : 26  I( y/ q; _' m$ K9 k% L
  355. Format : UTF-8" |3 D( p+ @" i5 @; Q
  356. Codec ID : S_TEXT/UTF81 H" o$ m0 D, R0 R
  357. Codec ID/Info : UTF-8 Plain Text) |! c9 o8 z/ |+ e! P8 T% L
  358. Duration : 22 min 56 s
    $ V/ H4 W5 C# m. y$ ^. p# u
  359. Bit rate : 80 b/s
    ; V* E( M. n2 }9 f) W1 w2 \1 o
  360. Count of elements : 372! ~( E7 X5 @. B& d6 v, w; j$ Q; h1 J
  361. Stream size : 13.5 KiB (0%)# z/ Y! V+ @1 H' @+ V' }# B
  362. Language : Vietnamese
    + c  l$ Z9 q# h
  363. Default : No
      S$ M8 a; |* d$ [2 X% R
  364. Forced : No9 Q! d! C/ q" k
  365. 7 g; i9 F0 a4 ^  v
  366. Text #25
    : b7 l" I" Q/ X0 I0 s5 ^9 R8 y1 l
  367. ID : 27( @$ x: [: N4 ]- ~( n
  368. Format : UTF-8! h8 P1 }7 c9 z' }
  369. Codec ID : S_TEXT/UTF8
    $ f9 D5 `% f. ~7 `6 Y; u
  370. Codec ID/Info : UTF-8 Plain Text, |; ^. u- X! ~! G, A
  371. Duration : 22 min 56 s7 ^( L$ R  @- n
  372. Bit rate : 55 b/s* G+ I! @( V% U) y, J& G
  373. Count of elements : 372
    3 k- r9 S0 f, Z4 t& K1 C
  374. Stream size : 9.33 KiB (0%)  M8 |  u7 {  x+ V( i0 S( l  z
  375. Title : Simplified
    0 W, V# a8 C3 H% e7 s' h
  376. Language : Chinese
    % Q) t4 F, c: v. @+ p* b2 S3 W0 z
  377. Default : No% ^7 B1 E9 e& S
  378. Forced : No& f  K+ q( I' v! d2 B

  379.   Z) r6 R0 ]2 A- a: m1 }/ ?# D
  380. Text #26
    2 i1 S4 E( O4 g4 w5 A
  381. ID : 28- v  ], _, J$ W. g' R, M
  382. Format : UTF-8
    ; ]6 [% T) o6 K* T) l
  383. Codec ID : S_TEXT/UTF8
    2 @5 k9 L  [5 Q2 T
  384. Codec ID/Info : UTF-8 Plain Text, o/ a" h; R$ m  F
  385. Duration : 22 min 56 s6 L. j- G! v1 x- ]/ M5 R/ _
  386. Bit rate : 56 b/s
    & _& S5 J" W- A( d
  387. Count of elements : 372$ X0 m8 \- a3 `8 X' {
  388. Stream size : 9.44 KiB (0%). H% l3 L+ N( @( q: E1 D3 q
  389. Title : Traditional
    9 C- Y4 G0 E- G* V" i1 a, F
  390. Language : Chinese
    % N3 }8 O, t$ a% F
  391. Default : No
    3 `" g: H1 s5 a8 o9 x
  392. Forced : No
复制代码
3 N/ T; t1 k2 f
1 o9 E  Q7 x5 b6 D  c' h
$ R1 t# t% B/ H$ e+ M% o. _

3 ^0 \+ P9 G4 b& n; x, e2 k' {+ @& b/ k; G( F8 U
' J2 S+ j% e2 f  a2 W
游客,如果您要查看本帖隐藏内容请回复  VIP可免回复查看隐藏内容 详情请点击
您需要登录后才可以回帖 登录 | 立即注册

本版积分规则

QQ|封号公示|手机版|有问题发邮件到admin#(换成@)hd1tj.org|微博|免责申明|HD一条街

GMT+8, 2020-7-5 15:59

快速回复 返回顶部 返回列表