HD一条街

 找回密码
 立即注册
搜索
查看: 18|回复: 1

[日韩] 日综:双层公寓:东京2019-2020[自带中文字幕]Terrace.House.Tokyo.2019-2020.S01.JAPANESE.1080p.NF.WEBRip.DDP2.0.x264-WEBTUBE 19.49G

[复制链接]
发表于 2019-12-23 22:19:14 | 显示全部楼层 |阅读模式

马上注册,结交更多好友,享用更多功能,让你轻松玩转社区。

您需要 登录 才可以下载或查看,没有帐号?立即注册

x

2 }$ w( L* f5 A* h# A7 f1 b% I1 B3 q                               
登录/注册后可看大图
% v* K. h' @6 z

  p* O; }1 m. w◎译  名 双层公寓:东京2019-2020 / Terrace House : Tokyo 2019-2020: M4 a3 s2 l0 T  c9 c: }
◎片  名 テラスハウス: Tokyo 2019-20200 J+ a- h9 {; `' e+ T/ g" N
◎年  代 2019  b2 X: p# I1 I8 I) z0 d/ L
◎产  地 日本; }& v. Q5 @, @5 I0 `
◎类  别 真人秀- I# j+ y5 s& G  P9 g! t
◎语  言 日语, v/ `, N1 i; C
◎上映日期 2019-05-14(日本)2 f* V4 p5 r8 s& i4 ^
◎IMDb评分  7.6/10 from 127 users
& ^3 S+ n9 I) n' B  K◎IMDb链接  https://www.imdb.com/title/tt106868148 x9 {5 p3 g% M& I$ g
◎豆瓣评分 8.2/10 from 379 users! W5 f  {1 J  @  M* j
◎豆瓣链接 https://movie.douban.com/subject/33404714/
3 A- `7 @3 J7 K/ n◎集  数 13
+ C8 C( k' h8 \7 Q/ D; p0 j◎片  长 50分钟
" m7 b! |2 U* T0 V- o  x◎主  演 渡邉香織$ F  {% J! p$ J
       松㟢翔平
5 i6 x4 X8 W  c5 l       春花 Seika Taketomi
$ z; h8 \; m: [) p3 g' Q+ ]+ Z' x       吉原健司
! t1 O1 E+ F5 r       田辺莉咲子
- {$ N, Q3 K) {- R: A5 j3 g       江原由希子 YOU
* E7 U( g; u1 a' w6 P- Y) Q- J       特林德尔·玲奈 Reina Triendl
9 i6 [" ^/ x5 @8 L  C  |5 f       德井义实 Yoshimi Tokui
+ k" m3 h$ y& @7 c       马场园梓 Azusa Babazono
5 D4 z) a7 c2 M9 o+ F1 L       山里亮太( `+ Y6 K% x9 j) t' g
       叶山奖之 Shono Hayama3 n, v. b9 v+ n( e- m# d5 I

% C0 C* e7 i! Y
7 S9 C# O) J- |9 j' N8 g! |9 ~◎标  签 日本 | Netflix | 真人秀 | 综艺 | 2019 | 生活 | 爱情 | 纪录片4 u7 N: U. e* M& n5 x$ |7 @% V8 C
5 {1 h+ r0 K5 N: s! L
◎简  介  
- j0 n7 u0 Y4 L6 M* [% C! X
6 Y2 g; E, h7 S# }( @1 U% r( F* M  全世界人民都因即将到来的 2020 年而关注东京,在此背景下,六个新的陌生人将聚在这个令人兴奋的城市,生活在同一个屋檐下。
  1. Video
    + u/ w% _& a% G" I
  2. ID : 1
    + y* ~* ?1 i9 s
  3. Format : AVC
    % v, a8 o% [  u4 Y- j# r" ^
  4. Format/Info : Advanced Video Codec
    ' G6 Z4 l( S% \' \
  5. Format profile : [email protected]0 M1 V! M+ ?, T  c
  6. Format settings : CABAC / 4 Ref Frames7 k( K: f$ ]/ @# G& r
  7. Format settings, CABAC : Yes
    % _- h1 S/ Y& s' z5 X! i% n; X. U
  8. Format settings, Reference frames : 4 frames6 K' D1 ^" W/ M3 G% I( z7 m% K
  9. Codec ID : V_MPEG4/ISO/AVC
    ) I0 }3 }) K9 T7 J
  10. Duration : 45 min 53 s
    5 @4 n2 e% `# D& ]
  11. Bit rate mode : Variable6 e3 l% p9 R3 u, g  F0 y+ Z
  12. Bit rate : 6 721 kb/s
    6 D0 e1 w1 s" k
  13. Maximum bit rate : 20.0 Mb/s
    2 g! \5 U8 @. u0 o1 j- M
  14. Width : 1 920 pixels$ u# A) f' u1 q
  15. Height : 1 080 pixels
    + V- j# K1 |6 i( d7 N% Z# ^# U4 w% J
  16. Display aspect ratio : 16:9( w& j& e1 i6 ^( W- p5 z
  17. Frame rate mode : Constant
    $ w5 _! |# {3 Z( P2 U1 t
  18. Frame rate : 23.976 (24000/1001) FPS! |: i  v3 f9 r$ y* X% A
  19. Color space : YUV
    6 G' [$ L& C' w9 P
  20. Chroma subsampling : 4:2:0
    2 H: N( U0 f6 l2 W  s
  21. Bit depth : 8 bits5 d5 ]! w. M% z7 [( a' F$ u
  22. Scan type : Progressive7 E1 |2 D' l! ^' m
  23. Bits/(Pixel*Frame) : 0.135
    ) p% t5 w. N2 o( i) y
  24. Stream size : 2.15 GiB (98%)# E+ F3 c( ~- H. g0 w9 ~
  25. Writing library : x264 core 148 r2715 7e752281 Q1 I$ s3 y! t1 K6 ]
  26. Encoding settings : cabac=1 / ref=4 / deblock=1:0:0 / analyse=0x3:0x111 / me=umh / subme=10 / psy=1 / psy_rd=1.00:0.00 / mixed_ref=1 / me_range=120 / chroma_me=1 / trellis=2 / 8x8dct=1 / cqm=0 / deadzone=21,11 / fast_pskip=1 / chroma_qp_offset=-2 / threads=8 / lookahead_threads=2 / sliced_threads=0 / nr=0 / decimate=1 / interlaced=0 / bluray_compat=0 / stitchable=1 / constrained_intra=0 / bframes=16 / b_pyramid=2 / b_adapt=2 / b_bias=0 / direct=3 / weightb=1 / open_gop=0 / weightp=2 / keyint=240 / keyint_min=121 / scenecut=0 / intra_refresh=0 / rc_lookahead=240 / rc=crf / mbtree=1 / crf=16.0 / qcomp=0.50 / qpmin=6 / qpmax=51 / qpstep=4 / vbv_maxrate=20000 / vbv_bufsize=25000 / crf_max=0.0 / nal_hrd=vbr / filler=0 / ip_ratio=1.40 / aq=1:0.80* }( Y8 ~8 z+ A
  27. Language : Japanese3 a  b& [' n" i: x- s' ~
  28. Default : Yes
    1 r0 W# i; h( i$ N& K* E; B
  29. Forced : No
    # c. s: {3 \0 R3 ^& G: o  L  d
  30. 4 A$ @' c! K/ B/ Q. S/ K4 q
  31. Audio8 m1 Y$ H5 i  c5 _8 `4 Z) [! \
  32. ID : 26 w2 @$ s' g# v- f7 e' I! R, D8 N
  33. Format : E-AC-3& s0 z# t2 R5 x, u: Y, O- z
  34. Format/Info : Enhanced AC-3$ ]9 f* X* b4 p7 ^/ g7 r+ L
  35. Commercial name : Dolby Digital Plus, [: u8 w0 Y; c
  36. Codec ID : A_EAC3
    - D6 A& @/ s; q5 k  X/ J. Z
  37. Duration : 45 min 53 s$ E2 \; N7 T6 M' I
  38. Bit rate mode : Constant  x. ?# Y) Z3 }% W8 q. _. [
  39. Bit rate : 128 kb/s2 C  u% Z+ n' k
  40. Channel(s) : 2 channels' t1 d- D0 C1 o# i7 v9 ?
  41. Channel layout : L R0 u+ z6 `+ R  @8 c
  42. Sampling rate : 48.0 kHz% G* @+ N  l2 V2 u* V( I+ o) @
  43. Frame rate : 31.250 FPS (1536 SPF)9 |- \& U4 t  A/ \. q0 d. H4 s; ?
  44. Compression mode : Lossy
    1 Y1 Q' ~; c- M% l' o2 C
  45. Stream size : 42.0 MiB (2%)
    4 j; F- j2 h* k
  46. Title : Japanese' N# |' }! ~2 A% f
  47. Language : Japanese
    0 S) t7 I/ }/ Y1 [
  48. Service kind : Complete Main: C0 i- ^8 }6 R  f' r/ n1 [# @
  49. Default : Yes
    . M& d) d6 K( z. p% Z8 f, w  y: M
  50. Forced : No
    - a1 w3 I# d0 A

  51. 7 Z- ~8 d9 U9 ^( h. @( k' ^4 V* R
  52. Text #1
    . s, s8 G+ I7 P9 U/ d# S: j  V$ Q
  53. ID : 3
    ; @$ c4 R% r# @! o5 H! M; F
  54. Format : UTF-8
    7 q) W# a8 ]; ?2 \6 ]' a
  55. Codec ID : S_TEXT/UTF8
    . W- e9 O! m  q/ v" f; Q/ |  ?; i
  56. Codec ID/Info : UTF-8 Plain Text8 s1 t& e, a+ F' ?' i2 x
  57. Duration : 45 min 35 s. `  g" u( Y/ k  U+ h8 d& T4 d
  58. Bit rate : 103 b/s
    ) X% L! Y5 V7 R7 H4 Y9 p
  59. Count of elements : 861
    5 @  g- d9 ]5 Z/ A
  60. Stream size : 34.7 KiB (0%)' p7 ~' ?) [6 j
  61. Title : English
    7 y3 Z+ L" q( _  }
  62. Language : English
    8 V: I. e* F' w- s4 U2 A! {, g
  63. Default : Yes' C' L3 G$ W6 \: d* V+ {
  64. Forced : No# \4 p; J* }9 G" m# y# E

  65. 7 X6 i' X6 r) v. L& [# R5 e
  66. Text #2; Z, o+ f0 ~, ]& F/ C
  67. ID : 4
    ( l" X& E2 Q# a4 h( @0 o  \" M/ n* J
  68. Format : UTF-8
    4 h$ I* g  R7 P6 e& R) T2 a
  69. Codec ID : S_TEXT/UTF8
    , S& D+ M! O9 u  X! G0 O* r1 V
  70. Codec ID/Info : UTF-8 Plain Text
    " z0 K. V9 S; d' Z
  71. Duration : 45 min 15 s8 S9 J8 g6 u, |. D) F
  72. Bit rate : 147 b/s
    ' z/ F) r7 o; s# O3 r
  73. Count of elements : 917: e: m0 [+ H  x/ s) V8 e
  74. Stream size : 48.8 KiB (0%)
    + R( j9 m  f; S5 ?
  75. Title : Japanese (SDH)* x2 ~2 |( |! _" ?; Q+ C
  76. Language : Japanese" j* [. m: _! F1 Q. [0 x+ t  [( y
  77. Default : No
    . e- u5 J4 C9 n
  78. Forced : No0 Z. {6 Q1 p6 Z; @% ^

  79. " [& N3 A5 [) H
  80. Text #3
    2 v7 U! B4 m. R) t! E5 R3 S4 x
  81. ID : 5
    1 N7 A7 e9 t5 G. ]" z! A% A
  82. Format : UTF-8
    $ K& w/ }8 {+ L, H3 v! @* @. V+ r
  83. Codec ID : S_TEXT/UTF85 h+ l. u2 X: P
  84. Codec ID/Info : UTF-8 Plain Text! P- I% M. e0 s) \6 |
  85. Duration : 45 min 41 s5 n& X: W3 q- j9 u
  86. Bit rate : 158 b/s
    : V, T0 O7 r7 n7 ^) N# n) ?
  87. Count of elements : 864
    5 f, g8 [$ X! e: T1 d( B
  88. Stream size : 52.9 KiB (0%)' U* d) N6 v  b- D: t* H9 y
  89. Title : Arabic, g( B4 a4 z$ x) {
  90. Language : Arabic
    : |8 g& Z4 ~, b
  91. Default : No
    ; ~% S/ ~3 W0 z0 c# E3 ]/ D
  92. Forced : No. V+ H( E- w, g

  93. ( H$ {$ H, R4 k% f8 G, p
  94. Text #4
    " n7 b+ ?& D! M" w- v$ j
  95. ID : 6
    , Z% s9 {2 A8 W
  96. Format : UTF-8
    $ I5 N4 k; v7 Z4 A# S! d% e; R
  97. Codec ID : S_TEXT/UTF8
    , {8 Z& d9 D. v# ^: L" s
  98. Codec ID/Info : UTF-8 Plain Text6 ?7 D, o$ m( r4 J. b7 C
  99. Duration : 45 min 41 s
    8 P% ~* d- p1 B# G) M: J
  100. Bit rate : 107 b/s
    6 _: S0 x# V# n; I
  101. Count of elements : 905
    2 P- O1 {. c4 B3 V6 v  _
  102. Stream size : 35.9 KiB (0%)
    3 j* `0 Q+ O/ a/ E/ x) v
  103. Title : Chinese (Simplified), r3 T! P, x' L+ ]% \& Q
  104. Language : Chinese( B6 w" C! G% A+ @
  105. Default : No
    4 k* B: p+ l2 d/ `
  106. Forced : No
    ' }' C$ |% Q" q. ]. O/ L
  107.   y6 Z2 w2 ^7 N# Q6 T  z
  108. Text #59 e; L0 ]% H) B
  109. ID : 7  D" O8 ~* p; x" h0 Z0 e
  110. Format : UTF-83 x! ]/ A6 r: z
  111. Codec ID : S_TEXT/UTF8+ |" s# j& Z% k5 ?3 J
  112. Codec ID/Info : UTF-8 Plain Text
    ! e2 W  u' s: Y' R8 B
  113. Duration : 45 min 41 s
    5 ~3 C# S" f: a* F8 N
  114. Bit rate : 107 b/s- q0 T# m# Z; @! w. |, r; P
  115. Count of elements : 902
    7 e3 {: f5 ]" N6 n
  116. Stream size : 35.9 KiB (0%)
    3 f- d, z! e& q5 f; [
  117. Title : Chinese (Traditional)
    3 l; z. a% ~6 F/ {6 x5 O. J
  118. Language : Chinese
      b; ^3 T# Q$ ^' \- ^+ C
  119. Default : No
    % _' x: y' x: h  W4 u+ u: n
  120. Forced : No+ Y# z) T" r, l! C& ?! @- ^& \

  121. + q' W' k% Z' \& S) ]; g
  122. Text #6
    4 p/ K$ X+ z8 G1 R% ^7 i: b
  123. ID : 8
    & a9 e/ H- V7 c) A
  124. Format : UTF-8" {& s4 b( n  m: c
  125. Codec ID : S_TEXT/UTF8
      V/ G8 f+ W& X9 D
  126. Codec ID/Info : UTF-8 Plain Text
    9 i' P% {3 y# }# m
  127. Duration : 45 min 41 s
    ' n7 `  a; g3 E2 D0 H& V0 U) i4 J
  128. Bit rate : 98 b/s
    6 V5 `" e) a$ Z5 ?5 \8 N
  129. Count of elements : 863
    + q  K9 X" Y6 _6 m# j* Z1 H: f
  130. Stream size : 33.0 KiB (0%)+ {6 f' `0 c+ S- X
  131. Title : Czech+ y: v) a. u/ T; c3 r! _
  132. Language : Czech: D3 X0 J" m9 U
  133. Default : No8 A2 ?( Z/ |1 k% k
  134. Forced : No; o! t" [5 Q1 }3 W& }$ b9 S

  135. 3 H  e2 o2 J7 e) D
  136. Text #7
    * N% q6 Z8 o' x2 l
  137. ID : 9' P  f5 r/ J4 D: A: K* x
  138. Format : UTF-8
    % ~1 {  g1 ?7 z; ^1 e' i
  139. Codec ID : S_TEXT/UTF85 H# Y* t7 c3 r6 P: |0 _- c
  140. Codec ID/Info : UTF-8 Plain Text
    ; w$ T0 n1 V! S8 t( _( x) E
  141. Duration : 45 min 41 s) [: J, {/ [. r  @& }
  142. Bit rate : 92 b/s  M2 z( Q% h9 I
  143. Count of elements : 860
    ' ]8 \1 d+ \/ i2 V0 r
  144. Stream size : 31.0 KiB (0%); o; z* z% T6 p
  145. Title : Danish% j& R5 Y0 \2 w# {* e
  146. Language : Danish
    * ^' g9 j! A' U* B  `/ n- t
  147. Default : No( C, W. Y/ q- p( `# o5 I! y/ [
  148. Forced : No% H" j- y+ ~$ c  C* H- M# z

  149. / K3 U( b* |# t# W# Z' ?; r
  150. Text #8
    3 o  x- g) U5 B' @, Z
  151. ID : 10
    + M( _! k; ?8 M7 T- w. e$ i: s
  152. Format : UTF-8
      S( z/ N" o/ v+ ^. P, j* X3 _
  153. Codec ID : S_TEXT/UTF8. p+ V* g- {! N
  154. Codec ID/Info : UTF-8 Plain Text" Z' y/ n8 y, ~: O
  155. Duration : 45 min 41 s
    7 ^" h7 E: ^5 X4 t- T! N
  156. Bit rate : 88 b/s+ f; c. y& H: `: ~' Y1 x: u% ]7 c
  157. Count of elements : 857
    1 X) F: _) h  {1 I7 g
  158. Stream size : 29.5 KiB (0%)
    ; S( V4 d3 `: j% D( I% w4 a
  159. Title : Dutch
    " V/ y0 `3 l1 H" D
  160. Language : Dutch
    # c/ @  u2 ?/ S# S; ^5 \
  161. Default : No
    , {5 v! B6 m1 U7 M7 `( M
  162. Forced : No
    : S7 Z  c5 ]# L$ o
  163. ' ~9 G3 r' u6 s% _8 P* x" O# n
  164. Text #95 @# }6 x8 u0 {9 k  j5 Y/ l  W
  165. ID : 11
    / F2 R# G7 K3 \* G% ?# c3 M: ~! l
  166. Format : UTF-8
    1 \5 k! C3 g" y( y2 P7 ]
  167. Codec ID : S_TEXT/UTF8+ o- W, w8 c0 R5 L
  168. Codec ID/Info : UTF-8 Plain Text1 n' B+ ?* z0 G- _8 i
  169. Duration : 45 min 41 s
    , G) [8 }5 e6 u! s0 a# P& K
  170. Bit rate : 85 b/s$ M# l1 L  N' ]; j' G3 V
  171. Count of elements : 861! ~" z6 y6 T9 w* t5 L
  172. Stream size : 28.6 KiB (0%)- {( z7 M% i- u2 c+ v
  173. Title : Finnish' X) A9 C* U, f" x8 c/ ?
  174. Language : Finnish
    & o* O' _& e" |4 `3 E) U
  175. Default : No8 G% b$ ]% A1 [9 x. p; O/ Y  Z
  176. Forced : No
    4 z; ^$ p/ C) e8 W0 t

  177. ; H# Q- q; v- r* N2 s
  178. Text #10
    / X* J* Y, w1 i  b, P
  179. ID : 12
    ) Q- _+ q# @" {6 A3 J! D
  180. Format : UTF-8
    + C* Z3 E1 g% h1 O2 U1 l9 T) H
  181. Codec ID : S_TEXT/UTF84 G. w: ?2 i' D% A* o% x- H7 Q$ `
  182. Codec ID/Info : UTF-8 Plain Text
    0 }6 }1 {* d$ [
  183. Duration : 45 min 41 s# i9 b7 |6 C3 \* u/ }7 }
  184. Bit rate : 90 b/s- s' e- o( X3 p& [$ f8 S" n
  185. Count of elements : 864
    0 @, u! }  q5 ?7 X& Q# D& C* k+ [$ E
  186. Stream size : 30.3 KiB (0%)
    ) _' K/ k! ~/ h# n* L! t
  187. Title : French" g) M4 p) m* U/ k
  188. Language : French0 x" Z# i/ p( {! J
  189. Default : No; e3 |' n* Q5 s
  190. Forced : No
    - T* p3 |, V7 D( e3 S7 n
  191. - u3 n4 n/ P0 L
  192. Text #11$ Z- ^+ ^- d% [1 i2 d( m' @
  193. ID : 13
    ' d0 S3 r$ |% Q3 B6 T
  194. Format : UTF-8
    4 H# H: z6 w1 }7 L% V( g
  195. Codec ID : S_TEXT/UTF8
    5 ~5 Y, ~' W- L$ n3 h9 l
  196. Codec ID/Info : UTF-8 Plain Text
    ) p3 Y- q& m+ P5 G
  197. Duration : 45 min 41 s
    ' [' G. ~1 |& g, F5 W+ n* G& T
  198. Bit rate : 89 b/s/ m) ?7 `7 Q' h4 U; W
  199. Count of elements : 864
    - i0 T% R, n. [5 D$ l4 t. I
  200. Stream size : 29.9 KiB (0%)
    ( @1 v9 o5 N+ o" b/ A% R
  201. Title : German7 ^) b$ n+ ]& q' c, N" F) J+ h
  202. Language : German2 u( w4 ^1 f4 z0 U9 A
  203. Default : No  H% g7 z5 s2 I- u$ i/ U
  204. Forced : No0 o  |- u/ z2 Q

  205. ! v4 @: C: u6 _2 N
  206. Text #12
    % K7 k& X1 [* O. A1 ?3 ^* e# B
  207. ID : 14
    ! p4 R' T! d6 P
  208. Format : UTF-80 k, N5 ~. |  r2 w) N+ G; `+ N* I
  209. Codec ID : S_TEXT/UTF8% |* Q4 ~: ~) s% _% h% J3 f
  210. Codec ID/Info : UTF-8 Plain Text
    5 H* s) F7 G6 y% a
  211. Duration : 45 min 41 s4 w/ @1 c& D* I0 M2 t2 N
  212. Bit rate : 156 b/s2 g( J/ l2 W) ]! Y) U' u
  213. Count of elements : 873
    + p+ `3 i! K# `) R/ u& e7 `
  214. Stream size : 52.4 KiB (0%)4 o9 ^$ r4 l. w% |) @- Y
  215. Title : Greek+ m9 k; T5 Z# ?1 O+ O2 u
  216. Language : Greek  A6 K) I) u  D0 X7 J+ W% g
  217. Default : No5 C7 O" F$ G0 w" n
  218. Forced : No
    " O0 E, w; \1 Y0 V
  219. " H% N5 c. Y: W) C4 u3 l( Z$ z8 `
  220. Text #132 |1 I. ^, r2 Q  p
  221. ID : 15
    2 D( ]2 x$ E( ?( c) {+ x
  222. Format : UTF-8
    " _$ ~" K4 i9 Z1 a- g+ V
  223. Codec ID : S_TEXT/UTF8/ F% L8 P- o; O, C0 D& R- Q, p" B  d# |
  224. Codec ID/Info : UTF-8 Plain Text
    9 [2 }: ~' e' K2 b8 A8 [
  225. Duration : 45 min 41 s
    9 O5 T& z2 ?8 w% M% ^
  226. Bit rate : 148 b/s
    5 L& b  Y/ y; ^
  227. Count of elements : 866  |2 v1 m1 r) h6 D
  228. Stream size : 49.8 KiB (0%)# [6 ]- X0 M7 Q) ^
  229. Title : Hebrew
    2 Z0 t+ w) m/ F! q& |) b& r+ }
  230. Language : Hebrew
    " q3 M' F1 `5 J% q) W* o* u/ Z
  231. Default : No
    9 `* e5 j1 w& U# c  T3 i( P2 W
  232. Forced : No# Y! c6 D; Z5 O. l5 R, _

  233. ! K6 `5 @7 g6 m, {7 `
  234. Text #14
    # f- Y% i# f' I/ U5 k% ^6 a% W+ N
  235. ID : 16
    7 [& V5 X1 j- N! c
  236. Format : UTF-8" M* Y  h# a1 |# t1 t
  237. Codec ID : S_TEXT/UTF8
    ; r3 p! |9 ]8 v
  238. Codec ID/Info : UTF-8 Plain Text- S7 o, n2 p. M/ V7 X
  239. Duration : 45 min 41 s5 C. W& S: p& ^+ o6 L
  240. Bit rate : 96 b/s; A* x3 N& D# M, \
  241. Count of elements : 8647 S4 d: I6 W+ @4 O/ _
  242. Stream size : 32.4 KiB (0%)- S! [% e9 c# U& v# _
  243. Title : Hungarian: V* L% o; V9 T( v/ e
  244. Language : Hungarian4 A5 `& t% {  c+ W/ k- h
  245. Default : No
    5 r! M7 T3 `" ~1 w) x
  246. Forced : No! U4 T3 q' L$ b% f

  247. ; n: `0 e) c0 ?& Y- P/ U
  248. Text #15" G& W* C, _8 E- g! X3 o
  249. ID : 17
    ' ?7 f! z* Z* X$ p
  250. Format : UTF-80 y& g& i3 Y! g4 `8 P; \/ e
  251. Codec ID : S_TEXT/UTF8
    : Z2 J" X# [3 J# Q7 B# e7 Y" T+ D
  252. Codec ID/Info : UTF-8 Plain Text8 e1 C$ I0 d% }$ ?$ o; l
  253. Duration : 45 min 41 s
    3 g' |0 ]! V0 G" S
  254. Bit rate : 95 b/s' E, F$ w) A5 }) |) `
  255. Count of elements : 870
    6 ?" {  `9 @% T) a  c/ E, Q: J
  256. Stream size : 31.9 KiB (0%)
    ; |8 G3 t3 h! ?! ~; l3 [; Q8 L5 b7 u
  257. Title : Indonesian  m  h* b, a5 f) s
  258. Language : Indonesian
    ! V5 t+ F5 w0 i: T. j
  259. Default : No
    % p/ k1 r* q4 ]8 |" O) s
  260. Forced : No3 k/ J' l2 ^1 D- H" O
  261. . S. J; ?4 P0 v4 |
  262. Text #16
      O/ f% N" X9 g7 u
  263. ID : 18% d- m& _/ |8 G3 I
  264. Format : UTF-85 x/ k& E+ P# S$ u0 m; M1 H' l6 @) d
  265. Codec ID : S_TEXT/UTF81 W" e' ?0 W: @! t$ I# G; E
  266. Codec ID/Info : UTF-8 Plain Text3 [5 i) W0 O8 d6 B5 Q- m
  267. Duration : 45 min 41 s
    9 s# D7 k$ w- _7 e0 L" f
  268. Bit rate : 93 b/s
    5 [& r- _# }* o  Y: p
  269. Count of elements : 863
    % L3 F- G( e# u& m5 h
  270. Stream size : 31.4 KiB (0%)0 a! w0 e5 W3 r+ f
  271. Title : Italian
    0 T. E* i( @" H2 C' X
  272. Language : Italian
    : ^3 F( n/ G, w8 ]6 y( u
  273. Default : No+ ?2 O/ r) `# h) f: @5 \. @
  274. Forced : No
    4 t, _' s# |; O( S2 O7 y! O
  275. , R( j. H& X! ?+ [& v
  276. Text #17# a; |" O! y1 l9 s0 s# j7 y) j! p7 f
  277. ID : 19$ n) f1 }# o0 ]0 V: W9 o! n
  278. Format : UTF-8
    1 G' W; W6 _  R- ~3 a8 N: n  N
  279. Codec ID : S_TEXT/UTF8: h3 s1 u* C# n# ~: Z/ u7 {
  280. Codec ID/Info : UTF-8 Plain Text
    7 ~+ M, u5 k$ D' m! U: x
  281. Duration : 45 min 41 s
      H6 R6 E: }7 y" S% G/ R& b5 s
  282. Bit rate : 116 b/s5 g/ `9 f. K1 e3 O& B
  283. Count of elements : 912
    2 P$ J$ c+ g. a1 k) o# r; n8 N
  284. Stream size : 39.1 KiB (0%)
    ) ^5 O/ q  D5 J" M/ Z
  285. Title : Korean
    - _  t  _0 S, ~+ }8 p9 K5 S
  286. Language : Korean8 ~+ U* E0 V& A, \$ G
  287. Default : No% M  K  v4 q' L
  288. Forced : No5 _: d  V9 M, |# c

  289. - z- A- Z% Q, t
  290. Text #18
    ) ?! w9 j1 j! f
  291. ID : 20! A) f, [( p1 P# Y
  292. Format : UTF-8
    ( G2 R. O! Q: @
  293. Codec ID : S_TEXT/UTF8
    ; d5 z2 z9 j: q* ^: T
  294. Codec ID/Info : UTF-8 Plain Text
    % P  c- _9 {$ U; @$ t! e& S
  295. Duration : 45 min 41 s1 ~0 |5 `9 O4 N) I* b' @( [
  296. Bit rate : 88 b/s
    / F; f% C1 Q4 K1 P) F$ D  h
  297. Count of elements : 864" A& B, [, F4 Y# h1 s) v# y
  298. Stream size : 29.6 KiB (0%)
    " g) K8 P' y9 v9 ]4 X
  299. Title : Norwegian (Bokmal)
    # @4 c" ^9 A# H  o
  300. Language : Norwegian Bokmal( ], p. j# X4 X1 `5 s0 V
  301. Default : No) V! s/ b. K+ {) }$ w2 f% P
  302. Forced : No
    3 U( B' |/ W" V1 W9 k& q9 n1 [
  303. % u& ~* U$ M- X2 J( i% c1 X: O
  304. Text #19* {3 v4 ^: h% c! a+ V
  305. ID : 21( ?7 N3 V! \$ m0 |' g+ |
  306. Format : UTF-8$ n& q, F# `) u1 [
  307. Codec ID : S_TEXT/UTF8
    ; t- k. c& z1 X; b, A& D
  308. Codec ID/Info : UTF-8 Plain Text3 g. f! G0 Q" W' T/ A
  309. Duration : 45 min 41 s
    + P( j3 D4 N4 K8 p3 a6 p2 g+ \
  310. Bit rate : 82 b/s- |5 }3 I, W5 P) V1 T
  311. Count of elements : 869' p% E! A# c/ \9 Y* _3 w3 ~, E. D7 @
  312. Stream size : 27.7 KiB (0%)# _( E1 z; S& d8 }% g4 k
  313. Title : Polish
      o; _: x( P2 o+ X
  314. Language : Polish
    # e* [8 Y8 ?/ E& z- @2 i9 A2 B2 {
  315. Default : No
    * w( R( b0 y0 a+ a
  316. Forced : No
    9 c4 |  ]' R: Y: X. `0 n/ n( K
  317. 0 y8 R2 P. |! C7 `9 _; v1 N
  318. Text #20$ Z% E! z& z6 v% g
  319. ID : 22
    1 F2 T  D8 C2 s% u& L, ]: w, F* l
  320. Format : UTF-8
    ; `8 Z* g: O& w
  321. Codec ID : S_TEXT/UTF8
    0 b( L3 W  q0 n9 @! `6 G+ I
  322. Codec ID/Info : UTF-8 Plain Text
    * B6 m) D$ A' t  r- O
  323. Duration : 45 min 41 s
    . U2 r/ d) l3 t5 x( l2 q6 e
  324. Bit rate : 93 b/s+ F4 N- l( C% _
  325. Count of elements : 862
    ) I% ~  \$ L9 y( o
  326. Stream size : 31.4 KiB (0%)
    ; a0 `: |6 M1 l; E4 o/ ~. G6 y! L
  327. Title : Portuguese0 V: [! M# S$ A' q1 x# C, I0 k
  328. Language : Portuguese
      M- [) ^& z: q/ Q: T( W# U
  329. Default : No
    2 v; {* R! C; U& U3 \
  330. Forced : No3 V6 r3 T7 e5 y0 C$ T2 N

  331. ; h- h& p( w9 @* Z& f
  332. Text #21$ ]4 ?) E! D) x  w9 |/ r
  333. ID : 23- e+ D1 D, Q% m; v  R4 r- C6 y# k
  334. Format : UTF-83 |/ a4 `, O: ^/ [* K% M& C+ V
  335. Codec ID : S_TEXT/UTF8
    6 Q9 b. t& v3 Q
  336. Codec ID/Info : UTF-8 Plain Text/ x/ \6 ^2 r  n
  337. Duration : 45 min 41 s( z' W& R1 e" Z2 w/ S
  338. Bit rate : 93 b/s
    6 s3 `1 U; M' c# \- G
  339. Count of elements : 863
    1 p+ E1 s$ ]$ K, L
  340. Stream size : 31.2 KiB (0%)
    / d& K7 v' q. E1 x2 w: }3 R
  341. Title : Portuguese (Brazilian)
    + Q% U! L0 c9 b& Q7 k/ M4 I' Q3 P
  342. Language : Portuguese
    * G' i. h+ a* B* o. m4 a
  343. Default : No  c7 u" {: L8 A- ?! i: R) b
  344. Forced : No
    6 E; d8 t5 b$ q5 N, }3 k$ V' Q

  345. $ I. z) J( T- S7 o
  346. Text #224 W* r' O* y/ L0 Y' r0 Z
  347. ID : 24
    8 Z& X. x$ O' t/ t$ |( _1 c/ q
  348. Format : UTF-8
    ( {" S: `0 e8 o" |
  349. Codec ID : S_TEXT/UTF8
    $ `2 J9 D8 Z! Y" z* c& E
  350. Codec ID/Info : UTF-8 Plain Text
    9 ]. a2 t: f6 h
  351. Duration : 45 min 41 s
    7 j4 Y1 \( J6 Y; S6 N# V) x
  352. Bit rate : 100 b/s% b% r2 }6 T0 c5 [4 d0 ]) K: k
  353. Count of elements : 863
    " M" d3 r, I- W: r0 a: U. H* |
  354. Stream size : 33.6 KiB (0%)3 d: T3 ]0 v* [" P8 t# y
  355. Title : Romanian
    9 D6 }' W/ s3 e! D( Z& I
  356. Language : Romanian
    . M2 B- t+ x) y+ ?7 X- ~
  357. Default : No
    8 R6 i+ ?& n  @. R# c! G9 V
  358. Forced : No9 B" k+ B$ T! e# i0 l

  359. 6 w. H( C) K0 l
  360. Text #23% v$ |7 D! G- o7 ^! P
  361. ID : 255 A: t) k8 u, t5 i3 j& t
  362. Format : UTF-8
    6 ~2 X. \* P% ]: o1 s
  363. Codec ID : S_TEXT/UTF8
    / j% B% s% ~. L! H1 P
  364. Codec ID/Info : UTF-8 Plain Text
    * e( M8 G/ o- l) }
  365. Duration : 45 min 41 s
    2 a* q0 n( D! a3 \- D
  366. Bit rate : 157 b/s9 P& I8 L$ B* V3 d, V" `2 G3 m  L9 A7 @
  367. Count of elements : 873& i9 \5 B, j, p2 O- H& C! u
  368. Stream size : 52.7 KiB (0%)8 t' j" J' B" O, B
  369. Title : Russian
    3 x& ~; ^, l9 s1 D
  370. Language : Russian0 a# w- s. x4 K& B/ y
  371. Default : No% P% O5 O+ d2 V) c9 \; v
  372. Forced : No' A( \2 H5 ]# {! }
  373. 6 s% w5 u  _8 b4 [3 O
  374. Text #24
    + ?; U) l( T" d+ i1 u8 B4 w
  375. ID : 26% s$ ^6 v- ~2 ^) s% y# @# F; X. d
  376. Format : UTF-8
    / c0 R1 ]) Y: i2 i* O$ Z
  377. Codec ID : S_TEXT/UTF8' R6 {. h! O1 W" |1 A
  378. Codec ID/Info : UTF-8 Plain Text$ L2 U" w: a- q1 M& X; F1 f: c
  379. Duration : 45 min 41 s$ O- ~, P( d0 ?1 j+ p6 y  y
  380. Bit rate : 94 b/s; J' H& `4 y3 i& f3 W: E5 R4 \- S) E
  381. Count of elements : 863
    + s2 l" L  V( C+ P9 E
  382. Stream size : 31.7 KiB (0%): B- _3 y9 Y! v- `& @
  383. Title : Spanish
    5 I5 R% p1 w2 r
  384. Language : Spanish6 r) H% f4 @- C6 L
  385. Default : No! [  [2 ?% @+ l, v- e
  386. Forced : No
    4 }( b" z6 N1 Q2 j( W, N$ g
  387. 9 R+ X, J5 M7 L/ v0 ~0 b
  388. Text #25
    * s# q4 W" ]! |# o! s+ x
  389. ID : 27
    ; W6 b5 c9 }: ~! h- B
  390. Format : UTF-8
    ; Q3 L! m2 D# U( \
  391. Codec ID : S_TEXT/UTF88 p4 d) a  q9 K( V
  392. Codec ID/Info : UTF-8 Plain Text) b0 k- u+ w2 u, Y4 ]) U2 y& G
  393. Duration : 45 min 41 s, t) _0 L/ J9 ?
  394. Bit rate : 90 b/s2 }! Y/ M& Y1 n. g/ K! U
  395. Count of elements : 863
    $ `  K2 ]7 q4 t
  396. Stream size : 30.2 KiB (0%)  g& |! B0 t: I6 U
  397. Title : Spanish (European)
    2 a' B6 M& F, y- F
  398. Language : Spanish
    , g3 U7 |6 o: |9 Z3 T; E
  399. Default : No
    8 Q2 r+ B) @& \( X& h
  400. Forced : No  V8 ]  _' Q0 J

  401.   u4 F) @' d3 k6 x1 H! a9 Y; ^
  402. Text #263 {% C) j+ ?: s8 ^$ k' G
  403. ID : 28
    * S" T1 u' h. A5 f
  404. Format : UTF-8
    $ Y6 L1 s1 R5 c: B& o2 d
  405. Codec ID : S_TEXT/UTF83 T+ E; i' p0 Q, {/ V6 ~
  406. Codec ID/Info : UTF-8 Plain Text* z1 H. \: \! R% r
  407. Duration : 45 min 41 s
    ; ?  _$ ~5 ?/ I) M$ g& j3 S
  408. Bit rate : 95 b/s
    1 y: Y+ }! t4 W9 P- G3 U
  409. Count of elements : 862. \! y7 q% G. H& e, j$ ^
  410. Stream size : 31.8 KiB (0%)
    ; p% k& w4 C  U; l3 T( I7 a1 i
  411. Title : Swedish
    ; a( `! Q/ |/ p8 n" ~4 d8 G
  412. Language : Swedish
    4 P6 U2 f) T4 n
  413. Default : No
    4 j/ y3 `- \" h4 d# t- S
  414. Forced : No
    8 O! `9 [4 g) k' q# p0 h5 C

  415. 3 R; \, F; B# D5 J2 w
  416. Text #27
    . u% Q" D% m& [* e: @! v
  417. ID : 29# ]( T5 a# ~# u0 I- {9 x, W( r( e
  418. Format : UTF-8
    ' l* K7 g! W) {' t. p# y% Y- U
  419. Codec ID : S_TEXT/UTF8
    2 n8 ^! K5 M6 @9 `
  420. Codec ID/Info : UTF-8 Plain Text
    ; d5 o( u: q/ }- V7 n. ?
  421. Duration : 45 min 41 s8 W/ t6 \( s- [- b2 X4 @
  422. Bit rate : 259 b/s( Q1 [5 P; y9 }4 w
  423. Count of elements : 880
    : Q3 L* u1 l7 w% D8 g
  424. Stream size : 87.0 KiB (0%)
    5 T  z" z- ]% J4 [! y, f
  425. Title : Thai& y7 N6 M7 T& K3 ~, }
  426. Language : Thai) A* Z& |4 U8 |; y
  427. Default : No! r+ j/ q- h: d3 d/ n! h; D
  428. Forced : No3 w) U' V& L6 _7 z* ~* C) G6 b
  429. 1 `+ w) |3 A$ W, ]$ [6 Z& H0 c. Q
  430. Text #28/ q4 c( y* T6 W/ t& a
  431. ID : 30
    ; S- I3 _+ N' l/ _6 W
  432. Format : UTF-8& U. O* g0 {6 X/ h5 _
  433. Codec ID : S_TEXT/UTF84 t' R) S4 @' e3 w" M- G
  434. Codec ID/Info : UTF-8 Plain Text, r8 @; G) B! I4 j
  435. Duration : 45 min 41 s+ b1 A; X. L: X2 G( _( J
  436. Bit rate : 105 b/s
    % c0 \6 _7 y9 p7 @2 A
  437. Count of elements : 868
    + h& J# S* T! T, W4 r" M/ B
  438. Stream size : 35.1 KiB (0%)
    & e3 }& g% S& E' X/ O; g# R
  439. Title : Turkish
    * W4 S! [  |6 s1 z- u
  440. Language : Turkish6 o% l6 B/ f5 ?% f- N9 t
  441. Default : No
    3 c" U. D! d& S- c( L  w4 o/ c2 w
  442. Forced : No
    ! o  _" a* V5 D( _, e; W4 x2 M5 t( l6 c

  443. 2 D- M) Q: ^0 t/ s  O! N; T3 b! i
  444. Text #299 P! t/ E: I& Y3 i& s
  445. ID : 31( h2 g1 q7 z# J- x+ r
  446. Format : UTF-8- T4 ]5 {! l7 ?) i% z- u
  447. Codec ID : S_TEXT/UTF8
    # t) J' w! G" f
  448. Codec ID/Info : UTF-8 Plain Text. y1 ^& {9 o, `. q' X
  449. Duration : 45 min 41 s" z. |% r' w% ~' {( n4 K" k" h$ }
  450. Bit rate : 140 b/s
    1 O$ b' G9 e, x# B
  451. Count of elements : 870
    ) y( b8 E! I+ r, d. k
  452. Stream size : 46.9 KiB (0%)
      |& Y% D9 n$ @$ v4 w3 n1 p, q/ @+ {
  453. Title : Vietnamese. {- Y$ y) M; }  Q6 X
  454. Language : Vietnamese
    " ~9 h5 P/ o! C' @- b
  455. Default : No  ]2 k3 u/ Z) F. I  s
  456. Forced : No
复制代码
6 n2 C% p1 y. o3 ]; Y
9 x" L$ ~+ L& ~: _9 R

8 K! F# S3 n6 R) M: ?# q
- _/ G+ }! j4 |1 b+ u, T4 U% p' W+ S% t( W2 f

$ S- s/ i4 ~2 C0 h5 Z2 A5 a3 H; N& B; @& n
游客,如果您要查看本帖隐藏内容请回复  VIP可免回复查看隐藏内容 详情请点击
发表于 2019-12-24 00:04:53 | 显示全部楼层
谢谢楼主分享资源。
您需要登录后才可以回帖 登录 | 立即注册

本版积分规则

QQ|封号公示|手机版|有问题发邮件到admin#(换成@)hd1tj.org|微博|免责申明|HD一条街

GMT+8, 2020-1-18 17:37

快速回复 返回顶部 返回列表