HD一条街

 找回密码
 立即注册
搜索
查看: 222|回复: 2

[日韩] 日综:双层公寓:东京2019-2020[自带中文字幕]Terrace.House.Tokyo.2019-2020.S01.JAPANESE.1080p.NF.WEBRip.DDP2.0.x264-WEBTUBE 19.49G

[复制链接]
发表于 2019-12-23 22:19:14 | 显示全部楼层 |阅读模式

马上注册,结交更多好友,享用更多功能,让你轻松玩转社区。

您需要 登录 才可以下载或查看,没有帐号?立即注册

x

: T% R: R  P  x, F                               
登录/注册后可看大图

' B! [  d9 l9 r5 O& V: d3 y* t( `8 d
◎译  名 双层公寓:东京2019-2020 / Terrace House : Tokyo 2019-20201 p! p! B1 l. B! j, A/ w
◎片  名 テラスハウス: Tokyo 2019-2020
* W+ b- J0 s' P% Z+ \◎年  代 2019
/ \" ^2 c; p  _* j- ^8 _◎产  地 日本) v7 s  t9 `2 R9 J5 }1 }
◎类  别 真人秀& n. b/ ]5 e# U# u
◎语  言 日语! Q& q1 r. h0 D7 t* ~) t# x& a
◎上映日期 2019-05-14(日本)
. Z$ K  {% ~0 Q' l& I* p! J◎IMDb评分  7.6/10 from 127 users* }/ o) h* g  K
◎IMDb链接  https://www.imdb.com/title/tt10686814
; @5 r! R* L3 u- Q6 z' E◎豆瓣评分 8.2/10 from 379 users. c1 ~( K! E  W7 p, O
◎豆瓣链接 https://movie.douban.com/subject/33404714/0 C" }# a* R& C' W! U  ~, z. t) J
◎集  数 13' v) M. |- {1 i# D+ U6 {% @
◎片  长 50分钟
* ?4 H+ T) H/ Y◎主  演 渡邉香織
4 q8 Q  ~  B! k7 S% i4 t9 S4 u0 ?       松㟢翔平
, M2 c! c; Y4 d1 g/ X       春花 Seika Taketomi: s- A# ]7 [" i! U  l) i9 M
       吉原健司0 p- ?9 X* F6 M9 _9 s- r2 h
       田辺莉咲子+ w0 p+ b1 a8 @0 o
       江原由希子 YOU' n% j8 G9 f3 v2 U# x
       特林德尔·玲奈 Reina Triendl
9 n  R/ S9 V. J7 @& l3 \& x       德井义实 Yoshimi Tokui
9 d& z" f$ G  G  f' O# u- h% ?       马场园梓 Azusa Babazono
. j2 {7 X: e% H7 B# z; h$ d       山里亮太/ w( j( p$ M) P% L! e. s( G
       叶山奖之 Shono Hayama
4 f8 ]7 p! ?' T: Z
5 K+ s+ x- D$ S$ c, \
! z4 q% Y; g5 G. S◎标  签 日本 | Netflix | 真人秀 | 综艺 | 2019 | 生活 | 爱情 | 纪录片+ r1 k! Y( s0 l) I: x
; n5 |3 ], [8 T3 V% k
◎简  介  . Z. O  \( R, Q0 a1 j6 F, U

1 ~" h: i2 B" {  全世界人民都因即将到来的 2020 年而关注东京,在此背景下,六个新的陌生人将聚在这个令人兴奋的城市,生活在同一个屋檐下。
  1. Video2 D8 |9 Q2 J8 A+ f% D* f4 g2 U
  2. ID : 1
    0 o0 P+ ~: j! w5 M8 e
  3. Format : AVC
    , A& ?) [0 }0 n
  4. Format/Info : Advanced Video Codec
    ( A  W" t9 S) l3 ^
  5. Format profile : High@L42 ~2 k, h6 A: n; B
  6. Format settings : CABAC / 4 Ref Frames
      c- W0 [) C$ q6 e7 \2 z0 m* l
  7. Format settings, CABAC : Yes
    " o: N% [  x% R7 r9 n
  8. Format settings, Reference frames : 4 frames" K9 c5 J$ C5 D1 S  |! \; H% X
  9. Codec ID : V_MPEG4/ISO/AVC
    # R2 M/ H! F! I$ A6 a
  10. Duration : 45 min 53 s8 d, I- O8 K5 d; @% o
  11. Bit rate mode : Variable
    . Z  z7 x7 N, N' O2 }0 W  h
  12. Bit rate : 6 721 kb/s6 y4 n! |. [3 o& f# d; G
  13. Maximum bit rate : 20.0 Mb/s1 M' K) L6 G" o
  14. Width : 1 920 pixels
    / s2 ~4 W. F% F, l) Q3 h) F# u, |
  15. Height : 1 080 pixels: w# `/ H) K! A# I; v% W
  16. Display aspect ratio : 16:9
    - N% L, s/ n$ Q% `3 I
  17. Frame rate mode : Constant
    * I* n7 _/ C: M. u% `: U* s
  18. Frame rate : 23.976 (24000/1001) FPS9 I$ V/ `( J& J  e- w2 B% q0 W: A9 d
  19. Color space : YUV
    3 i+ {- D: L. r; f
  20. Chroma subsampling : 4:2:0
    / U- b. ]) {) X. m0 z, _
  21. Bit depth : 8 bits
    / e* S9 G9 P; x0 p  \/ q3 I) y" U
  22. Scan type : Progressive
    0 z7 w! R) {8 i2 c+ u& Z+ a
  23. Bits/(Pixel*Frame) : 0.135
    8 ?1 f0 c" q2 O; g% ~- b: y. u  Z
  24. Stream size : 2.15 GiB (98%)7 H: q" }. a7 u( Q$ c# i( w% Q" k
  25. Writing library : x264 core 148 r2715 7e75228
    8 ]' a3 ?; T- W# t9 b# z0 n8 o8 a
  26. Encoding settings : cabac=1 / ref=4 / deblock=1:0:0 / analyse=0x3:0x111 / me=umh / subme=10 / psy=1 / psy_rd=1.00:0.00 / mixed_ref=1 / me_range=120 / chroma_me=1 / trellis=2 / 8x8dct=1 / cqm=0 / deadzone=21,11 / fast_pskip=1 / chroma_qp_offset=-2 / threads=8 / lookahead_threads=2 / sliced_threads=0 / nr=0 / decimate=1 / interlaced=0 / bluray_compat=0 / stitchable=1 / constrained_intra=0 / bframes=16 / b_pyramid=2 / b_adapt=2 / b_bias=0 / direct=3 / weightb=1 / open_gop=0 / weightp=2 / keyint=240 / keyint_min=121 / scenecut=0 / intra_refresh=0 / rc_lookahead=240 / rc=crf / mbtree=1 / crf=16.0 / qcomp=0.50 / qpmin=6 / qpmax=51 / qpstep=4 / vbv_maxrate=20000 / vbv_bufsize=25000 / crf_max=0.0 / nal_hrd=vbr / filler=0 / ip_ratio=1.40 / aq=1:0.80( G, n  m/ G( z$ ~
  27. Language : Japanese" K4 |+ Q% B/ s
  28. Default : Yes8 y& M! ]/ m. d% {, Q
  29. Forced : No
    / ~- |" J1 ^& R( R7 s
  30. " }  O" y, l/ M% g9 R' j2 o
  31. Audio
    * H! ~7 I9 n% {
  32. ID : 23 i, v4 N+ Y  D' ?2 A* w
  33. Format : E-AC-3
    ( {7 Z9 C5 j8 {2 D2 v1 j( \
  34. Format/Info : Enhanced AC-3
    / n, e0 ~3 s4 s7 t( w
  35. Commercial name : Dolby Digital Plus
    9 L, r8 r. {* R2 x! f4 A: `
  36. Codec ID : A_EAC3
    6 d( W, O% _1 w! u$ {
  37. Duration : 45 min 53 s' V, i7 u9 J+ a$ _: R9 C
  38. Bit rate mode : Constant  f) {. c" B3 W6 E
  39. Bit rate : 128 kb/s
    3 r% V7 [* Y5 C( f" h- V/ h
  40. Channel(s) : 2 channels
    1 o. p$ p. d' X, v3 _9 F8 N
  41. Channel layout : L R* a" \+ ~* R# `. G4 H
  42. Sampling rate : 48.0 kHz, a8 H' j  p: G( e
  43. Frame rate : 31.250 FPS (1536 SPF)
    , ?: E! J! Z! G$ R* G
  44. Compression mode : Lossy% n9 Y  D% A7 }# }- ^* [) y/ H
  45. Stream size : 42.0 MiB (2%)) B7 D" {6 y2 y* T, X4 B
  46. Title : Japanese
    1 k8 S% N/ Q* g5 a+ |  T& y! C
  47. Language : Japanese' \) m) R; L/ L, ?% p; p
  48. Service kind : Complete Main- A( P& Q) n6 m5 A) i
  49. Default : Yes
    3 Z" D9 j9 [4 Z  |1 t) R
  50. Forced : No; o. M. [' N: _, X2 c; W3 N

  51. * p$ m+ _& k" `7 z, r
  52. Text #1
    6 q+ {& y, n1 [3 B9 K! C8 V
  53. ID : 35 l( l; [. T6 m5 W9 E3 R2 Z' k
  54. Format : UTF-8
    / Z5 Y4 y, g' S" |5 U
  55. Codec ID : S_TEXT/UTF8
    5 x/ m4 U6 r% G& Y/ R
  56. Codec ID/Info : UTF-8 Plain Text( e! V" ~7 |& {  W
  57. Duration : 45 min 35 s9 i0 O9 L: Q) S  D
  58. Bit rate : 103 b/s
    : z- o. B( k( z6 C
  59. Count of elements : 861' g; x7 [3 Z" B) N( c& J$ q
  60. Stream size : 34.7 KiB (0%)
    ( d- q- I* `' o3 U& g
  61. Title : English" J6 E, o( a; i# P0 i  y- \
  62. Language : English0 v* p+ C7 x7 p& P4 w
  63. Default : Yes+ y0 ?+ t/ n  [' a  A
  64. Forced : No: R; k1 H* c' T2 r' I- W

  65. 9 J; L2 E7 X$ I* d# @4 ?3 M
  66. Text #2! E3 P. B, z: ~# w9 `; j  u
  67. ID : 4- E& m9 w$ {) r9 L6 z
  68. Format : UTF-8
    ! J) l" l3 W. F% _5 `
  69. Codec ID : S_TEXT/UTF86 P& Z* m4 E7 n; z( r% d: R
  70. Codec ID/Info : UTF-8 Plain Text- b9 c+ X, e2 ~/ Z; z2 r
  71. Duration : 45 min 15 s
    1 D! N$ y+ o& n( T
  72. Bit rate : 147 b/s( p0 A& v& j9 k5 Q8 m+ Z+ i
  73. Count of elements : 9171 k, j7 j. A' n: K
  74. Stream size : 48.8 KiB (0%)' o8 p5 |: L6 _. w0 B; p' }5 E0 `- I
  75. Title : Japanese (SDH)
    ' ?; @! G7 k; {$ b* o" O
  76. Language : Japanese+ |* u* y6 r$ q: A7 r( s
  77. Default : No( o! _- x' c! p# \8 j- G. J2 R
  78. Forced : No
    9 o% A' t% \" E0 v" \

  79. # B. b' _8 A; y1 G6 ~& G: X
  80. Text #3
    & M0 w$ ]( x, b$ ]  q
  81. ID : 5
    4 I- \2 c9 J* ?7 s0 C
  82. Format : UTF-8
      W$ a4 g; R: u
  83. Codec ID : S_TEXT/UTF8
    4 Y5 [& z9 Z/ Y) |7 [$ D1 ~; K
  84. Codec ID/Info : UTF-8 Plain Text
    + ^7 a0 z. w' K, |
  85. Duration : 45 min 41 s
    , n/ a- o+ W- A% n
  86. Bit rate : 158 b/s
    ' ~% k, `! k2 f5 C2 r( a
  87. Count of elements : 8649 E. K) E/ L/ V4 F  j) ]* k" j
  88. Stream size : 52.9 KiB (0%)
    2 u. t& |: S( D  v+ J
  89. Title : Arabic
    ! ]% q+ k9 y: J5 o
  90. Language : Arabic
    ( y. ^, B9 h0 G
  91. Default : No  ^( R7 h9 `  y" l7 o3 ?; b) a0 T
  92. Forced : No# c  x' }/ y/ t- z) p

  93. 0 ^. ?; |: X- I2 f  o
  94. Text #4+ J) h. ]; C8 d4 Y/ K4 z$ D' Z
  95. ID : 61 g6 ?* _2 R5 [  R
  96. Format : UTF-8+ R: I- m) u+ C2 ^
  97. Codec ID : S_TEXT/UTF8
    ; E! a  W/ L& d6 m# s. v1 w7 Z  Y
  98. Codec ID/Info : UTF-8 Plain Text
    / z" |* v7 J: h5 z7 V( ]' E  c, {! X
  99. Duration : 45 min 41 s
    " w9 P3 m# e. y, c8 F; i9 |
  100. Bit rate : 107 b/s4 b) U9 ^7 H% z: T8 W" v& N
  101. Count of elements : 905. W1 |0 [- `. `5 V  g( w" A: l0 |
  102. Stream size : 35.9 KiB (0%)
    ' Z" ]3 y( {: e/ L7 ?2 E
  103. Title : Chinese (Simplified)
    0 {# }+ a" n6 |+ ^: E& e  _' {
  104. Language : Chinese
    * h, c9 C% C. R5 R4 o8 s) z
  105. Default : No( n) W6 E& V7 u% X( y9 j0 j/ u" [
  106. Forced : No0 P3 S3 J6 z& n2 D+ l+ k

  107. 8 P& [4 y/ s; Y: Y: @. c! H
  108. Text #5
    8 ~3 J4 z; {5 G
  109. ID : 74 n2 E& o/ G- E6 G6 x# S
  110. Format : UTF-8. s6 ]/ l8 S; I& C4 @- @
  111. Codec ID : S_TEXT/UTF8
    / H' V. m! l7 ^5 k* I' d+ ]
  112. Codec ID/Info : UTF-8 Plain Text
    : Q1 n7 Y7 L$ s3 x+ f+ E
  113. Duration : 45 min 41 s
    2 D$ |  [1 Q1 I
  114. Bit rate : 107 b/s
    0 }) Z, \6 \( s$ W! F' a! {0 G4 a9 i
  115. Count of elements : 902) p. N. Q& d$ P+ {- ^
  116. Stream size : 35.9 KiB (0%)
    , X4 |0 w0 J. r
  117. Title : Chinese (Traditional): q# H" {6 y8 c- M2 W% M
  118. Language : Chinese9 v0 u* u. C1 G7 s# _% ^' [3 e
  119. Default : No! {9 C+ c+ q9 \+ k4 o
  120. Forced : No3 ^. `7 f9 X$ K7 e

  121. " q) g% w6 M) S7 h" l( L
  122. Text #6$ e, u7 ^$ U% k7 X2 F7 S
  123. ID : 8
    . M# P* L* I( Z/ R% \1 i$ [7 f
  124. Format : UTF-8, Q3 M  B. d# R6 ]
  125. Codec ID : S_TEXT/UTF8
    9 s7 k8 O+ Q$ [7 x8 e" u
  126. Codec ID/Info : UTF-8 Plain Text
    / f  N8 h0 i9 m( c0 {, _/ G
  127. Duration : 45 min 41 s
    2 b% T- ~0 R4 E
  128. Bit rate : 98 b/s
    " F( p! U9 s, h, C5 U! f
  129. Count of elements : 863
    , ~0 [6 j( {, v: S6 o; O
  130. Stream size : 33.0 KiB (0%)
    - f5 L; [# }5 q# ]! ?0 n5 @
  131. Title : Czech6 H0 g- w! ~) F1 E& v/ E8 b
  132. Language : Czech: \- o, ]' _- r4 y, c
  133. Default : No: n7 j' {5 w" K8 W
  134. Forced : No
    , V- Y1 Q' }3 z2 o1 `' l
  135. ! s2 }: v- |$ S- l. d: s) ^
  136. Text #7
    ! d5 v/ a+ c% `% t3 ^( e
  137. ID : 9
    " w% i7 W6 Q# L8 d8 S3 ]5 M& V/ _
  138. Format : UTF-88 x6 a: [2 c# j
  139. Codec ID : S_TEXT/UTF8
    3 O- V* ~& F( q2 e8 l9 Y# k  c
  140. Codec ID/Info : UTF-8 Plain Text
    3 W$ {2 I' q, X( n
  141. Duration : 45 min 41 s$ m/ V3 `8 |# e/ x* M& C
  142. Bit rate : 92 b/s
    0 b8 v& |! ~" u/ E
  143. Count of elements : 8602 I7 [% o, z( z, f
  144. Stream size : 31.0 KiB (0%)
    9 E  ?; |+ g. r: K
  145. Title : Danish- l/ }4 @# g7 w9 h9 l3 B$ f$ T
  146. Language : Danish. w( n5 w- x" w; i/ \" r
  147. Default : No
    , b7 k3 b" b8 p3 Q
  148. Forced : No
    ( H3 Z: a$ p1 l4 [% I) ^

  149. & ]) m! ^6 f- H
  150. Text #8
    7 _, Z! T0 G9 c. g2 n3 \+ ~- u
  151. ID : 10" ^( i" c  {! G: @/ |* H# h
  152. Format : UTF-8
    - ]! G' N& n/ Z# G, g7 p
  153. Codec ID : S_TEXT/UTF8
    # {0 T" ^) r* b% y9 o
  154. Codec ID/Info : UTF-8 Plain Text
    0 K  t- k$ K# }4 |3 b
  155. Duration : 45 min 41 s
    9 Z8 M' _! M. W3 ^: x) m# G& h
  156. Bit rate : 88 b/s
    8 F1 ^, F  W, ~# f
  157. Count of elements : 857
    : y/ Y0 b4 D% S; y6 }8 e
  158. Stream size : 29.5 KiB (0%)
    % Y  @/ o5 K  v9 A, a
  159. Title : Dutch) s6 E6 E7 N0 f$ E. m5 [% p9 M
  160. Language : Dutch" Q3 {4 }5 m. J& \; C" j9 N
  161. Default : No$ I  F( P% o- r% j: o
  162. Forced : No1 c& [$ Y0 p# \/ S/ s* K

  163. . h: U  w+ Z# V: ]  c: H. }* ~% C
  164. Text #9! h7 d9 o" h. ^$ x2 b( @. a/ O
  165. ID : 11* Z: s! Z8 m, p3 V' u/ y  ^
  166. Format : UTF-8
    . z1 t3 k  A1 V/ U, D. [
  167. Codec ID : S_TEXT/UTF8
    . Y1 ]0 c  J4 J3 |0 b
  168. Codec ID/Info : UTF-8 Plain Text- m) ]5 V1 r5 }% }0 z: J4 }* k
  169. Duration : 45 min 41 s
    . @& x$ B$ f* V  K9 l
  170. Bit rate : 85 b/s5 g* w/ i+ \' G9 y
  171. Count of elements : 8618 m/ W8 Y; U% }1 C
  172. Stream size : 28.6 KiB (0%)
    ' E7 c$ \' r0 H8 j* R  z. M3 S
  173. Title : Finnish
    9 ?' q4 G6 ?8 D1 N6 z! _
  174. Language : Finnish
    $ ]1 r4 s) l) _
  175. Default : No
    6 \! h. K+ Q8 z% W5 [+ U0 b
  176. Forced : No# S2 Z7 U& i, V/ }9 L: E
  177. . Q3 n7 x; D0 D5 R1 u9 B2 J
  178. Text #10
    ) C; o$ a% W" W; o+ A+ o% j, {
  179. ID : 125 \% ^; z% d  i" V+ v- y# p
  180. Format : UTF-8
    1 b$ t2 g" ]6 p( ]
  181. Codec ID : S_TEXT/UTF8
    " ~1 k) z+ B' v  c  [) e% w1 h# l
  182. Codec ID/Info : UTF-8 Plain Text( q$ q: b% U& c: ?2 p
  183. Duration : 45 min 41 s" y7 Y3 e; o2 Y5 Y
  184. Bit rate : 90 b/s; g0 L, f3 h; ~0 A& i6 p
  185. Count of elements : 864$ K/ e0 e' z4 j# G6 x" k# {) _: M
  186. Stream size : 30.3 KiB (0%)7 P0 C( d5 q; }3 R( R- x( d* I2 |
  187. Title : French$ H2 `+ D3 @( P2 f& V( S
  188. Language : French
    ) |) Q- @% W$ e! {1 Z
  189. Default : No) f1 R3 C7 \8 X* ^' [
  190. Forced : No$ y0 ?: c8 p0 Z& P) E9 o+ c
  191. $ u$ ]/ u/ R. I
  192. Text #11
    4 E2 p/ `# a! t. t
  193. ID : 13
    3 h: V2 G. P& L: u5 a4 f4 B4 `
  194. Format : UTF-8
    : g+ Q) l5 v9 E: a, I- j6 U
  195. Codec ID : S_TEXT/UTF8( D, j0 A1 A9 j0 e& Z$ j9 `
  196. Codec ID/Info : UTF-8 Plain Text
    5 z, H! j& q% R6 [2 j/ j5 e$ Y8 g
  197. Duration : 45 min 41 s
    ! E' ~. U: x2 b9 k+ y. j) q5 E/ G
  198. Bit rate : 89 b/s
    ) F* X% _; z, Z. V- b
  199. Count of elements : 864
    ! O. n  |( V9 p* m& h
  200. Stream size : 29.9 KiB (0%)
    3 X6 s, c! `8 p. f% _* z5 ]
  201. Title : German
    : t# H) g: J9 T0 f6 Q7 x3 U7 Z
  202. Language : German
    ! k& M7 ?  Y1 b7 K: E. A
  203. Default : No
    / \: v( ^1 S# ?5 P7 z: a
  204. Forced : No
    / y; m  l- G' X
  205. 1 u8 Z' m0 A1 U( b
  206. Text #12
    5 |2 b- K$ ^  [
  207. ID : 14
    & H! ]' S4 \. M" Z
  208. Format : UTF-8
    1 K9 a3 L1 u, G! d% I6 [
  209. Codec ID : S_TEXT/UTF8
    4 f$ J; Q. X; S" _2 g* s
  210. Codec ID/Info : UTF-8 Plain Text
    % h- ?. W# T! e( g2 c9 p" I
  211. Duration : 45 min 41 s
    + A. h! d/ P' ]" s, E" m- D6 u
  212. Bit rate : 156 b/s
    . m/ N  X- x6 I
  213. Count of elements : 873
    1 a* r1 m  H, E8 Z
  214. Stream size : 52.4 KiB (0%)7 V4 _$ Q  P5 B5 ^
  215. Title : Greek
    5 g* ?/ P+ b- K1 i# N+ ^
  216. Language : Greek, @1 O/ h& ]; y# o- k( @
  217. Default : No
    0 x" q! N4 T. K5 ^* s( j" R
  218. Forced : No
    8 i% q5 z; r! Y0 I. p6 y& K
  219. 0 K; a9 Y: r: A- X" u$ @  H
  220. Text #135 Z; P% Q; q; D6 A5 y# w8 k
  221. ID : 15
    ) V2 k9 S6 r) K' t
  222. Format : UTF-8% W5 C7 U4 D( N  {! Z8 O
  223. Codec ID : S_TEXT/UTF8
    # R% i4 w1 O7 i( I2 b+ G4 U8 ?% t$ |/ E
  224. Codec ID/Info : UTF-8 Plain Text( e4 E: g; X3 Z. `/ f
  225. Duration : 45 min 41 s# @+ n" {6 ]" c4 |
  226. Bit rate : 148 b/s
    5 \2 X3 g$ A! V8 e: r
  227. Count of elements : 866
    . ~4 j! K( ]7 f) i1 F; Z  |2 N
  228. Stream size : 49.8 KiB (0%)
    9 _0 E% b2 j! l3 r& v
  229. Title : Hebrew
    , \3 Z, c. i( E+ B: f! \+ J& m
  230. Language : Hebrew
    / C' R- A4 U+ ]# }
  231. Default : No5 H1 @6 R! ~+ n7 b8 X+ z1 K( P0 r
  232. Forced : No. b2 p3 L8 c/ J$ [4 U8 R( u! x

  233. - k: d( u  f/ q, a+ ^
  234. Text #14
    8 g) [8 d8 b0 q, N/ F
  235. ID : 163 l( i9 U# X/ G0 P9 [
  236. Format : UTF-8
    + M" J: S) w, X/ m5 t+ V
  237. Codec ID : S_TEXT/UTF8! ^  n1 M+ z4 r5 s/ t! G% Y2 m+ O
  238. Codec ID/Info : UTF-8 Plain Text: ~6 q. [: N; U/ d1 c" d8 Z. h
  239. Duration : 45 min 41 s
    % ^4 O; ]" z, P$ n3 K
  240. Bit rate : 96 b/s$ G$ a) R8 D* u- A9 t
  241. Count of elements : 864. ]3 h- b$ A1 f0 g- `6 y6 n/ U! S' H
  242. Stream size : 32.4 KiB (0%)+ A4 H$ j+ W* m8 i6 J
  243. Title : Hungarian
    # a) {* u9 ~2 Z, @# s$ _
  244. Language : Hungarian
    5 i# Q0 n- c0 i( ]9 n
  245. Default : No# d9 h. |/ E- m' e; h3 O
  246. Forced : No
    ) m3 A7 G1 r1 W. Q

  247. 5 V$ M+ i# @$ ~
  248. Text #15
    2 B0 L8 e) D+ v; S& A' R
  249. ID : 17
    * ^  c- r- l' b1 D, h7 s) ]
  250. Format : UTF-8! M' J) @0 g& {! e9 N
  251. Codec ID : S_TEXT/UTF8
    4 h5 U3 O5 r4 k- b0 r
  252. Codec ID/Info : UTF-8 Plain Text
    6 |4 m* s7 U/ F$ s( B7 R
  253. Duration : 45 min 41 s* f; o3 i- I: T3 m
  254. Bit rate : 95 b/s& G9 n9 J, P5 {7 l
  255. Count of elements : 870
    9 d3 u: a) b) F$ W  O! W
  256. Stream size : 31.9 KiB (0%)
    ' a: G1 v% J7 K  h; [6 \2 S+ {
  257. Title : Indonesian, U- h! Z  T% a
  258. Language : Indonesian3 U9 a7 l1 e6 y2 j1 V0 c9 M4 |
  259. Default : No" G$ E- N; ^3 Z
  260. Forced : No
    ) [  M; y: O3 w

  261. : U- u  P. M3 {' r( N, S$ x- |7 `
  262. Text #16
    & K: ^, d  E. i5 V& Q
  263. ID : 183 K5 i$ A# B; B3 p" z
  264. Format : UTF-88 o+ N0 c/ H1 b! m3 k8 I
  265. Codec ID : S_TEXT/UTF8
    ) Z6 o* ~! W2 v
  266. Codec ID/Info : UTF-8 Plain Text
      L. A' K. S1 S3 G
  267. Duration : 45 min 41 s* H8 n( o6 E! z; ^1 a# ^
  268. Bit rate : 93 b/s8 j& U3 N/ x. B% q
  269. Count of elements : 863% K# ^1 F% u2 k# W, Q7 h
  270. Stream size : 31.4 KiB (0%)
    8 y: S  K6 j% n  Q, s
  271. Title : Italian2 c, T" a9 U% S
  272. Language : Italian
    ) M2 m2 M, k, f. I$ u  h4 Z: u. E
  273. Default : No
      _2 O, c( O# _, C) z# s, A+ g
  274. Forced : No
      X( D- ?' u. x8 p5 V) ~
  275. $ b9 X% j( M4 m, H. [( ]# k
  276. Text #17! V, m* t+ v" t( B( h1 T  a
  277. ID : 19
    : p3 t: M! ]  Q6 q" b1 `
  278. Format : UTF-8
    5 W6 H4 J, E! g" _' m8 @
  279. Codec ID : S_TEXT/UTF8- [% r7 z1 o2 b
  280. Codec ID/Info : UTF-8 Plain Text  F4 D1 b: C) U2 b& d/ [4 }2 C; r
  281. Duration : 45 min 41 s
    0 [, ]' m- g( T9 m4 m1 N
  282. Bit rate : 116 b/s
    , E; r8 y& K1 m
  283. Count of elements : 912" n0 g( h0 s/ L' C2 G' \* X7 |' y% K
  284. Stream size : 39.1 KiB (0%)
    : @2 d/ N% B6 b
  285. Title : Korean
    3 @- {- S0 J- D1 M8 ~, ~" F
  286. Language : Korean
    8 T- W% e" u* G. `) m6 G' r
  287. Default : No$ x7 j7 }% b9 p8 W2 @2 o
  288. Forced : No7 H8 B, Q6 O* B6 Y2 G# N

  289. # {) t0 f: [+ F) p
  290. Text #18
    1 ]) M  K- O5 u6 J
  291. ID : 20
      s" X( Y" l( Y' \  r0 n% x
  292. Format : UTF-89 q- F5 r9 C7 [) o; u# |
  293. Codec ID : S_TEXT/UTF8
    " B* z8 J$ o+ v! u* [% _  d$ B2 H, S
  294. Codec ID/Info : UTF-8 Plain Text: C- |) Y% Y( U+ H2 q
  295. Duration : 45 min 41 s! K& W# D" p) ~* v
  296. Bit rate : 88 b/s
    8 d$ E" J# C5 |" q) q' D
  297. Count of elements : 8644 y% t% K( k* E1 N5 Z% S8 `. N/ l4 A
  298. Stream size : 29.6 KiB (0%)# e3 x; a9 A1 H) ]$ _' H8 R2 s
  299. Title : Norwegian (Bokmal)
    $ P- t, w- |* Q3 R( I/ E7 f5 @
  300. Language : Norwegian Bokmal% E) v$ p% X+ u4 g; v! Y5 E4 I
  301. Default : No; i: C+ u+ A, t8 Z. M% b
  302. Forced : No8 o/ m8 T/ p# u2 K+ [# o; i
  303. 6 ~- h( }: K1 X
  304. Text #19$ t0 g5 ?% X4 u/ m6 R
  305. ID : 21
    . m' P6 D* C% [
  306. Format : UTF-8
    # a2 F- I# u! N0 B+ C4 f
  307. Codec ID : S_TEXT/UTF8
    ( z/ m9 {( L4 d( o/ q9 {- ]7 M
  308. Codec ID/Info : UTF-8 Plain Text
    " V7 r" V0 D8 r' [! h
  309. Duration : 45 min 41 s
    + ~' f6 X5 A: A  \/ h8 t
  310. Bit rate : 82 b/s
    , P+ t% O$ s8 Q. W" [! q
  311. Count of elements : 869
    + A7 G+ r, b$ U$ Z
  312. Stream size : 27.7 KiB (0%)0 |# z+ R( Q8 z/ \4 y: g
  313. Title : Polish
    ; U' C1 r( W0 I
  314. Language : Polish
    8 t% }% T0 _. Q0 D9 k, h. B
  315. Default : No- S! B& k4 e* _2 j- k! ?# M/ F
  316. Forced : No# ?% M3 d) d$ ~) y

  317. 7 D. l& @5 y. ?! `
  318. Text #20
    0 b. p' n/ c0 n" g
  319. ID : 22
    ' W# W! h; p# R7 ^) `7 }. _! }  i8 }
  320. Format : UTF-8
    6 I- w6 E! y6 R1 N5 v
  321. Codec ID : S_TEXT/UTF8
    9 Y2 M* d0 T7 I
  322. Codec ID/Info : UTF-8 Plain Text
    & I9 r* X& f+ C6 c
  323. Duration : 45 min 41 s
    ) Y* [4 M9 }# S, S5 C
  324. Bit rate : 93 b/s
    - c) s7 D4 N, m" _
  325. Count of elements : 862* _, M+ f# i/ v; ^  @; ]
  326. Stream size : 31.4 KiB (0%)' F8 L& Q" N8 @  z8 ~3 O
  327. Title : Portuguese9 H. P& d# L9 a# c
  328. Language : Portuguese8 f( a7 y( T4 d9 N9 s- i5 Q
  329. Default : No
    * J5 E0 c& R  X) T% F# x! `0 S
  330. Forced : No
    ( P, ~* ?; G+ {6 {
  331. 5 u$ t% ~% O- r% ?  S
  332. Text #21
    3 [6 H- O  J, I7 s" L8 U
  333. ID : 237 q: s2 X& b& {: ?5 u9 m
  334. Format : UTF-8
    ) U0 x+ w5 o6 j  C9 i
  335. Codec ID : S_TEXT/UTF8" @/ q0 n/ V' U$ l/ ^* C
  336. Codec ID/Info : UTF-8 Plain Text
    ( Q8 u+ ^! E1 n9 s* d- [/ {
  337. Duration : 45 min 41 s
    % X' {: L( j6 k' e
  338. Bit rate : 93 b/s
    " z9 z7 [. N% P1 A% d! M0 r' c) j
  339. Count of elements : 863  T& ]# u$ X$ [/ M! S
  340. Stream size : 31.2 KiB (0%)
    ( P( D8 H3 o7 p& @; ^. J
  341. Title : Portuguese (Brazilian): l, o( P( s2 R
  342. Language : Portuguese
    * c1 n+ l$ h8 H7 b  N' [
  343. Default : No; i9 I3 i2 Q: t
  344. Forced : No
    ; N! M0 u7 s7 ^; c
  345. 4 I/ P3 i$ t5 O* R* V9 L
  346. Text #22  M! t  R8 O: z; N8 `$ l) H
  347. ID : 243 a3 w! G, @+ ?! r
  348. Format : UTF-8! z! v$ N6 e; p# z* z2 @! g+ Q
  349. Codec ID : S_TEXT/UTF8
    $ m% S) w3 S- y0 B. M
  350. Codec ID/Info : UTF-8 Plain Text* h  y" R: q  D+ B# A  L
  351. Duration : 45 min 41 s: G% o  \9 d) _! |
  352. Bit rate : 100 b/s, A" P7 _) i  q+ {4 M& T; N
  353. Count of elements : 863! k/ v: ?7 g4 a) Y
  354. Stream size : 33.6 KiB (0%)
    $ ~: u) c& |' t; z0 J0 k
  355. Title : Romanian
    - a- p; ]9 g& S3 _6 y
  356. Language : Romanian& B' c! r: f9 S0 [) ^" f
  357. Default : No
    0 ^4 h- P9 I1 ?8 S
  358. Forced : No
    : P1 v) C: x- ?* R% Y/ A2 W1 L2 C8 B
  359. $ U& i! j, `! {/ m. v/ x, D
  360. Text #23$ w& H3 C! t4 X( W2 O: _) g
  361. ID : 25
    5 j* h# A) r) ^4 l3 H
  362. Format : UTF-81 L7 e+ ]3 h  [  z0 b. W% Z
  363. Codec ID : S_TEXT/UTF82 Z, u) X. Q9 k. v' Y
  364. Codec ID/Info : UTF-8 Plain Text  P3 F0 r' V$ {: F; W
  365. Duration : 45 min 41 s& ?2 T, j# Y$ G
  366. Bit rate : 157 b/s
    6 T, s/ O" _. }
  367. Count of elements : 873+ \9 H5 _' o9 P" o& u" w  M
  368. Stream size : 52.7 KiB (0%)
    # L# u- @; U% a
  369. Title : Russian* ]! Q+ P, y' S
  370. Language : Russian5 F5 B1 _) ^1 w4 i  |3 t/ m$ J1 E
  371. Default : No( _7 r. o6 L0 U- B8 [
  372. Forced : No; G9 F7 x; l- K4 g

  373. * A" ]! J1 h, C8 U# W# q. v6 ?
  374. Text #24
    $ R" u- I( R3 |$ ?+ B5 ~
  375. ID : 26
    % e. `+ g1 N$ s# X; f6 W& K
  376. Format : UTF-80 H0 {' b( W2 c! Q6 H( Y  V
  377. Codec ID : S_TEXT/UTF8
    ; n/ i7 W( L. X3 k# H
  378. Codec ID/Info : UTF-8 Plain Text$ J! t" _' H- T% e8 Z
  379. Duration : 45 min 41 s
    9 i7 t% a' X: w: q7 T+ b! l5 l
  380. Bit rate : 94 b/s, H7 F5 }5 S7 D2 j% T' s
  381. Count of elements : 863
    " o7 m# e4 ?0 `# O, b6 f2 C# Q) r
  382. Stream size : 31.7 KiB (0%)
    & J' ~# d: P$ h
  383. Title : Spanish; {1 Q& H$ j9 T4 H
  384. Language : Spanish4 n, ^' }0 j  G+ H1 x
  385. Default : No5 N6 e& h! Q4 r  g
  386. Forced : No
    ' f+ B0 i" o  [2 Q, O1 `
  387. ( e2 ?. G0 j" t" h' [1 J
  388. Text #25
    9 n3 u9 ?: p2 _/ k) |- \
  389. ID : 27
    4 R5 J3 ?! u# l
  390. Format : UTF-82 C* l* X8 J" X
  391. Codec ID : S_TEXT/UTF88 b# X& h* V* T$ \9 V
  392. Codec ID/Info : UTF-8 Plain Text
      Y; s7 S4 j- k% `
  393. Duration : 45 min 41 s( d! T! m; K  `
  394. Bit rate : 90 b/s
    % w/ t' t0 V( g3 D# g
  395. Count of elements : 863
    - M; e& K% e, {  [& P
  396. Stream size : 30.2 KiB (0%)
    / l' @+ q$ P: R: O9 i# Y
  397. Title : Spanish (European)7 M* B2 r; L4 l) `& e7 O
  398. Language : Spanish
    ( }2 m' m- w. R/ [) n0 ]
  399. Default : No0 [, r$ f# A7 \% T5 B# h! O
  400. Forced : No- O5 k0 G! g$ m

  401. ' {* }! U2 h1 x
  402. Text #26
    7 a0 k4 Y0 D9 b/ O6 D
  403. ID : 28
      K) |4 ~! A9 b( J7 O+ V' w
  404. Format : UTF-8
    " U' t* |& [4 P3 [
  405. Codec ID : S_TEXT/UTF8
    6 R' O( I  k% D; L
  406. Codec ID/Info : UTF-8 Plain Text
    - l+ H* i7 g8 K6 k8 w& P
  407. Duration : 45 min 41 s
    6 y7 I. ?% I  r( U
  408. Bit rate : 95 b/s
    1 s& c/ K) G, B+ I
  409. Count of elements : 862
    # g- H1 e- E1 R2 X9 k
  410. Stream size : 31.8 KiB (0%)
    ) R8 x# `0 z. Y/ y6 n5 Z
  411. Title : Swedish0 i+ ~5 v; c; J3 K, d; n0 f
  412. Language : Swedish5 A, U1 n3 a: A7 D4 S
  413. Default : No
    . ~- u# G; T/ n# c* I2 R
  414. Forced : No
    - v( s& b9 R2 [# D) j, a
  415. 3 c2 f3 J7 E$ y' e. j0 v. {5 V
  416. Text #27
    ; k9 f: [& P& u! A6 M- P1 _
  417. ID : 29
    ; h5 a4 b8 E" n
  418. Format : UTF-8; ^# c% L( m7 D2 {) l& q
  419. Codec ID : S_TEXT/UTF8
    " R6 L+ j+ k" N
  420. Codec ID/Info : UTF-8 Plain Text" q4 i& b. t2 G
  421. Duration : 45 min 41 s, n6 O+ E7 z0 t# X7 Q# O1 a
  422. Bit rate : 259 b/s* _; o0 D  Y5 L* U% U
  423. Count of elements : 880
    8 M3 e- P4 M! |; w# [9 [, j
  424. Stream size : 87.0 KiB (0%)
    ' f3 D- M5 d3 J9 J
  425. Title : Thai
    5 h0 |% m: ^3 m& r. r; ]
  426. Language : Thai8 e! }3 V/ a* a8 i
  427. Default : No, C+ E, a( k5 z& g, E( k: t
  428. Forced : No
    6 [% I2 b& A. x+ G9 i

  429. 1 K; S. t$ u0 x9 Q
  430. Text #288 s2 e1 n( F2 j5 S1 L/ E! ^2 ~# K
  431. ID : 30
    7 ?5 e' S. k; @! `( O
  432. Format : UTF-8* P- M' X% v2 \
  433. Codec ID : S_TEXT/UTF8  J% Y4 C. |/ _; d
  434. Codec ID/Info : UTF-8 Plain Text: r& M! \1 [7 V
  435. Duration : 45 min 41 s2 j# f, Z  f0 H/ J% l% G" b
  436. Bit rate : 105 b/s* Z5 B( W  @2 ^- C4 N- P+ B! _3 R0 ]
  437. Count of elements : 868' g: ?9 m6 C0 z- ^
  438. Stream size : 35.1 KiB (0%); M; L7 o) Z/ F$ b  f7 h
  439. Title : Turkish
    ; `, S! x0 C# q. Z3 k
  440. Language : Turkish6 b* Q$ o; Z/ ^4 y  R' [
  441. Default : No0 w- e( n9 G2 T( {( b9 \1 U0 T
  442. Forced : No
      W' c1 d, E) X$ B2 o2 M2 f
  443. ( F) ?4 v- }0 d1 F% x
  444. Text #29
    % y, i6 W/ h, B6 Q1 D) q* X' H
  445. ID : 31- N/ E4 P8 }9 S. r, j  s4 f
  446. Format : UTF-8
    / V2 w4 V6 d, J" [2 }5 l
  447. Codec ID : S_TEXT/UTF8
    , G4 S8 L& _& Y8 t# K4 t( L: |) X6 ^
  448. Codec ID/Info : UTF-8 Plain Text# z3 X0 \8 W/ A+ x
  449. Duration : 45 min 41 s: M& Y5 d3 U! u1 C
  450. Bit rate : 140 b/s
    7 o* k) m! b; I" r- S* q  g
  451. Count of elements : 870
    ! \( J. ?# ?: X; D5 R4 I
  452. Stream size : 46.9 KiB (0%)
    3 S# Y) B8 y( q
  453. Title : Vietnamese% i& r. ~# E& F  ]2 @$ D
  454. Language : Vietnamese
    $ w8 f; W# [$ x% n
  455. Default : No
    9 o) j  h. B$ h2 @9 H& a
  456. Forced : No
复制代码

; {" j+ E" u; r  T" D2 Y% x5 z; s2 U* \2 _, T. K
% ?4 E0 c8 c4 f9 ^% U) F/ T
0 U1 ?& r% C9 a+ D. m' N# C

# N3 P3 M; R) v5 c( D( G3 s% `7 g9 f1 W3 M

  C; }1 ?5 O9 t0 b9 _# Q3 m+ m1 G
游客,如果您要查看本帖隐藏内容请回复  VIP可免回复查看隐藏内容 详情请点击
发表于 2019-12-24 00:04:53 | 显示全部楼层
谢谢楼主分享资源。
发表于 2020-2-12 12:45:47 | 显示全部楼层
非常感谢楼主的分享
您需要登录后才可以回帖 登录 | 立即注册

本版积分规则

QQ|封号公示|手机版|有问题发邮件到admin#(换成@)hd1tj.org|微博|免责申明|HD一条街

GMT+8, 2020-7-12 17:57

快速回复 返回顶部 返回列表