HD一条街

 找回密码
 立即注册
搜索
查看: 89|回复: 18

[1080p] 金玉满堂[粤语 英文字幕]The.Chinese.Feast.1995.CHINESE.1080p.BluRay.x264.DTS-CHD 8.6G

[复制链接]
发表于 2019-12-18 16:12:20 | 显示全部楼层 |阅读模式

马上注册,结交更多好友,享用更多功能,让你轻松玩转社区。

您需要 登录 才可以下载或查看,没有帐号?立即注册

x
- `* H5 `, M% n, }- S; P( i
                               
登录/注册后可看大图
2 H0 X* b, q" A
* ~- t1 X& A5 H- H' c& Q" w
◎译  名 金玉满堂/满汉全席/The Chinese Feast0 K+ X7 g* r1 J8 Y
◎片  名 金玉滿堂
2 \7 X& i/ `* ]◎年  代 1995! o2 O/ k7 J- p3 }* _
◎产  地 中国香港
( v$ s% G* F5 A% n( o, N◎类  别 喜剧/爱情; O% C7 ?: j# F% ]9 j5 J
◎语  言 粤语
4 f  }! Q( K. ~! e+ j$ G◎上映日期 1995-01-28(中国香港)
- M: y& M9 Y8 ?3 I9 Y◎IMDb链接  https://www.imdb.com/title/tt0113475/
5 P" [% k1 a: `( L' Q◎豆瓣评分 8.0/10 from 61039 users7 z: Z8 s# U: M- P  P3 n
◎豆瓣链接 https://douban.com/subject/1295374/
* ]8 u; e& C% Z/ D; M◎片  长 106分钟8 y) ^5 _' e/ s
◎导  演 徐克 Hark Tsui
/ l% G. ~) F! _◎编  剧 吴文辉 Man Fai Ng / 郑忠泰 Philip Cheng / 徐克 Hark Tsui / 阮继志 Kai-Chi Yun
* W2 A# z) T& _$ t2 G# l7 J) m◎主  演 张国荣 Leslie Cheung
9 G. {% Q' ~# ]4 i/ E3 K& j       袁咏仪 Anita Yuen
# M; |( X; C( s- X5 x       钟镇涛 Kenny Bee* ]2 B4 H% E& h( T3 G  p
       赵文卓 Man Cheuk Chiu  w) w  ~- @( ]. G9 M+ l
       罗家英 Kar-Ying Law: z7 O8 k* i: ~0 c
       熊欣欣 Xinxin Xiong
, q! b5 S& P1 W3 w; i5 u       樊亦敏 Yik-Man Fan; a- M' h) Y  v% V! n$ \
       倪淑君 Suk Kwan Ni
' X! p/ L9 n3 \7 w% v% e; Y       黄百鸣 Raymond Wong+ ^+ |/ `' r- t
       谢君豪 Kwan-Ho Tse
- C8 v# ~+ g+ V; L       卢雄 Paul Lo
% w5 J& F8 ?$ }! A& D1 o5 v       唐佳 Chia Tang" O4 f, b+ |1 V* k; {( K0 h
       司徒慧焯 Roy Szeto3 X, H8 E% a$ L6 ?3 o
       李道谕 Do-Yu Lee; S- f  b4 G$ }3 _, m& ^* y
       何家驹 Ka-Kui Ho
. v9 {6 H& y/ |8 T: [       鲍德熹 Peter Pau/ G% t( z4 R& B) j/ a
       黄一飞 Yut Fei Wong6 x& O5 y) B" }% s3 W, |6 M
       黎彼得 Peter Lai
; {+ v( C; V* d" a       邵传勇 Timothy Zao8 V5 P1 `( \& ?; A$ D' X) T0 y
       刘洵 Shun Lau6 a* M3 K7 r* ~+ h
       张同祖 Tung Cho Cheung/ W3 D- T9 L1 x8 z. s1 j  o
       黄金棠 Kam-Tong Wong3 k% L1 h+ [2 e

. a( f1 a% p& c* y8 v: Y* ^◎标  签 香港 | 喜剧 | 徐克 | 美食 | 1995 | 搞笑 | 经典 | 爱情7 T* C9 r8 g, L! I' [
2 _- |# N3 o% {! i' }8 v+ l
◎简  介
# ]0 E' [# C8 b( L! v4 Z
. A4 i6 X; f6 m& s! Y  w% Y1 X  ( }4 t7 T3 ~& ]3 E% N, _4 j9 t; V; H' X
  赵港生(张国荣饰)因厌烦黑社会生活,欲金盆洗手后去加拿大追寻偶像山口百惠,而他选择的移民途径竟是——参加加拿大酒店的厨师考试,丝毫不懂厨艺的他最终因作弊暴露而惨败。5 z3 l* x2 k% w8 ^
  1 ^. F. d% o' m. D/ c  b( A
  某日,赵港生在酒楼遇见了厨艺大师龙昆宝(赵文卓饰),龙昆宝指点他去找自己的旧识满汉楼的欧老板(罗家英饰)学习,不想欧老板竟对他百般刁难,最终将其扫地出门。其间,港生和欧老板的女儿嘉惠(袁咏仪饰)倒是在不经意间擦出了花火。! g, A: t& `; I: U3 ^0 c9 t
  . j( o  b/ e% o4 d+ Z
  欧老板师承中国著名大宴满汉全席之赵派,某日,牛派的继承人黄荣找上门来挑战,后来又使诡计挖走了他手下的所有师傅。这时,唯有港生挺身而出,和嘉惠一起寻找会做满汉全席的高人,那就是五年前莫名隐退厨艺界的廖杰(钟镇涛饰)。2 x- `1 A% X2 q$ l3 I
  1. Video% W5 e( M$ d3 i' G
  2. ID : 19 x1 ?, l" I4 g5 R' [8 [
  3. Format : AVC# Z/ g5 N& v+ {/ `4 I3 U
  4. Format/Info : Advanced Video Codec
    ' V& T& t5 B, e" g! ?( W8 }; G
  5. Format profile : [email protected]
    . ~: r1 B" \8 f
  6. Format settings : CABAC / 4 Ref Frames' f9 l+ X( f1 {% u5 _
  7. Format settings, CABAC : Yes
    % v7 Z( f, t2 ]
  8. Format settings, Reference frames : 4 frames- E+ Y, g" `+ ]- k- g
  9. Codec ID : V_MPEG4/ISO/AVC
    ) H7 K# Y$ L$ y8 Z) c) l
  10. Duration : 1 h 46 min: }3 B4 R" Y7 y2 @) e$ ]
  11. Bit rate : 10.1 Mb/s1 C( B* @) b$ X% p
  12. Width : 1 920 pixels$ B" v7 Q3 o+ X
  13. Height : 804 pixels* _& |4 x( S* ~4 U
  14. Display aspect ratio : 2.40:1# ?5 n/ h2 k7 u* _& E
  15. Frame rate mode : Constant  d9 g- Z0 A) v9 a$ P% y
  16. Frame rate : 24.000 FPS' u0 K4 T6 K8 {+ w! \0 L; x$ M# c) t
  17. Color space : YUV7 A7 X  s6 j/ Z, s
  18. Chroma subsampling : 4:2:06 n+ t( Z& y, h' D
  19. Bit depth : 8 bits
    " g( ]* `/ u4 n  M4 S! g
  20. Scan type : Progressive- F: G. |8 m* u3 w3 E
  21. Bits/(Pixel*Frame) : 0.272
    4 q( c- l, ], [2 N/ T8 ~0 [& r! E* t
  22. Stream size : 7.50 GiB (87%)
    - ?. b! B" g: N5 [/ d8 E
  23. Writing library : x264 core 157 r2867+150 7e91e0e t_mod_Custom_2 [[email protected] X86_64]$ G/ r3 L, K! `5 L. Q% L. W
  24. Encoding settings : cabac=1 / ref=4 / deblock=1:-3:-3 / analyse=0x3:0x133 / me=umh / subme=11 / psy=1 / fade_compensate=0.00 / psy_rd=0.90:0.10 / mixed_ref=1 / me_range=64 / chroma_me=1 / trellis=2 / 8x8dct=1 / cqm=0 / deadzone=21,11 / fast_pskip=0 / chroma_qp_offset=-4 / threads=25 / lookahead_threads=4 / sliced_threads=0 / nr=0 / decimate=1 / interlaced=0 / bluray_compat=0 / constrained_intra=0 / fgo=0 / bframes=8 / b_pyramid=2 / b_adapt=2 / b_bias=0 / direct=3 / weightb=1 / open_gop=0 / weightp=2 / keyint=250 / keyint_min=24 / scenecut=40 / intra_refresh=0 / rc_lookahead=60 / rc=crf / mbtree=0 / crf=18.0000 / qcomp=0.70 / qpmin=0:0:0 / qpmax=69:69:69 / qpstep=4 / vbv_maxrate=35000 / vbv_bufsize=35000 / crf_max=0.0 / nal_hrd=none / filler=0 / ip_ratio=1.40 / pb_ratio=1.30 / aq=3:1.00 / aq-sensitivity=10.00 / aq-factor=1.00:1.00:1.00 / aq2=0 / aq3=0
    + p2 c8 D, f% ]. ]- z
  25. Language : Chinese
    3 b5 v% f. p$ w
  26. Default : Yes7 V  V. @* T8 y& r. `2 P
  27. Forced : No
    8 }% n  ]0 z1 W* t5 P! j
  28. , l% x1 Z( q; d1 ?' c
  29. Audio
    ; G4 l9 c* f' K4 W, D
  30. ID : 2
    + G% K/ P. [' i5 E, |0 `/ n$ R
  31. Format : DTS
    $ J7 T- }0 _; p
  32. Format/Info : Digital Theater Systems
    ) m/ `1 x  Q2 J! E* O5 v: v
  33. Codec ID : A_DTS
    6 ^, ^$ b+ ~: n. x
  34. Duration : 1 h 46 min8 j+ w+ e0 }/ N" X
  35. Bit rate mode : Constant
    , f. k, C; I4 c1 _7 g: M9 v1 T
  36. Bit rate : 1 509 kb/s! }5 g+ h2 r. `
  37. Channel(s) : 6 channels
    6 I: F/ a, l4 D0 W. @; @
  38. Channel layout : C L R Ls Rs LFE
    " ?- @( K, O* [  b" w; c: v$ h4 C
  39. Sampling rate : 48.0 kHz4 O3 [+ n7 _8 B7 o4 Q* ~4 a0 {
  40. Frame rate : 93.750 FPS (512 SPF)
    6 S9 ^; B7 t( U  [; r' j! C! C# o
  41. Bit depth : 16 bits
    % M& l8 ^% R, \$ T6 X
  42. Compression mode : Lossy
    % `3 ?" ?2 Q0 C
  43. Stream size : 1.12 GiB (13%)
    ( q/ }+ E3 e7 R% i: S( [5 k+ k
  44. Language : Chinese' q! m% g: v0 c$ J- r$ N3 U
  45. Default : Yes& W$ P. ~9 d* e0 ~. {
  46. Forced : No3 Q/ q1 u/ p3 o+ @
  47. % C5 ~0 l3 d( i
  48. Text
    0 }  A3 \6 d* n: z
  49. ID : 3
    , I! Q0 H" |/ E/ o) m6 e' B
  50. Format : UTF-8! |* t' E; {# N$ n) A9 E
  51. Codec ID : S_TEXT/UTF8; ~5 b! P0 g+ W* u% U
  52. Codec ID/Info : UTF-8 Plain Text9 C* O4 v8 K  c
  53. Duration : 1 h 14 min
    7 p: d, N& G) f
  54. Bit rate : 57 b/s
    * W" o) `; o+ E# v: p- _9 A
  55. Count of elements : 1191  x: ~9 c2 c1 v8 k9 S$ Y1 n
  56. Stream size : 31.1 KiB (0%)6 {7 q' l) O' w
  57. Language : English
    ! d8 A, C4 ^3 V* ^. m  j
  58. Default : Yes
    0 O( ^; z2 D' g
  59. Forced : No0 K+ m' l7 S/ `

  60. 7 t. V8 A* o2 W5 ]4 P
  61. Menu- m  z) C9 a1 k( L8 h
  62. 00:00:00.000 : en:绗?01 绔?
    6 k! a: l# z( m4 u
  63. 00:08:07.333 : en:绗?02 绔?' c/ P, n. ]' o- q3 U8 n
  64. 00:19:23.208 : en:绗?03 绔?  T1 z7 R% n$ W  Z
  65. 00:27:26.583 : en:绗?04 绔?
    2 }$ z2 W5 C, `! d2 M
  66. 00:36:44.250 : en:绗?05 绔?: S4 ~& Q2 O0 b7 K# U9 B! n  T
  67. 00:47:37.000 : en:绗?06 绔?- f$ n+ A- A# s: A
  68. 00:54:17.000 : en:绗?07 绔?5 l2 c/ J8 S* X: I: \3 |- O
  69. 01:03:17.750 : en:绗?08 绔?- h( D' _% F& @' W
  70. 01:12:47.875 : en:绗?09 绔?
    + [) I9 x" W" e" f
  71. 01:19:42.000 : en:绗?10 绔?
    9 p/ i- L$ g0 r2 I
  72. 01:29:40.125 : en:绗?11 绔?
    4 T# O6 w# X5 z/ K6 k3 f
  73. 01:41:28.792 : en:绗?12 绔?
复制代码

# b9 |9 g9 S# V6 P4 o# V4 D
5 S% d4 z" F. D4 ]6 _7 @3 p6 I7 ^4 P

; E, _5 T% K) `6 U5 o6 ~# H) ~. V: q5 {

* t/ g" _9 w9 w9 m% l
游客,如果您要查看本帖隐藏内容请回复  VIP可免回复查看隐藏内容 详情请点击
发表于 2019-12-18 16:58:21 | 显示全部楼层
张国荣的经典电影,下載来收藏!
发表于 2019-12-18 17:36:18 | 显示全部楼层
终于有高清版本了,谢谢分享
发表于 2019-12-18 18:24:49 | 显示全部楼层
哥哥 好久不见
发表于 2019-12-18 19:06:44 | 显示全部楼层
感谢楼主分享。
发表于 2019-12-18 19:30:45 | 显示全部楼层
这片子不是叫满汉全席么?
发表于 2019-12-18 21:15:38 | 显示全部楼层
thank you very much
发表于 2019-12-18 21:19:47 | 显示全部楼层
这电影现在看来比较经典~
发表于 2019-12-19 00:05:33 | 显示全部楼层
那个年代的片,作为学生还真没机会看过几部,好在现在有补了
发表于 2019-12-19 01:05:44 | 显示全部楼层
谢谢楼主分享
您需要登录后才可以回帖 登录 | 立即注册

本版积分规则

QQ|封号公示|手机版|有问题发邮件到admin#(换成@)hd1tj.org|微博|免责申明|HD一条街

GMT+8, 2020-1-21 11:07

快速回复 返回顶部 返回列表