HD一条街

 找回密码
 立即注册
搜索
查看: 822|回复: 23

[1080p] 金玉满堂[粤语 英文字幕]The.Chinese.Feast.1995.CHINESE.1080p.BluRay.x264.DTS-CHD 8.6G

[复制链接]
发表于 2019-12-18 16:12:20 | 显示全部楼层 |阅读模式

马上注册,结交更多好友,享用更多功能,让你轻松玩转社区。

您需要 登录 才可以下载或查看,没有帐号?立即注册

x
1 T; I) _/ ]8 r3 B
                               
登录/注册后可看大图
8 g: G- v5 E: d6 a+ {

5 T2 b2 y8 \) t◎译  名 金玉满堂/满汉全席/The Chinese Feast7 D' V7 s# ~  K7 t
◎片  名 金玉滿堂
: n# t$ F2 p9 y  u4 N; I◎年  代 1995( ~# K6 J5 E" U% |5 G9 V) ]9 I
◎产  地 中国香港, ?7 C/ \+ [( \2 s
◎类  别 喜剧/爱情. }  N8 |- X: ^& D0 X$ |/ r
◎语  言 粤语! `( G& \- T* ]5 a* ^- i# U
◎上映日期 1995-01-28(中国香港)
, [% x4 ]2 S4 V% ^◎IMDb链接  https://www.imdb.com/title/tt0113475/
2 B  o3 O4 v4 T5 {+ [◎豆瓣评分 8.0/10 from 61039 users
5 J* P$ R; {$ x! }◎豆瓣链接 https://douban.com/subject/1295374/
/ H& I  N6 F, V& ]5 m5 C1 f◎片  长 106分钟" Z6 l! O+ g& H4 A. G  s
◎导  演 徐克 Hark Tsui  T/ u$ g3 u' O
◎编  剧 吴文辉 Man Fai Ng / 郑忠泰 Philip Cheng / 徐克 Hark Tsui / 阮继志 Kai-Chi Yun
" Q/ ~2 c0 v3 G& P9 v" O4 `◎主  演 张国荣 Leslie Cheung
& T8 P% A& H- u) M       袁咏仪 Anita Yuen* L- m! s/ @6 T
       钟镇涛 Kenny Bee
) Q9 t9 d( g1 m9 F: G+ O       赵文卓 Man Cheuk Chiu
5 s' n- u; H7 T* f4 M       罗家英 Kar-Ying Law
3 X) K& W! E! H1 O( @' g9 C2 N       熊欣欣 Xinxin Xiong8 e) e, o  @# m0 i7 h3 Z9 N
       樊亦敏 Yik-Man Fan. g3 Z4 ?) h* i: I; e
       倪淑君 Suk Kwan Ni
. \3 ~2 Z+ _9 [  G9 ]' _! W       黄百鸣 Raymond Wong
) \- W) p8 S# a, L, D; Y, J       谢君豪 Kwan-Ho Tse
) g. b' t# p) a' k4 P2 y       卢雄 Paul Lo
9 Q. D' D: [# J! e. Y       唐佳 Chia Tang
, J6 }( J% s. m       司徒慧焯 Roy Szeto
) f/ y" b$ |2 q) q8 R       李道谕 Do-Yu Lee
5 S  f2 m; Y0 K2 z% P       何家驹 Ka-Kui Ho4 O" w: R5 I6 f0 x6 H+ O* [
       鲍德熹 Peter Pau
6 V( x8 k* a/ C- _$ c5 h0 ?2 x/ }       黄一飞 Yut Fei Wong
! |( H3 S! f0 v5 @# ?) T- T3 c       黎彼得 Peter Lai
3 q: v/ b8 C( w5 c       邵传勇 Timothy Zao; R+ F, L! }1 n6 t, ]
       刘洵 Shun Lau# |& i2 s# u+ F$ E1 n( h
       张同祖 Tung Cho Cheung
. \# c: v2 Z7 s" w       黄金棠 Kam-Tong Wong4 B5 d" Q4 \- a5 d

& R% p# m# F8 i& P. k◎标  签 香港 | 喜剧 | 徐克 | 美食 | 1995 | 搞笑 | 经典 | 爱情; A& K' w$ O  b; `8 U; ]; }
( v/ n  y0 \" b1 J
◎简  介
6 R' s6 F0 A7 g) ?6 Q4 X4 E7 R
( i0 A' R1 ?: h7 m5 D  & e+ D& g# M" i+ `2 O" ^
  赵港生(张国荣饰)因厌烦黑社会生活,欲金盆洗手后去加拿大追寻偶像山口百惠,而他选择的移民途径竟是——参加加拿大酒店的厨师考试,丝毫不懂厨艺的他最终因作弊暴露而惨败。  W: {. |' a7 E9 x+ t2 D4 M
  ! p  O: n" [* H  l% Y( T
  某日,赵港生在酒楼遇见了厨艺大师龙昆宝(赵文卓饰),龙昆宝指点他去找自己的旧识满汉楼的欧老板(罗家英饰)学习,不想欧老板竟对他百般刁难,最终将其扫地出门。其间,港生和欧老板的女儿嘉惠(袁咏仪饰)倒是在不经意间擦出了花火。2 k5 ?, o; U  E) p
  
& @' m2 A3 Y/ D8 `  欧老板师承中国著名大宴满汉全席之赵派,某日,牛派的继承人黄荣找上门来挑战,后来又使诡计挖走了他手下的所有师傅。这时,唯有港生挺身而出,和嘉惠一起寻找会做满汉全席的高人,那就是五年前莫名隐退厨艺界的廖杰(钟镇涛饰)。6 I5 L6 w2 ~4 h/ I, V7 f9 p
  1. Video
    # F  q0 @8 c; b$ G) K; R
  2. ID : 1
    + ?" E- N4 k( ]2 U1 U
  3. Format : AVC! G" B( ?% z9 F( K& R$ ^( F5 d8 F
  4. Format/Info : Advanced Video Codec$ n2 u3 M4 w) e7 r, j+ u8 |
  5. Format profile : High@L4.1( K4 |8 c! C0 N" U' h0 G
  6. Format settings : CABAC / 4 Ref Frames, B4 ?' v* Q! U9 m$ U
  7. Format settings, CABAC : Yes$ i; h, n8 t7 X
  8. Format settings, Reference frames : 4 frames
    ( O' R3 @- }2 O# }: h4 g5 Q
  9. Codec ID : V_MPEG4/ISO/AVC5 |& W; e! r( P4 v! P( [1 u
  10. Duration : 1 h 46 min
    , H" w( c. g: m" p5 r
  11. Bit rate : 10.1 Mb/s
    & q- O; q) E: m
  12. Width : 1 920 pixels
    3 |, }2 K' e: }
  13. Height : 804 pixels
    5 M" D( D/ W1 K; A  d  Y4 t- Y, O
  14. Display aspect ratio : 2.40:1
    % ~5 E& M, |# K2 y( M! k5 x
  15. Frame rate mode : Constant  Z0 b. F+ w+ i! M. l* [, i& K0 k0 g
  16. Frame rate : 24.000 FPS0 F, c) G, b) Z; T
  17. Color space : YUV" [* Y9 M7 ^/ P- ]6 S( T1 W$ C) s
  18. Chroma subsampling : 4:2:0$ j' T) K# `' c' G7 v) y
  19. Bit depth : 8 bits
    ) L! F; S* w$ G! D
  20. Scan type : Progressive
    , e: Z: c" k! `. U# @; H
  21. Bits/(Pixel*Frame) : 0.272
    " E. A, J  k+ `! M* ^9 c
  22. Stream size : 7.50 GiB (87%): W( c6 {3 h3 r6 [/ i
  23. Writing library : x264 core 157 r2867+150 7e91e0e t_mod_Custom_2 [8-bit@all X86_64]
      b. n6 O5 x* R8 C" ^! q* B* O
  24. Encoding settings : cabac=1 / ref=4 / deblock=1:-3:-3 / analyse=0x3:0x133 / me=umh / subme=11 / psy=1 / fade_compensate=0.00 / psy_rd=0.90:0.10 / mixed_ref=1 / me_range=64 / chroma_me=1 / trellis=2 / 8x8dct=1 / cqm=0 / deadzone=21,11 / fast_pskip=0 / chroma_qp_offset=-4 / threads=25 / lookahead_threads=4 / sliced_threads=0 / nr=0 / decimate=1 / interlaced=0 / bluray_compat=0 / constrained_intra=0 / fgo=0 / bframes=8 / b_pyramid=2 / b_adapt=2 / b_bias=0 / direct=3 / weightb=1 / open_gop=0 / weightp=2 / keyint=250 / keyint_min=24 / scenecut=40 / intra_refresh=0 / rc_lookahead=60 / rc=crf / mbtree=0 / crf=18.0000 / qcomp=0.70 / qpmin=0:0:0 / qpmax=69:69:69 / qpstep=4 / vbv_maxrate=35000 / vbv_bufsize=35000 / crf_max=0.0 / nal_hrd=none / filler=0 / ip_ratio=1.40 / pb_ratio=1.30 / aq=3:1.00 / aq-sensitivity=10.00 / aq-factor=1.00:1.00:1.00 / aq2=0 / aq3=0: Z; \1 u0 i$ h5 P% E
  25. Language : Chinese
    ) _. q0 ]0 P) w' T) W! N/ v
  26. Default : Yes3 l+ B4 O; M$ I
  27. Forced : No
    , `+ y  M3 o7 M$ I5 j% q* ]
  28. & y4 @- `/ Y* ~: Q
  29. Audio
    5 a1 P! ?6 L5 w9 S$ K( }( ?9 T
  30. ID : 2$ X6 J0 [) x, Z5 ?% @0 A7 T
  31. Format : DTS8 H/ ~& |+ k( @4 {
  32. Format/Info : Digital Theater Systems
    1 @3 @0 y  ]1 p# h
  33. Codec ID : A_DTS7 U+ u8 |& ~1 C. N7 @8 j8 m4 N, p+ Q
  34. Duration : 1 h 46 min8 t7 @) t- B: d
  35. Bit rate mode : Constant; p% S: v7 B% A0 O- n4 I
  36. Bit rate : 1 509 kb/s
    : q' c# N$ P1 R
  37. Channel(s) : 6 channels
    1 O+ L8 l6 u4 |+ n- m3 k( c" M
  38. Channel layout : C L R Ls Rs LFE
    1 k. w  s8 C# o" g
  39. Sampling rate : 48.0 kHz/ @: P# l/ `9 `1 H$ `3 l! V
  40. Frame rate : 93.750 FPS (512 SPF)
    ' Y7 L" r7 S; a" l  X; P1 b( a
  41. Bit depth : 16 bits
    % z: X; P% m0 ?1 r+ r) p
  42. Compression mode : Lossy1 o  t* E8 b0 y% M' P# x0 s
  43. Stream size : 1.12 GiB (13%)4 B  U; k: p' W$ H% B+ t% M
  44. Language : Chinese) B' y4 f6 R; D6 F# W
  45. Default : Yes
    , |  r( S( `) z% O+ @' P2 P
  46. Forced : No
    ! Z0 V' E+ g# F2 h2 w. c. ?
  47. - q. \' u& t3 k6 `: S# Q
  48. Text
    1 X' _9 b! x" F& L# ~# S# v
  49. ID : 3
    8 v% A2 Q/ c" e) _8 g; n
  50. Format : UTF-8
    ) B3 ?+ c1 e. M; ~! \
  51. Codec ID : S_TEXT/UTF8: v; J. W( v6 l- A- A4 f- D2 ~
  52. Codec ID/Info : UTF-8 Plain Text
    / v* i4 `( g' B' F% Q! w
  53. Duration : 1 h 14 min2 X4 f; r, B( K
  54. Bit rate : 57 b/s2 R; D  f/ o7 J9 |! ]. o
  55. Count of elements : 11919 K: \9 y- K2 d4 H0 ]
  56. Stream size : 31.1 KiB (0%)5 i% u3 _; t' \8 ]7 ]
  57. Language : English8 ]! L" O; o  g' {
  58. Default : Yes+ L# b7 X3 C% i5 }! `7 i
  59. Forced : No
    $ k# d/ \2 u& K  o9 j" O
  60.   T3 m/ j" W  `6 |
  61. Menu
    4 V5 W  M/ [! g- c% s. Y
  62. 00:00:00.000 : en:绗?01 绔?1 |1 l8 J3 n8 z# y. T2 ?, R
  63. 00:08:07.333 : en:绗?02 绔?. {- r* i% v2 n
  64. 00:19:23.208 : en:绗?03 绔?' d* l$ z3 v2 c/ t/ P( B0 C
  65. 00:27:26.583 : en:绗?04 绔?
    4 U3 _' T6 j" n
  66. 00:36:44.250 : en:绗?05 绔?- D9 G6 P8 m' u* J& L
  67. 00:47:37.000 : en:绗?06 绔?
    / O2 |, Z5 Q& w, y% E+ J/ I
  68. 00:54:17.000 : en:绗?07 绔?; L3 v% W' Y7 L) M, J) d
  69. 01:03:17.750 : en:绗?08 绔?7 K6 n6 N2 a  R4 g2 p# m' A
  70. 01:12:47.875 : en:绗?09 绔?, v7 g% n- ]# N- v0 _
  71. 01:19:42.000 : en:绗?10 绔?
    2 p* l5 i! h5 m3 b) B
  72. 01:29:40.125 : en:绗?11 绔?
    $ o! B6 F4 p3 x0 j- B" a
  73. 01:41:28.792 : en:绗?12 绔?
复制代码

, F  q( u  M. Q3 D+ t5 ~, U) J5 k+ d

+ j9 W9 I- g: p& x4 {! a7 V# t, W% j; W* a2 G

% V, l) O. w7 m/ L5 [- P* r. m8 G
: [/ A0 L; l8 X
游客,如果您要查看本帖隐藏内容请回复  VIP可免回复查看隐藏内容 详情请点击
发表于 2019-12-18 16:58:21 | 显示全部楼层
张国荣的经典电影,下載来收藏!
发表于 2019-12-18 17:36:18 | 显示全部楼层
终于有高清版本了,谢谢分享
发表于 2019-12-18 18:24:49 | 显示全部楼层
哥哥 好久不见
发表于 2019-12-18 19:06:44 | 显示全部楼层
感谢楼主分享。
发表于 2019-12-18 19:30:45 | 显示全部楼层
这片子不是叫满汉全席么?
发表于 2019-12-18 21:15:38 | 显示全部楼层
thank you very much
发表于 2019-12-18 21:19:47 | 显示全部楼层
这电影现在看来比较经典~
发表于 2019-12-19 00:05:33 | 显示全部楼层
那个年代的片,作为学生还真没机会看过几部,好在现在有补了
发表于 2019-12-19 01:05:44 | 显示全部楼层
谢谢楼主分享
您需要登录后才可以回帖 登录 | 立即注册

本版积分规则

QQ|封号公示|手机版|有问题发邮件到admin#(换成@)hd1tj.org|微博|免责申明|HD一条街

GMT+8, 2020-7-4 20:07

快速回复 返回顶部 返回列表