HD一条街

 找回密码
 立即注册
搜索
查看: 570|回复: 11

[720P] [2016][无台标][港剧:城寨英雄 全28集][720P-AMZN版/46G][粤语 英文软字幕][MKV][陈展鹏/胡定欣]

[复制链接]
发表于 2019-12-17 18:20:28 | 显示全部楼层 |阅读模式

马上注册,结交更多好友,享用更多功能,让你轻松玩转社区。

您需要 登录 才可以下载或查看,没有帐号?立即注册

x

: {( W8 d# W  e, J& z                               
登录/注册后可看大图

( z% {- P; |. L4 ?/ P  P9 q! e
, e. S' Q/ V- O: h! o  a# [◎译  名 A Fist Within Four Walls) s( t4 g7 I3 g% ?  F3 K: U6 M; ?5 x& j. X
◎片  名 城寨英雄5 f7 |4 n& H  v- r
◎年  代 2016' ]- x. G; n" m& S& V9 V+ E
◎产  地 中国香港
% z) h) c& f6 z◎类  别 剧情 / 动作
: ?6 y# q4 p6 x, R+ o◎语  言 粤语) c8 Q/ N: U( }* D. d1 I" d8 ?% E
◎上映日期 2016-08-01(中国香港)/ K) {1 ?2 T5 H' `
◎IMDb评分  7.5/10 from 19 users
$ ?. G; u$ s" S% @" t. X◎IMDb链接  https://www.imdb.com/title/tt76167524 r& E% s% Q' n6 [$ L& I8 K
◎豆瓣评分 8.1/10 from 8196 users
% A9 h2 G; Q0 ~& S" x( f7 U: U◎豆瓣链接 https://movie.douban.com/subject/26381346/# B& Q0 G" a: K1 J- P9 k
◎集  数 28& W$ I7 u5 _2 T! K
◎片  长 43分钟
3 d" [6 q; W* s◎导  演 文伟鸿 Weihong Wen* @$ s4 U  u+ t* `, g3 \
◎编  剧 叶天成 Tin-Shing Yip / 黎倩仪 Steffie Lai" i3 O- K- P% q
◎主  演 陈展鹏 Ruco Chan) g* N) m- X& |" t1 y
       胡定欣  Nancy Wu Ting-yan
7 G: Y3 j/ ~; U% B& s! E       袁伟豪 Wai-Ho Yung
0 a; i2 F! E4 ^: q& K       吴家乐 Carlo Ng Ka-Lok- S$ c6 G: w( M( G* A3 j- P8 y
       伍允龙 Philip Ng& W# W, g4 T+ q8 R% |( a7 g* D
       元秋 Qiu Yuen
! z4 o. }  g# Y       刘佩玥 Moon Lau Pui Yuet
1 W! H' \& E4 W; P) I6 m) k       唐诗咏 Natalie Tong
  j  t+ `/ |8 T9 J       林子善 Lam Tse Sin! z/ v# n% Z5 g7 ^2 L1 g. }' e8 Q
       王君馨 Grace Wong' e! T' R; Y8 J
       张国强 Kwok Keung Cheung! n& B2 j1 G6 v* X2 B
       林伟 Vincent Lam
" i. e; D( i5 h$ n# C       张颖康 Wing-Hong Cheung7 u6 H* h# O3 K$ L" P* q+ y4 w
       何启南 Kai-Nam Ho6 D7 K- ^1 G* L
       欧瑞伟 Jimmy Au Siu Wai
! k6 U- A$ z3 Y$ k: H; h       文伟鸿 Weihong Wen
( ]; r" s8 x2 c: R7 H. U% M       林颖彤 Bella Lam
( P4 F3 G+ t6 f1 A       邵卓尧 Cheuk-Yiu Siu' }2 _' N3 F7 H& T5 t
       谭凯琪 Zoie Tam* A# w3 f* }  B4 n
       曾健明 Kin-Ming Tsang/ u" D3 c" w; ]% I& J' f7 c( g

+ _6 e# @' ?  ?3 K) F7 ^; h
: |: d5 q: m+ h◎标  签 TVB | 港剧 | 香港 | 动作 | 功夫 | 热血 | 电视剧 | 2016
  P; X/ E# ~. J8 J) Q
) ?$ F% u& l: ^7 M7 S◎简  介  & g+ I" t; w3 |( [1 q! t  b+ G! e

3 Y" z: p" ]/ A1 E5 E3 O  故事发生在五十年代末的九龙城寨,左勾拳(陈展鹏 饰)和段迎风(袁伟豪 饰)的父亲均为名震千里的八极拳宗师,哪知道一场阴谋使得段迎风失去了父亲,而左勾拳的父亲则沦为了杀人凶手含冤自尽,左勾拳亦因此和妹妹失散,离开了九龙城寨,前往澳门谋生。- f" T' k8 j- J; ~, x* {: d# \
  一晃眼十五年过去,已经长大成人的左勾拳回到了九龙城寨这片伤心地,只为了寻找妹妹的下落,哪知道此处早已经物是人非,冯春美(吴家乐 饰)、柯万长(张国强 饰)和福寿金(林伟 饰)三大黑恶势力头目三足鼎立一手遮天,令九龙城寨的居民们终日生活在恐惧之中。正直的左勾拳向三人发起了挑战,他的勇气亦感染了段迎风,两人再度联手,组成了九龙城寨街坊福利会,惩恶扬善,行侠仗义。
  1. Video. Y2 R# E1 j; a+ U" n; s4 p  n% S
  2. ID : 1
    ! V' v) @- S; e% q9 n/ i$ Z  n  t
  3. Format : AVC8 q7 I9 h* `+ Q2 W& r, h2 L! m9 G
  4. Format/Info : Advanced Video Codec
    $ R; E/ {! S/ p0 }: }/ [4 Y- p) k
  5. Format profile : High@L3.1% G9 e7 C3 Y0 S8 z' Q$ k9 i
  6. Format settings : CABAC / 4 Ref Frames+ g" l0 S* P2 O, [' ^/ ^: K$ u. s
  7. Format settings, CABAC : Yes# e- G# s$ o. h5 t0 |# X3 E
  8. Format settings, Reference frames : 4 frames# w# u) `, O) s
  9. Codec ID : V_MPEG4/ISO/AVC
    . u) Q( m3 C$ }2 `3 m# ]2 _* o
  10. Duration : 43 min 16 s
    " w) D5 P+ x# x
  11. Bit rate mode : Constant8 W/ q+ V0 N" b
  12. Bit rate : 6 000 kb/s
    , e& M/ a0 s- ^" t+ v' B
  13. Width : 1 280 pixels
    ; I( r! `3 @6 `. Z+ `6 I  a
  14. Height : 720 pixels
    # h4 N8 v' A# ^. @0 v* K: b
  15. Display aspect ratio : 16:9
    : ^" [6 M( ~9 _. C
  16. Frame rate mode : Constant
    , t, Y% F+ v0 p: \- ~6 G8 F- v
  17. Frame rate : 25.000 FPS
    # j/ ?! W( b4 b* O+ p4 ]
  18. Color space : YUV
    $ I8 v" I( p7 P5 n! \/ P+ D$ L4 Y' r
  19. Chroma subsampling : 4:2:0+ e% ?  h! O  ^+ r$ w" F# j' i
  20. Bit depth : 8 bits7 d  i2 E+ ^" |# h
  21. Scan type : Progressive
    * q% }8 Y3 P& E0 ?" \, p
  22. Bits/(Pixel*Frame) : 0.2601 P0 }- k6 h4 k) `4 }' [7 G
  23. Stream size : 1.73 GiB (96%)  x. m. G  ?- x
  24. Language : Chinese9 }+ U2 R. D0 ?3 {5 S
  25. Default : Yes0 I* j0 |* r7 _7 Q0 L, E% p5 f
  26. Forced : No
    ( w% I& M( M7 d9 H& D2 V5 Y
  27. Color range : Limited
    . M( u4 Y; Q, ?3 Q% c
  28. Color primaries : BT.7097 \$ _" k3 g# @
  29. Transfer characteristics : BT.709
    0 [& |7 f4 a; _; ?( m
  30. Matrix coefficients : BT.709
    8 P+ H8 @4 j% l$ U0 b8 g

  31. 1 q7 S6 s4 z" `/ m( N, A! m3 L( {( F
  32. Audio; @1 U3 S( l+ G. h; a
  33. ID : 20 V# o* Q: m, `7 Q# E
  34. Format : E-AC-3
    & d/ ]0 G1 T  E2 ~0 N( I
  35. Format/Info : Enhanced AC-3
    4 c- E$ R& H- F; w9 q
  36. Commercial name : Dolby Digital Plus) K: i  `3 f0 M  K+ C. H
  37. Codec ID : A_EAC3% ]6 G. R/ W' U+ v6 v: s0 ?3 m8 o
  38. Duration : 43 min 16 s
    ( ]; U! N, C: c/ I
  39. Bit rate mode : Constant1 U& C; O. v6 x+ m, F
  40. Bit rate : 224 kb/s& }; U* e5 d  k' Y$ m, Q$ W
  41. Channel(s) : 2 channels
      m, R0 d" y* J2 k* M8 [" K, o
  42. Channel layout : L R
    + E) g1 Y$ M: X0 \% r# ^
  43. Sampling rate : 48.0 kHz/ ~0 i6 u$ l2 h* c$ _" L9 Y
  44. Frame rate : 31.250 FPS (1536 SPF)
    ) F! I. u# o! n0 c, o
  45. Compression mode : Lossy
    / Q+ D+ {6 n/ F( O$ R
  46. Stream size : 69.3 MiB (4%)
    & \5 u1 R+ u3 C9 o3 Q
  47. Title : Chinese
      v- ?" ~" y$ l4 ~" c/ c
  48. Language : Chinese$ U  C0 f3 u) P+ U
  49. Service kind : Complete Main
    + V' s* h0 }9 m  M( t% @4 M: @
  50. Default : Yes- f: K* h( m+ B4 k5 U7 w6 h1 g7 A4 s
  51. Forced : No! K( ?% E  `3 P7 t: F  n! d
  52. ( ?  J6 e% \. w/ t8 R+ }
  53. Text  }6 l) S; v+ H% |* }
  54. ID : 3
    2 v/ e' w4 P0 J! ~; ?
  55. Format : UTF-8& C3 \; d6 Z1 j  c% O* }
  56. Codec ID : S_TEXT/UTF8* U$ b5 D! W$ R! m8 o
  57. Codec ID/Info : UTF-8 Plain Text
    - N" h/ L) Z/ g, v2 o
  58. Duration : 41 min 57 s
    ; K2 ~1 c3 q" r/ P& P6 J- D
  59. Bit rate : 75 b/s
    9 r, f) {: T) \+ Q! o
  60. Count of elements : 751
    * t3 Y0 o$ ^8 A$ z% W" ?: @/ I! h
  61. Stream size : 23.1 KiB (0%)
    * c% C1 n1 ~" x$ R; v, f' d) i$ P1 W
  62. Title : English (SDH)2 n( G- I& a% L6 {
  63. Language : English
    ) J2 d6 L  D; a: I" @5 r( H+ c9 M
  64. Default : Yes. l9 Q  c9 K4 F6 n' Z
  65. Forced : No
复制代码

8 u2 m% Z9 e; ]9 ?0 x
. \8 ~& `8 P/ D
. X) c: O. M+ c5 Q! k; j8 n- j9 e8 o5 K9 P0 ]+ G& F

4 W, d" T8 d3 v) A: y0 @3 j$ V- }
! N* G0 x1 S! K, H
游客,如果您要查看本帖隐藏内容请回复  VIP可免回复查看隐藏内容 详情请点击
发表于 2019-12-18 00:21:30 | 显示全部楼层
想看胡定欣,而且是功夫劇
发表于 2019-12-18 00:29:41 | 显示全部楼层
8.1的评分,有这么好看的吗?
发表于 2019-12-20 11:29:15 | 显示全部楼层
11111111111111111
发表于 2019-12-24 10:52:21 | 显示全部楼层
喜欢陈展鹏
发表于 2019-12-31 08:50:06 | 显示全部楼层
胡定欣好评
发表于 2020-1-1 00:08:07 | 显示全部楼层
谢谢楼主提供资源
发表于 2020-1-1 15:08:28 | 显示全部楼层
近几年最好看的功夫剧了
发表于 2020-1-14 12:01:36 | 显示全部楼层
这套电視剧收視很好
您需要登录后才可以回帖 登录 | 立即注册

本版积分规则

QQ|封号公示|手机版|有问题发邮件到admin#(换成@)hd1tj.org|微博|免责申明|HD一条街

GMT+8, 2020-7-5 14:19

快速回复 返回顶部 返回列表