HD一条街

 找回密码
 立即注册
搜索
查看: 160|回复: 9

[720P] [2016][无台标][港剧:城寨英雄 全28集][720P-AMZN版/46G][粤语 英文软字幕][MKV][陈展鹏/胡定欣]

[复制链接]
发表于 2019-12-17 18:20:28 | 显示全部楼层 |阅读模式

马上注册,结交更多好友,享用更多功能,让你轻松玩转社区。

您需要 登录 才可以下载或查看,没有帐号?立即注册

x
3 @3 T/ l0 [7 T1 y! W# C
                               
登录/注册后可看大图

6 f" Q) i: F8 R
; a5 z2 i; Z" Y◎译  名 A Fist Within Four Walls
; D3 r3 H+ P, `6 o) {◎片  名 城寨英雄2 Y* k! C: A" T+ z( p% n0 U4 ?
◎年  代 20162 E& ?# d0 {: F6 M5 \9 f
◎产  地 中国香港
" {/ a7 H7 f5 z6 r7 r◎类  别 剧情 / 动作2 s- M1 {$ ~% _( d
◎语  言 粤语. L4 g/ Y' d4 Q
◎上映日期 2016-08-01(中国香港)
3 T# H3 y# r( F5 b$ v◎IMDb评分  7.5/10 from 19 users3 _6 ^1 w- Z8 m3 A' ]8 `
◎IMDb链接  https://www.imdb.com/title/tt7616752( h0 H7 Y) Q7 g6 Z$ t
◎豆瓣评分 8.1/10 from 8196 users
# z+ Q% w5 s6 z2 E: t◎豆瓣链接 https://movie.douban.com/subject/26381346/& O4 W9 I: b" S8 E& E, H) R; c
◎集  数 283 R& `. }8 s5 C, V# C# P/ f- O
◎片  长 43分钟
1 J( j- M% k8 j◎导  演 文伟鸿 Weihong Wen
) Z5 b8 D, `1 ~& l% i◎编  剧 叶天成 Tin-Shing Yip / 黎倩仪 Steffie Lai" c0 {/ N; g) G5 h% R, v5 [3 Q+ r
◎主  演 陈展鹏 Ruco Chan
9 I$ \( x$ g- i       胡定欣  Nancy Wu Ting-yan+ M3 o# }& Y! O! d) p$ w
       袁伟豪 Wai-Ho Yung
) ]2 u" a' L, w       吴家乐 Carlo Ng Ka-Lok
, m3 z, ]3 k3 b" j7 m       伍允龙 Philip Ng
" t' i2 \/ J/ ^       元秋 Qiu Yuen7 g$ ]* ^. ]' @" n' S' a" k
       刘佩玥 Moon Lau Pui Yuet
2 ^+ \2 w) x5 G6 v2 C4 O* O       唐诗咏 Natalie Tong
6 ^# A2 [3 ?# M4 `       林子善 Lam Tse Sin8 I% _4 W) S3 s7 x
       王君馨 Grace Wong2 v) i+ O" j' D$ Y- m- F
       张国强 Kwok Keung Cheung
5 W8 w& m% p- _" P- Y# o. }) J       林伟 Vincent Lam" P  @% }# l% M1 I( c5 ]/ @7 B; w
       张颖康 Wing-Hong Cheung' O% J3 j3 N; K* R: c
       何启南 Kai-Nam Ho
# R' I# n2 F+ Z       欧瑞伟 Jimmy Au Siu Wai
1 x5 S; s; U1 P4 j: r7 R/ U; k       文伟鸿 Weihong Wen4 s3 }/ G0 K( x
       林颖彤 Bella Lam
7 u% |4 z( C9 s. F6 o, G       邵卓尧 Cheuk-Yiu Siu
* m9 a; ^0 w, ?5 h0 G+ x9 x       谭凯琪 Zoie Tam- A6 J* j# Y# T+ T
       曾健明 Kin-Ming Tsang
# Q% m  `) y; ]
5 X& `, L! A$ Q2 \8 B$ ^0 s8 e+ ?% ]
◎标  签 TVB | 港剧 | 香港 | 动作 | 功夫 | 热血 | 电视剧 | 2016( v6 y, U& w( v' s, K, X  N

- [) ^" j7 G7 W( W: E$ x) `- c◎简  介  
$ p3 u: _/ X- {# s3 c* }
5 b) `' W3 C: T" @$ O( {  g1 M2 {  故事发生在五十年代末的九龙城寨,左勾拳(陈展鹏 饰)和段迎风(袁伟豪 饰)的父亲均为名震千里的八极拳宗师,哪知道一场阴谋使得段迎风失去了父亲,而左勾拳的父亲则沦为了杀人凶手含冤自尽,左勾拳亦因此和妹妹失散,离开了九龙城寨,前往澳门谋生。) h4 q# e3 _; O4 ]* D9 G- m0 N0 e
  一晃眼十五年过去,已经长大成人的左勾拳回到了九龙城寨这片伤心地,只为了寻找妹妹的下落,哪知道此处早已经物是人非,冯春美(吴家乐 饰)、柯万长(张国强 饰)和福寿金(林伟 饰)三大黑恶势力头目三足鼎立一手遮天,令九龙城寨的居民们终日生活在恐惧之中。正直的左勾拳向三人发起了挑战,他的勇气亦感染了段迎风,两人再度联手,组成了九龙城寨街坊福利会,惩恶扬善,行侠仗义。
  1. Video
    ' H+ g9 S) ~4 f0 D# P+ D8 a8 B3 F) y
  2. ID : 1/ W/ e8 m. p6 f2 K6 N
  3. Format : AVC: x" ~" W$ o5 x5 _# [
  4. Format/Info : Advanced Video Codec
    / P. R8 ?$ X! J3 P
  5. Format profile : [email protected]
    - G. O8 h3 c& k; L. N$ b# s7 m
  6. Format settings : CABAC / 4 Ref Frames+ g; E. U! A/ }, e! n& g0 S$ i
  7. Format settings, CABAC : Yes$ C. v; e7 _. O! J+ n+ L; W* n0 l1 {
  8. Format settings, Reference frames : 4 frames' D+ U" C( p; t) k$ F9 p1 ?
  9. Codec ID : V_MPEG4/ISO/AVC
    - h0 D3 V* q( m
  10. Duration : 43 min 16 s, O  D: q* E0 d# [6 \6 N; r. ^
  11. Bit rate mode : Constant* @# E0 B3 o- x9 S( f" g$ U" G
  12. Bit rate : 6 000 kb/s  p0 }& [  U$ C3 z
  13. Width : 1 280 pixels
    : U, e  w' a( C# B+ G. {# p
  14. Height : 720 pixels; w) a1 j2 v0 r
  15. Display aspect ratio : 16:9
    ! q5 H, h# B3 Q5 |5 k. U* z
  16. Frame rate mode : Constant. p0 k, T5 ]6 d8 v3 X$ Z
  17. Frame rate : 25.000 FPS
    0 F& S1 t5 z+ J% M* j& p
  18. Color space : YUV  A6 k$ p% D4 o$ `/ V. e
  19. Chroma subsampling : 4:2:0
    ; t# K; b, p8 f
  20. Bit depth : 8 bits
    2 F( j2 x* |' m5 o; n( E
  21. Scan type : Progressive
    ( s( S: t/ A4 _: Q- q
  22. Bits/(Pixel*Frame) : 0.260; `& ~; |7 f4 i8 ^( X# {3 F
  23. Stream size : 1.73 GiB (96%)
    2 y& ], V5 g  b2 I
  24. Language : Chinese
    0 V9 @5 J1 I! L# W( A8 L2 B
  25. Default : Yes
    ' s: f5 y- r  {) B& r. P1 ]% {
  26. Forced : No
    ) }( S2 m& A' t7 ~) E6 I1 v5 B
  27. Color range : Limited- D; V% ]6 v, U  v
  28. Color primaries : BT.709$ }7 A! m5 L+ ^3 X1 j% s& y
  29. Transfer characteristics : BT.709/ b* G* {( q4 x; g9 E. W- t5 z) t, t
  30. Matrix coefficients : BT.709
    ( i0 N- h9 b- v& U8 h& ]$ Q
  31. , Z, W- C4 K' f' D4 T% Z8 W/ N5 `
  32. Audio
    , a6 s# i: M4 r# h' x- J/ T$ c# I
  33. ID : 2+ t+ j# R; b; Q9 u8 _, g
  34. Format : E-AC-31 p& v7 h, Q7 M# o# l
  35. Format/Info : Enhanced AC-3
    , u' x* M3 w+ t7 R! o8 A; T1 x
  36. Commercial name : Dolby Digital Plus% j7 P3 C- D7 V
  37. Codec ID : A_EAC3
    3 }. ~. G4 {$ L) A/ a, k& [
  38. Duration : 43 min 16 s7 \! l1 w6 ~- h! M2 T2 v: c- X
  39. Bit rate mode : Constant. O# k( f2 @$ |( v6 N. ^5 e: p1 g
  40. Bit rate : 224 kb/s
    $ \& I  r$ m% e7 n. W0 h
  41. Channel(s) : 2 channels
    , y8 i$ ?: W7 k1 C# i3 [3 j; F
  42. Channel layout : L R; ?& r4 L' u6 p) \
  43. Sampling rate : 48.0 kHz: Y5 j$ [  }/ Y6 b: h& Y
  44. Frame rate : 31.250 FPS (1536 SPF)! w  S( o- b+ Q0 o
  45. Compression mode : Lossy. G' |- v! Y# @% ~
  46. Stream size : 69.3 MiB (4%)0 n3 D4 D$ ]/ s: i  n
  47. Title : Chinese
    9 ~# q# o! z) a& n
  48. Language : Chinese& f& v  r: i6 u4 m9 V
  49. Service kind : Complete Main
    ' |6 \( F5 y6 c' R3 d- k
  50. Default : Yes0 V- A( u8 `& P
  51. Forced : No9 V+ m; ^0 E2 L, w9 ~& V; R6 y

  52. 3 n2 H2 q& k8 K0 M+ a- ?
  53. Text
    1 N9 G& H- j  e, _' K2 L' T
  54. ID : 3
    1 J2 e  Q; Z5 j3 b& x7 D
  55. Format : UTF-8
    # q$ K  G5 S4 M+ m3 l
  56. Codec ID : S_TEXT/UTF8" T0 w7 S3 H3 I7 K2 U
  57. Codec ID/Info : UTF-8 Plain Text
    ; D# L' w; }* o
  58. Duration : 41 min 57 s, z  S9 l$ R3 N7 @8 i+ N- B# t# ?
  59. Bit rate : 75 b/s1 r+ j7 P5 M( w! e; P8 s5 Y$ s
  60. Count of elements : 751
    3 E* v" y/ }: K; T! u
  61. Stream size : 23.1 KiB (0%)
    2 C  C* D: e5 r& s
  62. Title : English (SDH)
    % g: E  `4 L! p; x3 H
  63. Language : English9 @& i( z/ w  N* s# O( [& A
  64. Default : Yes6 }7 j* T, L1 z: _' y8 V
  65. Forced : No
复制代码
( ?: a1 ^: l# y0 O2 x) h! W' ]6 [
& q1 D4 Q  X5 X( G
2 m4 L9 Z* A" e6 A  L
! p& r2 `" N% s, c" ^9 u
9 q' h8 L2 M& ?1 K& a( k$ P
! f9 {7 ~% B( q4 s$ f$ z+ l+ b4 @
游客,如果您要查看本帖隐藏内容请回复  VIP可免回复查看隐藏内容 详情请点击
发表于 2019-12-18 00:21:30 | 显示全部楼层
想看胡定欣,而且是功夫劇
发表于 2019-12-18 00:29:41 | 显示全部楼层
8.1的评分,有这么好看的吗?
发表于 2019-12-20 11:29:15 | 显示全部楼层
11111111111111111
发表于 2019-12-24 10:52:21 | 显示全部楼层
喜欢陈展鹏
发表于 2019-12-31 08:50:06 | 显示全部楼层
胡定欣好评
发表于 2020-1-1 00:08:07 | 显示全部楼层
谢谢楼主提供资源
发表于 2020-1-1 15:08:28 | 显示全部楼层
近几年最好看的功夫剧了
发表于 2020-1-14 12:01:36 | 显示全部楼层
这套电視剧收視很好
您需要登录后才可以回帖 登录 | 立即注册

本版积分规则

QQ|封号公示|手机版|有问题发邮件到admin#(换成@)hd1tj.org|微博|免责申明|HD一条街

GMT+8, 2020-1-22 06:36

快速回复 返回顶部 返回列表