HD一条街

 找回密码
 立即注册
搜索
查看: 69|回复: 5

[1080i] 泰剧:烹饪小姐 全13集[自带中文字幕]Miss.Culinary.S01.THAI.1080p.NF.WEBRip.DDP2.0.x264-SPiRiT 22.6G

[复制链接]
发表于 2019-12-16 18:52:46 | 显示全部楼层 |阅读模式

马上注册,结交更多好友,享用更多功能,让你轻松玩转社区。

您需要 登录 才可以下载或查看,没有帐号?立即注册

x
/ G& P8 V5 S# e4 p1 L# i
                               
登录/注册后可看大图

, d+ K( T8 k+ V) }. R1 m2 k1 _: A0 q) X; X6 C) O
原名0 S. X+ L+ ?7 @3 Q# L5 }! w- }2 h
นางสาวก้นครัว2 h( i5 _. c1 D4 w0 F3 i; F
简体中文名& z# q3 f3 @- r4 t
烹饪小姐2 |& l$ |9 L1 S! `7 ^
又名$ n; ?3 X5 M  n% r" @! @) ?5 m
Miss Culinary
. ]/ _) I9 D' \主演5 Q: d# _. T$ V0 U
瓦妮达·特姆散纳波 Wanida Termthanaporn / 杰森·杨 Jason Young / Louis Thanawin Teeraphosukarn
% b5 y/ E8 A+ p; S' |类型% d7 t, N3 Z2 D( m- ~) h, K
剧情6 |3 v) U) U8 @3 S$ h- a
制片国家/地区& J7 j. |. `  n8 s# C
泰国
1 l% R5 {8 |- `& g0 x. [' A/ `语言6 t+ [! |" S% G) L) h+ h4 ]9 R
泰语
  \7 a( l$ c7 K. B) C% i7 H年份
- ?+ H+ j6 z% Q$ _* M- }20198 P. J5 l/ Z/ U# h: U
首播日期
0 ^: H( _* x) F! Z# b/ G; S2019(泰国)
- F: u& b, J- r, _) V集数
) P1 T2 l2 M7 W13
8 h( b& l* I' A7 i' W单集片长# G9 x3 K# s: ]7 p: C
47分钟$ R3 o. U, N! d. n- i. g
剧情简介7 D1 E: Y, O7 A9 a9 c/ E" q2 d# |) K! P
"Miss Culinary" reveals the brilliance of a young man who tries to keep his girlfriend by telling delicious stories of his mother's recipes to win his girlfriend's heart back. With the story of his mother's life being sour, sweet, salty, spicy, it tells of a girl who ran away from her hometown in Uthai Thani province to face life in Bangkok in the 70s in order to fulfill her dream of being a chef at a 5-star hotel, along with [email protected]电视剧之家编辑整理
  1. Video, e/ O0 u. e! A
  2. ID : 1& W1 E& v! |6 X& t; k, h" X( G
  3. Format : AVC
    & `6 `/ L7 H2 h) q$ J
  4. Format/Info : Advanced Video Codec9 w" P0 j: h8 r$ F
  5. Format profile : [email protected]
    3 R. d  `% Z2 ~0 g
  6. Format settings : CABAC / 3 Ref Frames% X. p9 p, _1 ]2 b
  7. Format settings, CABAC : Yes1 A4 Z" w; x, d! T
  8. Format settings, Reference frames : 3 frames7 d- l8 ]7 \% X# z
  9. Codec ID : V_MPEG4/ISO/AVC& Y+ W+ B* X3 U& v3 v
  10. Duration : 47 min 10 s
    5 z- }4 A) y1 q/ C* K
  11. Bit rate mode : Variable
    ) i+ G- s) m% T5 y2 j" T1 K8 V
  12. Bit rate : 6 490 kb/s4 T) t. t+ h  Q0 `/ g) S& z6 }
  13. Maximum bit rate : 9 735 kb/s! @3 I/ o3 @: W/ T; f4 q. Q' R) X. b
  14. Width : 1 920 pixels
    3 B! M1 _! I9 G% F* w, e
  15. Height : 1 080 pixels2 E; H/ U% r2 V' i
  16. Display aspect ratio : 16:9, w0 p+ [5 S/ ]3 B
  17. Frame rate mode : Constant" A' _) A6 @5 X0 f3 u: U/ M1 r# K( v
  18. Frame rate : 25.000 FPS
    & y9 ]; j8 K( _% @) ^
  19. Color space : YUV
    ' ]9 ]$ R. X2 J9 K5 j
  20. Chroma subsampling : 4:2:0
    5 F+ f9 J( a6 @2 g3 w
  21. Bit depth : 8 bits- A1 Z4 J- `" \2 e& P( y! g
  22. Scan type : Progressive/ T( n* q1 p( [: d. v8 @; L
  23. Bits/(Pixel*Frame) : 0.1255 s8 ~+ b% P; H5 F  L! D2 o$ n# C
  24. Stream size : 2.12 GiB (98%)
    * I/ {  w: b$ B5 ~
  25. Writing library : x264 core 148 r2715 7e75228
    1 F; U: O2 v- T5 H
  26. Encoding settings : cabac=1 / ref=3 / deblock=1:0:0 / analyse=0x1:0x111 / me=umh / subme=10 / psy=1 / psy_rd=1.00:0.00 / mixed_ref=1 / me_range=24 / chroma_me=1 / trellis=2 / 8x8dct=0 / cqm=0 / deadzone=21,11 / fast_pskip=1 / chroma_qp_offset=-2 / threads=8 / lookahead_threads=1 / sliced_threads=0 / nr=0 / decimate=1 / interlaced=0 / bluray_compat=0 / stitchable=1 / constrained_intra=0 / bframes=2 / b_pyramid=0 / b_adapt=2 / b_bias=0 / direct=3 / weightb=1 / open_gop=0 / weightp=2 / keyint=250 / keyint_min=25 / scenecut=0 / intra_refresh=0 / rc_lookahead=50 / rc=2pass / mbtree=1 / bitrate=6490 / ratetol=1.0 / qcomp=0.50 / qpmin=6 / qpmax=51 / qpstep=4 / cplxblur=20.0 / qblur=0.5 / vbv_maxrate=9735 / vbv_bufsize=12980 / nal_hrd=vbr / filler=0 / ip_ratio=1.40 / aq=1:1.00
    ! z& b! a0 ~% h' b% n. K3 C
  27. Default : Yes! L& o. b& F! I+ U1 T4 ?
  28. Forced : No
    $ u( ?; C1 r9 @/ [
  29. ( F: {) ^& N: N) _! D' N- i
  30. Audio
    ; }. V! v: a) w; P+ S# V7 d5 `9 G
  31. ID : 2
    , U. |: z2 u, S/ T& h% ^
  32. Format : E-AC-3
    ! `9 i2 J+ `* Y! F* [; {& l/ V/ N
  33. Format/Info : Enhanced AC-32 A- _6 H( h" c' U: R
  34. Commercial name : Dolby Digital Plus+ }6 @5 Q, r; f. a! D2 Y
  35. Codec ID : A_EAC3+ \# R3 c5 Z9 z( ~* ~  c/ f2 X  a0 Z
  36. Duration : 47 min 10 s
    5 a9 b! L( h$ k: Z3 n7 ^7 R/ g
  37. Bit rate mode : Constant
    . _  |9 Q' g# l; v$ R7 U
  38. Bit rate : 128 kb/s9 s  w6 A" r# V. w5 ?9 x- U
  39. Channel(s) : 2 channels
    * b' d+ R9 o/ W4 q+ D: _0 C
  40. Channel layout : L R* r1 r' }: d( F  ]0 @: i$ U) R
  41. Sampling rate : 48.0 kHz
    * k, ]0 C+ K. F' \; k3 V7 F! ^: n: w# u
  42. Frame rate : 31.250 FPS (1536 SPF)
    ; V% q7 A1 Y: Q2 ^  L$ b5 s- M& |( N
  43. Compression mode : Lossy
    7 x9 A: k/ J8 I. S) x/ n
  44. Stream size : 43.2 MiB (2%)
    8 a0 J; o; I$ v0 n% X
  45. Language : Thai
    ; V) [+ Z. I( `1 d* p7 @
  46. Service kind : Complete Main$ O$ e4 t+ q# h  ~* m% V5 K
  47. Default : Yes0 f9 F6 v- [* S' [9 J1 w- m
  48. Forced : No
    ; b. P# E8 U6 P8 Y) l

  49. & q; }1 F3 _. G4 x/ E3 D
  50. Text #16 R7 s  F; }; O  q9 x) s+ d- i
  51. ID : 3
    9 B7 U( L3 a6 c0 B) P* a  l
  52. Format : UTF-8- V0 K- L0 ^2 ^; e& K
  53. Codec ID : S_TEXT/UTF8$ Y9 Q6 t0 C" e$ @3 N3 ]
  54. Codec ID/Info : UTF-8 Plain Text
    % ^& e$ {& I4 B6 I: G
  55. Duration : 45 min 19 s3 L4 F2 L5 }+ }& {
  56. Bit rate : 58 b/s: w" _: W# c/ k
  57. Count of elements : 693
    ( U0 `4 ?; }7 S3 m
  58. Stream size : 19.5 KiB (0%)
    ' B& b  ?3 `: K! x- E: }2 t- o# g+ N
  59. Language : English
    6 Q/ ^" L% B% V- C) v* V
  60. Default : Yes
    & d8 }' H4 m8 ]  ]
  61. Forced : No
      r- ^9 [2 g' f2 y' f7 k
  62. 2 l' g: B3 d: {! d
  63. Text #20 }  ^6 v# ~! X" _/ f' F
  64. ID : 41 Q  I& Q# q: y8 Y6 Z, I  I" I" v
  65. Format : UTF-8  f  Q1 ?) d+ c* E, C) e+ @+ c
  66. Codec ID : S_TEXT/UTF83 o* f1 `  Y: W4 \
  67. Codec ID/Info : UTF-8 Plain Text) I+ M% T1 I+ e" @7 w
  68. Duration : 45 min 19 s6 ~; ?0 K1 k: w/ b/ ]  F
  69. Bit rate : 92 b/s
    * B7 j# J7 A, l, M! g( A
  70. Count of elements : 6968 o8 O. U0 ]+ {5 G: M! `$ x' A2 ]
  71. Stream size : 30.6 KiB (0%)
      j) q4 G( N( C5 V( f" Z
  72. Language : Arabic; @) e9 V, X2 ?' k$ a+ Y% `. b; `
  73. Default : No
    $ L0 ?7 u# x0 l
  74. Forced : No
    : E5 ?5 D2 G, L. u+ w  z

  75. 3 J( P4 \' p9 N7 V' G" y
  76. Text #3. h" Z* A) M, H8 F2 m7 ^$ C
  77. ID : 5& `! K# m( S& \9 C2 @$ X
  78. Format : UTF-83 J# a0 B; Z/ \
  79. Codec ID : S_TEXT/UTF8
    * N, _3 P, `. I' T' ?% O8 t
  80. Codec ID/Info : UTF-8 Plain Text0 j' ?8 @, a5 g6 I7 V
  81. Duration : 45 min 18 s/ m. T: I! I/ Q9 P; v9 u+ U; R
  82. Bit rate : 62 b/s
    5 R9 m2 J; T# j/ y6 w
  83. Count of elements : 693- o7 ~1 z* M& P' @* x
  84. Stream size : 20.7 KiB (0%)
    ) M: g( U, q$ ]! I2 v
  85. Language : German
    . r  F8 g- y5 f  a- j/ L
  86. Default : No- B) f* h. A" F
  87. Forced : No
    % k+ e& X; K% o

  88. * f+ {  f: r1 s( O3 V
  89. Text #4# V: Z9 b8 x/ R2 H* V
  90. ID : 64 \  {" L0 O+ V( q+ @/ q2 L
  91. Format : UTF-8% d' j& o8 D* F2 q% G
  92. Codec ID : S_TEXT/UTF85 A/ c9 l. T2 d* _' ~6 K0 p
  93. Codec ID/Info : UTF-8 Plain Text
    9 k$ i- z' z) z- p9 O8 Y$ ]
  94. Duration : 45 min 19 s
    ' D3 Y( B* R8 c$ U  A9 [. f
  95. Bit rate : 59 b/s! v+ q9 O5 f" ~6 m
  96. Count of elements : 696* s+ p% _0 _6 _& c/ z2 L$ X
  97. Stream size : 19.7 KiB (0%)
    ( N; a2 ^- @( Q5 B2 \, G9 E/ O
  98. Title : Latin American
    ; P2 p, l% Y% m: \. N4 ~
  99. Language : Spanish
    ! d7 _  D5 K4 J8 F# Q
  100. Default : No
    * S/ m2 n+ v: Y# k0 A
  101. Forced : No
    7 h8 a+ R2 J) D' T5 J

  102. ) {, w5 ]! ^: x0 E- O
  103. Text #5& b" c8 S% B& C% n1 ]% g7 @
  104. ID : 72 m8 _/ P- Z! n( [# P
  105. Format : UTF-8
    , W, D5 L3 F) a! i
  106. Codec ID : S_TEXT/UTF8
    . Q& ]% A4 B8 A  s1 @
  107. Codec ID/Info : UTF-8 Plain Text; l( p) l% U) k1 x! l
  108. Duration : 45 min 19 s2 n. n' H1 e: `
  109. Bit rate : 58 b/s
      ?+ y9 c9 k& m# L. d* x6 X
  110. Count of elements : 696  M% R1 l% U6 }1 v
  111. Stream size : 19.4 KiB (0%)  g4 |1 N- Z5 C$ Y/ x
  112. Title : European5 b5 y9 i% z& O- J) N4 S: b1 c' w  f
  113. Language : Spanish. v2 g: R! x2 z& e4 U
  114. Default : No
    ! D0 Y) {! V7 i0 Q3 r
  115. Forced : No- N$ `+ ^. U3 n- Q! u
  116. 8 t0 y# F: V9 C7 g" y& K
  117. Text #6
    0 N+ s( s& D' N+ s; V1 v
  118. ID : 8
    / ^8 L4 e, L' `( E- c
  119. Format : UTF-8+ z6 F; y. E6 C7 X4 X% C* P8 x
  120. Codec ID : S_TEXT/UTF8
    2 x/ |& }- P7 Z2 l
  121. Codec ID/Info : UTF-8 Plain Text
    4 r# F0 l6 M3 O3 a. y2 w8 Q0 Y
  122. Duration : 45 min 19 s9 l# E; R5 k/ {! m, l  b
  123. Bit rate : 64 b/s% x5 v5 ^! J2 i* C1 b6 n
  124. Count of elements : 696
    ) }: R2 o4 ~) g% @3 O
  125. Stream size : 21.3 KiB (0%)& g7 s, C+ I. ~9 X- P8 Z+ U$ P
  126. Language : French) i) i$ y! ?3 g+ P, P
  127. Default : No" E! X/ C; a- Y- i7 y
  128. Forced : No0 I1 X& M' x& x9 t3 {0 y6 g
  129. 7 J+ N6 r! a9 g+ r
  130. Text #7: _" Q- T8 S7 B# Z! [
  131. ID : 97 j1 Q: U2 u- a# v1 `
  132. Format : UTF-8
    0 S2 b4 i' @  A. B
  133. Codec ID : S_TEXT/UTF86 h" s& o  i1 j( }8 a" y6 |9 L
  134. Codec ID/Info : UTF-8 Plain Text+ Q2 s* l6 e$ f$ D+ ?% i6 Y% o, a7 B
  135. Duration : 45 min 19 s
    - _; M: W$ Q6 X% z
  136. Bit rate : 60 b/s/ ?# W* a2 E2 [* N! [' x1 k; R& I
  137. Count of elements : 6962 j  T5 B; Q: R0 c, d. [
  138. Stream size : 19.9 KiB (0%)! N* L# ~! R- y1 n* B5 {
  139. Language : Indonesian1 @+ N/ m- H* _& @; [
  140. Default : No. \$ E  K7 e# C9 q1 \' }
  141. Forced : No
    ( a) b7 ]6 v0 C# }0 E

  142. $ M! |$ _. ]" x4 }
  143. Text #8+ y2 w. I) r$ u9 ^
  144. ID : 10
    " e, b6 I7 V# R6 {0 y. ~* m
  145. Format : UTF-8
    9 Z- r" `2 j& r! Z; O! G  z
  146. Codec ID : S_TEXT/UTF8
    5 l* ^: z4 h3 B% T
  147. Codec ID/Info : UTF-8 Plain Text1 Y+ y# H" \* Q0 d, i: u
  148. Duration : 45 min 19 s* H) g) l* o1 q. v7 b1 L
  149. Bit rate : 58 b/s
    . M0 E7 U& `+ L. T/ r: a, d
  150. Count of elements : 695
    , g1 `$ k7 z( e' ?8 S
  151. Stream size : 19.3 KiB (0%)
    9 _# \/ Q/ h- \1 v
  152. Language : Italian
    5 A0 Z/ D1 i% X9 `6 J2 l% a
  153. Default : No4 s- p/ B- ]* Y$ h8 r7 _
  154. Forced : No
    / o/ U9 K0 T' C2 h, B  [+ A

  155. ! ?' u5 y# p& G9 N  P; P
  156. Text #9. m0 n. ~- u/ N- J4 l, N1 x
  157. ID : 11
    - ^0 {. J6 l! `, e" X
  158. Format : UTF-8$ [5 ^3 M5 j2 _4 M
  159. Codec ID : S_TEXT/UTF8
      X; A, Y' B3 P+ p
  160. Codec ID/Info : UTF-8 Plain Text
    * P  |6 N: t- |( t. ^+ V
  161. Duration : 45 min 19 s3 K$ h0 ]8 V" d4 W7 V3 ?7 q
  162. Bit rate : 50 b/s( O+ N. c, E; C9 s4 n$ i- g
  163. Count of elements : 6554 c3 V. V5 _' |: i
  164. Stream size : 16.9 KiB (0%)" ?$ N( z+ P4 I3 Q3 B
  165. Language : Japanese
    + W9 O- b$ i! r: S& Z& v: Q
  166. Default : No$ Y" C# x& P: p1 s/ q5 ?/ q5 s
  167. Forced : No
    , h8 I  f& u' A

  168. ) w& z8 n# K- j5 e) K6 @! j
  169. Text #102 r3 q! B1 u$ T3 x* H
  170. ID : 12
    4 I' B; {- N( C$ }1 g' s' b! o
  171. Format : UTF-8/ V9 ]# o6 M* f( j: m0 g- {+ z
  172. Codec ID : S_TEXT/UTF8
    2 n: N9 {5 F) R+ C. j
  173. Codec ID/Info : UTF-8 Plain Text. J; I5 ?7 \6 @9 D1 V$ g8 ]
  174. Duration : 45 min 19 s2 M0 ~- O" f# c2 F/ H
  175. Bit rate : 60 b/s8 r# A2 O. a7 e: a8 h3 J
  176. Count of elements : 701
    8 V& Q- d2 }& k; u. `
  177. Stream size : 20.1 KiB (0%)8 Y( r5 h' R3 y. ?+ ]1 G
  178. Language : Korean
    + R5 \6 H; D2 E7 R
  179. Default : No2 f. h. E5 Y: ^6 G+ P1 ?
  180. Forced : No
    ( x+ H8 P+ O- n' g8 s8 ?% C! F
  181. , \: k: p; Z) o
  182. Text #11
    / b% h% H% I6 g* U9 o1 K
  183. ID : 13, ~* s9 d/ f" g: U0 R% }% O
  184. Format : UTF-8! B. D7 u8 N5 ?( ^2 e
  185. Codec ID : S_TEXT/UTF8
    9 l" v, t1 a8 h3 \' ]) a, O
  186. Codec ID/Info : UTF-8 Plain Text" z  y: a" Q1 H. i& K# ]
  187. Duration : 45 min 19 s% z* p. a4 C/ u. l. v# w  D
  188. Bit rate : 58 b/s3 H7 N( u) f' F) c
  189. Count of elements : 696
    + Z) \' m/ o' K0 U9 g
  190. Stream size : 19.3 KiB (0%)
    3 u2 n4 i' }3 d! x# @8 d6 A
  191. Language : Malay
    2 h$ W2 v% M' `. d# E# b% R
  192. Default : No
      n  L  O) E/ M/ I5 r& N2 T4 t
  193. Forced : No
    4 p. c$ u0 R. a, T2 d
  194.   W& g+ m/ s& z; A
  195. Text #12
    8 u, l; @, D' M
  196. ID : 14
    , y! W/ W" N! i# }! E
  197. Format : UTF-86 w4 a8 {/ t' C& [, I
  198. Codec ID : S_TEXT/UTF87 q! H: T9 t( g/ O, m
  199. Codec ID/Info : UTF-8 Plain Text2 U  `: `! M' m% @
  200. Duration : 45 min 19 s
    . G# L8 b$ A3 B0 P
  201. Bit rate : 58 b/s
    1 d/ B3 c& n8 a: c) D
  202. Count of elements : 693" ^4 ~9 V5 {8 E
  203. Stream size : 19.6 KiB (0%)
    % y) ]. \/ T! [; Q
  204. Title : European
    " G+ ^$ P. R% u- w; A% h! H5 j
  205. Language : Portuguese. c% X6 L$ i6 f; s  o) U
  206. Default : No
    . t4 J6 @. j5 r% L  F
  207. Forced : No- {* n: a6 V9 m) z, }

  208. ; u6 Y6 I/ L! X3 n5 [
  209. Text #13
    # |- {! _7 c) {: x3 K2 C6 a
  210. ID : 15
    5 T3 A$ S+ W1 `( g/ a4 ~
  211. Format : UTF-8
    3 b( ?! X9 g+ b, X8 @0 O
  212. Codec ID : S_TEXT/UTF87 S8 _( {4 Q6 i8 P( v$ g
  213. Codec ID/Info : UTF-8 Plain Text
    : V9 ]. H2 g8 o3 @0 ?2 J9 l! P
  214. Duration : 45 min 19 s$ D: S' _9 i) M9 @
  215. Bit rate : 54 b/s
    6 V+ U6 H2 Q4 C
  216. Count of elements : 699
    2 {7 g# C! e% _' x( J
  217. Stream size : 18.2 KiB (0%)
    ' ~, K0 V- u# o' ~4 E& ~/ H
  218. Title : Brazilian6 B& M' _3 v" r& p
  219. Language : Portuguese7 _  N2 Y+ e0 o/ Y) C
  220. Default : No" |6 R6 ]" O8 T' J- T0 [( B
  221. Forced : No# u( l) o$ H$ o! e- {0 R

  222. / p, B* T' @, v% |8 T- P/ x- C  A
  223. Text #14
    % ?% S+ z6 m6 H. e: A  W% L
  224. ID : 16
    $ Z* c. H% }# o
  225. Format : UTF-8
    + A  b( P4 ]' Z* @$ Y$ s0 j
  226. Codec ID : S_TEXT/UTF8
    8 a" Z+ B& h" S9 V  J1 r
  227. Codec ID/Info : UTF-8 Plain Text
    5 l; I2 D& q- R5 O
  228. Duration : 45 min 18 s5 `& G3 k9 K) O0 p! t
  229. Bit rate : 150 b/s- J* e- E2 o4 w$ v/ I0 E: y
  230. Count of elements : 687
    2 ~& X6 n* \; @" [2 R4 X" j8 c8 y
  231. Stream size : 50.1 KiB (0%)
    $ F6 ?  L0 O7 ]( W, U" u9 a6 d- y
  232. Language : Thai6 d6 D! V. u3 G& O7 y7 z, F
  233. Default : No
    + a4 k" G2 Z9 _; v2 D0 k$ j
  234. Forced : No) B  t. c- B8 o; U4 A" J
  235. # u, h' H$ Q; b. z1 x7 w
  236. Text #15
    1 P, N, J: E5 w4 {" _% G
  237. ID : 17; x, _5 _2 r3 ?; F2 O/ O4 W  t
  238. Format : UTF-8
    7 `* r4 d. U2 E
  239. Codec ID : S_TEXT/UTF8
    9 b" }" S4 a0 J8 _) P
  240. Codec ID/Info : UTF-8 Plain Text) k; x8 E* y0 @7 _7 A7 J* \
  241. Duration : 1 min 42 s
    / c" ~  [: D7 ^: e+ }
  242. Bit rate : 10 b/s
    - x/ Q. [! |" g
  243. Count of elements : 2  B4 K2 w- z6 w
  244. Stream size : 132 Bytes (0%)( H# |" g5 j; H0 p/ O$ l$ Z& D
  245. Title : Forced
    2 o$ f' C( G* P& ?
  246. Language : Thai, L% T( d: Q4 F, }6 y9 }
  247. Default : No. e4 w$ |. \0 y; T7 u7 n: H5 L% z
  248. Forced : No
    7 ^; o+ K5 t$ I, @% G5 H
  249. 6 I8 [6 J+ J" S: C# W
  250. Text #16) q) I0 [& f& |: D
  251. ID : 18
    : ]+ i" L# X  ]# c9 V, [
  252. Format : UTF-84 j. V4 C1 \! U
  253. Codec ID : S_TEXT/UTF8
    ) [" K( W4 Y& C' ~
  254. Codec ID/Info : UTF-8 Plain Text
    # Z& b. u+ X5 m; R
  255. Duration : 45 min 19 s
    ; D1 a3 {) [' i; G' O- e7 g. c. Z
  256. Bit rate : 74 b/s8 b8 c; o  c  V; S) N+ {3 ~
  257. Count of elements : 695- L) p, ~! u. d+ B! j: Z) m
  258. Stream size : 24.6 KiB (0%)
      v* b  ?6 l5 w; d  J
  259. Language : Vietnamese
    5 I8 A  ^1 u) X- V
  260. Default : No. O3 u8 _5 Q$ a0 P3 x
  261. Forced : No3 y, o# B% Y9 f1 M; B$ Z3 a$ j
  262. : U! e( f2 W  e9 \
  263. Text #176 F" M+ P9 r4 r0 G5 @
  264. ID : 19+ p& n) C' A* u+ S* E8 t
  265. Format : UTF-8
    2 w& }( J. D. O! P% Z# [1 x
  266. Codec ID : S_TEXT/UTF8% Y: G1 ^# _  {6 Q1 m! |1 _+ \
  267. Codec ID/Info : UTF-8 Plain Text
    4 M4 U" j7 o$ s
  268. Duration : 45 min 19 s+ G4 E. L$ U3 n3 m
  269. Bit rate : 54 b/s- J0 v5 {# e! i
  270. Count of elements : 692/ |$ F; o4 |8 Z% F4 ~
  271. Stream size : 18.0 KiB (0%)5 ]* n( x( E% U# ~3 g
  272. Title : Simplified
    ' y/ a& h4 d9 I; j" C7 J  l0 A' N
  273. Language : Chinese! V! o# G5 X! v, r3 P, L4 L/ Q
  274. Default : No
    ) u5 K, J$ s2 r2 C
  275. Forced : No2 P. t, i9 p) V5 N9 i5 w

  276. ; P" y  {- F+ y5 j6 k: L
  277. Text #18
    ( O$ V3 Y) X* T; N" g2 n
  278. ID : 20) _) @& V( Q7 y! ], K! S" a( P
  279. Format : UTF-8
    ) C1 V2 }  T, x  J9 N8 u/ O
  280. Codec ID : S_TEXT/UTF8
    6 I$ |9 |, K( n. A( r5 ~; Q' E
  281. Codec ID/Info : UTF-8 Plain Text; N( @( r- o5 V* h9 o
  282. Duration : 45 min 19 s2 O3 \6 w  m7 {+ k# i' N* @
  283. Bit rate : 54 b/s) C6 o4 U2 ^0 {, y) E( ?
  284. Count of elements : 711) ]) A1 r  @2 v' v
  285. Stream size : 18.2 KiB (0%)
    * Z/ e) N( K* E7 H
  286. Title : Traditional0 A1 O! O) A! H3 a! e! @
  287. Language : Chinese
    9 o/ C+ ]( f: Q* {) n+ e! ]
  288. Default : No( u+ E  P2 p9 d  j  E$ y$ z
  289. Forced : No
复制代码
$ b2 R8 D! v6 ^2 ~3 O
+ I/ E1 k2 M: ^$ K. z3 W) H
6 u7 T  k% b0 V! Z6 y$ I5 Q7 V1 l& [- D

3 I3 c. Y# H0 _, I
/ p5 z! _% @$ H. s  ^% d0 d& `& w3 v& z' Z5 y
游客,如果您要查看本帖隐藏内容请回复  VIP可免回复查看隐藏内容 详情请点击
发表于 2019-12-16 19:14:08 | 显示全部楼层
多謝樓主分享!
发表于 2019-12-17 00:32:41 | 显示全部楼层
还从未看过泰国剧,都说是帅哥美女的主演。
发表于 2019-12-17 16:42:36 | 显示全部楼层
泰国剧  还行
发表于 2019-12-17 17:21:39 | 显示全部楼层
谢谢楼主分享高清版本
发表于 2019-12-17 21:22:12 | 显示全部楼层
感谢楼主分享好资源
您需要登录后才可以回帖 登录 | 立即注册

本版积分规则

QQ|封号公示|手机版|有问题发邮件到admin#(换成@)hd1tj.org|微博|免责申明|HD一条街

GMT+8, 2020-1-25 08:34

快速回复 返回顶部 返回列表