HD一条街

 找回密码
 立即注册
搜索
查看: 283|回复: 7

[1080i] 泰剧:烹饪小姐 全13集[自带中文字幕]Miss.Culinary.S01.THAI.1080p.NF.WEBRip.DDP2.0.x264-SPiRiT 22.6G

[复制链接]
发表于 2019-12-16 18:52:46 | 显示全部楼层 |阅读模式

马上注册,结交更多好友,享用更多功能,让你轻松玩转社区。

您需要 登录 才可以下载或查看,没有帐号?立即注册

x

2 ~; z+ b1 |: W; Y  {- i8 v                               
登录/注册后可看大图
- b& G( w$ n( C; D  U8 `
/ ^8 a7 E1 l, x. z9 Y% \
原名$ s7 b- k& d, J- }$ B5 J3 b
นางสาวก้นครัว( T; o. @8 @  p, A1 ~
简体中文名
9 I# R) B6 s# a烹饪小姐
7 g2 F7 s, ?: |: k1 {又名( V# Z9 Q* |1 W4 H/ W$ Z& V( R
Miss Culinary
" R. H2 F( z8 H: W主演
" I5 t$ }& u4 @3 d瓦妮达·特姆散纳波 Wanida Termthanaporn / 杰森·杨 Jason Young / Louis Thanawin Teeraphosukarn' K; n0 ]+ r4 Q$ i2 e0 {% n
类型% p& V7 r' [. C6 Y. E
剧情
6 }+ N% P# ^. q2 _, n制片国家/地区- [9 H5 [/ {3 ~  C/ H5 P8 t
泰国6 ]6 r' z: ~$ T9 W' Y( ^
语言3 W7 l3 R8 R7 D
泰语& j" @" Z0 t& Z! G' E
年份
; c9 }9 W0 P; ?2 ?4 X7 u2019' |9 F' Z( {; P- W) S3 b! Z& S9 j- x# J
首播日期. ?  Q( [6 Y2 |& ?
2019(泰国). x0 @& |5 [: K* H# S
集数4 a) ~6 M3 ~+ d  y1 T
13
6 V0 m9 f; h3 ?* _单集片长
! E7 E: S# F) h; S& w9 c47分钟
4 m6 E; `( ^) s9 v剧情简介' U: l5 h. {! \/ L0 o! b
"Miss Culinary" reveals the brilliance of a young man who tries to keep his girlfriend by telling delicious stories of his mother's recipes to win his girlfriend's heart back. With the story of his mother's life being sour, sweet, salty, spicy, it tells of a girl who ran away from her hometown in Uthai Thani province to face life in Bangkok in the 70s in order to fulfill her dream of being a chef at a 5-star hotel, along with love.@电视剧之家编辑整理
  1. Video
      T8 v% M2 z) t. ]' A* f: `
  2. ID : 19 ~- }' D$ l7 P  V4 R  ]5 s0 L
  3. Format : AVC
    7 ^% O0 f2 o  U3 `6 y
  4. Format/Info : Advanced Video Codec* Y6 c7 u3 j9 v1 u* ]7 s' ]
  5. Format profile : Main@L4) a+ @, v2 Q; l% J
  6. Format settings : CABAC / 3 Ref Frames
    " G# E' F/ Z$ U  `$ {0 i9 L
  7. Format settings, CABAC : Yes3 P+ p3 s  R, ^) {  m5 A. m1 ]
  8. Format settings, Reference frames : 3 frames
    : {7 _( H5 Z' R3 D* |1 W
  9. Codec ID : V_MPEG4/ISO/AVC
    . R: y) j  h  B) ]/ B+ q4 x
  10. Duration : 47 min 10 s
    * k7 n7 O/ {# B" F; q
  11. Bit rate mode : Variable1 p1 J/ S. j" _. N% M4 x
  12. Bit rate : 6 490 kb/s$ F- Y, v- n7 m+ i* J/ k
  13. Maximum bit rate : 9 735 kb/s
    ) D! N- F* K& d; {- Z& e" s7 P/ h  c
  14. Width : 1 920 pixels
    4 v; B* N; E" d5 K% }
  15. Height : 1 080 pixels
    1 a* m5 g' c6 ?5 V; L5 X
  16. Display aspect ratio : 16:9
    : r! P5 ]) C9 M, s
  17. Frame rate mode : Constant
    ; |3 q$ `; [, d4 Y, p$ e
  18. Frame rate : 25.000 FPS8 e: n/ @7 E, s* M& \
  19. Color space : YUV% ?. v/ q) Q4 w/ g! X0 F2 i
  20. Chroma subsampling : 4:2:08 I; `5 s* X; n, A' K+ a
  21. Bit depth : 8 bits
    ; j+ E# n4 I/ P9 l, J% d' z7 M* e9 B
  22. Scan type : Progressive; E6 _$ v! |" g: _; z
  23. Bits/(Pixel*Frame) : 0.125
    3 L: t1 D/ @( _4 I1 Y4 _3 h
  24. Stream size : 2.12 GiB (98%)
    . R" v/ n) Z! d
  25. Writing library : x264 core 148 r2715 7e75228
    2 q! i/ ~8 g7 b5 E
  26. Encoding settings : cabac=1 / ref=3 / deblock=1:0:0 / analyse=0x1:0x111 / me=umh / subme=10 / psy=1 / psy_rd=1.00:0.00 / mixed_ref=1 / me_range=24 / chroma_me=1 / trellis=2 / 8x8dct=0 / cqm=0 / deadzone=21,11 / fast_pskip=1 / chroma_qp_offset=-2 / threads=8 / lookahead_threads=1 / sliced_threads=0 / nr=0 / decimate=1 / interlaced=0 / bluray_compat=0 / stitchable=1 / constrained_intra=0 / bframes=2 / b_pyramid=0 / b_adapt=2 / b_bias=0 / direct=3 / weightb=1 / open_gop=0 / weightp=2 / keyint=250 / keyint_min=25 / scenecut=0 / intra_refresh=0 / rc_lookahead=50 / rc=2pass / mbtree=1 / bitrate=6490 / ratetol=1.0 / qcomp=0.50 / qpmin=6 / qpmax=51 / qpstep=4 / cplxblur=20.0 / qblur=0.5 / vbv_maxrate=9735 / vbv_bufsize=12980 / nal_hrd=vbr / filler=0 / ip_ratio=1.40 / aq=1:1.00
    + a! d" D  t( b6 h& ]0 _& b: K
  27. Default : Yes
    : I0 Y; S( R5 W5 v9 W
  28. Forced : No- c: U0 u* d9 N  S4 c3 r
  29. ; k0 N% X& @* X9 w0 I2 M
  30. Audio: h5 ~' w) M' U) x0 l$ Z! L5 K* X9 b
  31. ID : 2
    # w( v% Q) v1 Z( m* `3 w7 h. f" k
  32. Format : E-AC-3
    % C5 x7 M( x0 O6 {- h( I& K0 X+ X
  33. Format/Info : Enhanced AC-3
    ' C  n& J3 i, E2 |! K% @# H: z
  34. Commercial name : Dolby Digital Plus
    , [/ E: G- A- O7 y
  35. Codec ID : A_EAC3
    $ `9 G7 I3 e  O' X4 j/ c# t
  36. Duration : 47 min 10 s
    % G1 R/ ~! C6 f1 i& Q8 f
  37. Bit rate mode : Constant% t0 ]' `; t# F! P& Z
  38. Bit rate : 128 kb/s
    , a& e2 y% ~! J8 x
  39. Channel(s) : 2 channels: I2 {3 [+ M- D
  40. Channel layout : L R
    $ l# r; H1 u" [) D
  41. Sampling rate : 48.0 kHz9 M; n. |; p5 ]( t% d2 G+ a8 _
  42. Frame rate : 31.250 FPS (1536 SPF)
    : w0 g& R8 X- @4 S! }8 c
  43. Compression mode : Lossy
    # `4 g& [0 b; o8 ~- A+ M$ E
  44. Stream size : 43.2 MiB (2%)
    # P' ?0 Q. |# |8 n7 |5 z
  45. Language : Thai0 l4 N0 ]9 Y" g; e
  46. Service kind : Complete Main
    ; p% `6 Q" T2 b* X+ i  e
  47. Default : Yes/ a$ W- d  @2 w% @4 _
  48. Forced : No
    ! Z* e( b& y0 [. g- ]5 v

  49. 9 [2 |+ L4 F! k. v/ z" y7 @& a
  50. Text #13 R# @1 z6 [" j# W3 `( s$ l
  51. ID : 3- ?! W4 D8 _1 ?) l% W
  52. Format : UTF-85 x$ }  b* b! P
  53. Codec ID : S_TEXT/UTF8% T# Z3 g! r$ i( `& Q; e
  54. Codec ID/Info : UTF-8 Plain Text
    ) ^9 J6 n$ V* x1 t$ y: j- s
  55. Duration : 45 min 19 s; {9 q7 i: ~0 D9 \( k" F8 g
  56. Bit rate : 58 b/s
      L7 D5 G0 P6 v- w2 a& F) H& |
  57. Count of elements : 693$ h* A& n3 w9 ?2 C! [% |
  58. Stream size : 19.5 KiB (0%), u& A- {8 x( |$ E3 C8 t
  59. Language : English
    # Y$ d) h" @9 H0 |6 w) v
  60. Default : Yes
    ' Z* Y3 G# C& [8 _# R
  61. Forced : No# Y0 E$ J1 d+ P3 P& @+ O0 S

  62. . E4 D# q5 C7 [0 F+ E' B
  63. Text #2+ L& B& S1 x+ a9 g3 H" D6 o
  64. ID : 4
    0 ?& j+ |. P% J- Z6 s
  65. Format : UTF-8
    6 V: D# M/ u7 U+ s; I
  66. Codec ID : S_TEXT/UTF8
    0 \0 i* v1 O7 M: `! l
  67. Codec ID/Info : UTF-8 Plain Text8 Y( K: t/ v0 [. s
  68. Duration : 45 min 19 s8 p- `& I) O- ]! G" W
  69. Bit rate : 92 b/s
    ' F, n" E/ S! o& d; W( R9 y
  70. Count of elements : 6964 w$ n# V# ~* X
  71. Stream size : 30.6 KiB (0%)% s5 O$ g/ u3 }
  72. Language : Arabic1 s* i7 U  b/ g! J9 A; D
  73. Default : No
    6 g8 `2 C2 k! O& e
  74. Forced : No7 `# s) G2 }1 p$ L# m) t8 Y, c/ |

  75. 8 ~* M2 X3 O! Q0 a1 E
  76. Text #3; ^( H, p# B; E2 }: N
  77. ID : 5
    3 a; ]% G4 a9 q% @) x, B4 L. t
  78. Format : UTF-8  y  V9 t  N/ [6 a( e4 z. |
  79. Codec ID : S_TEXT/UTF8
    0 @% B' E7 M( M4 r& S. e3 z/ \
  80. Codec ID/Info : UTF-8 Plain Text4 ?0 r  x- `% u* n: U
  81. Duration : 45 min 18 s- v$ p9 ^( M7 D1 T
  82. Bit rate : 62 b/s$ d: {- L- p8 C6 C) A( l" C4 E8 p
  83. Count of elements : 693
    ' c" i2 g! G( m& o$ U
  84. Stream size : 20.7 KiB (0%)4 u' p9 q! u2 R& j2 h
  85. Language : German
    ! v9 l! t, [7 h& `2 w- r
  86. Default : No
    ! i) M7 s4 }4 O& H! X* L
  87. Forced : No
    0 t: V. m  {$ L- B
  88. 3 l/ v( U! G: X  r) ^' w) D
  89. Text #4
    " w( @! P% L  t4 k0 |: u% x
  90. ID : 6
    + D* z* x' c2 ?
  91. Format : UTF-8
    6 V6 P9 B, j: D: k$ l( D
  92. Codec ID : S_TEXT/UTF8  {+ I1 W1 p% {
  93. Codec ID/Info : UTF-8 Plain Text  [1 j0 S& B2 J  ]
  94. Duration : 45 min 19 s
    % @+ J* B0 D7 A$ C
  95. Bit rate : 59 b/s. c8 M* D# s2 k* o0 [
  96. Count of elements : 696/ F5 c# q: N9 m3 g# x
  97. Stream size : 19.7 KiB (0%)
    - b6 Q! Q+ J$ N9 V
  98. Title : Latin American
    - h$ A9 u  r5 m/ ^8 M5 I/ z
  99. Language : Spanish. k$ n+ R- z* e' s
  100. Default : No5 L0 e4 d( i5 O$ U
  101. Forced : No
    3 x: U% G0 L1 s
  102. 9 s% `9 b; V* G
  103. Text #5) p/ x$ J3 L' }3 e. _& B* u
  104. ID : 7
    0 L1 X4 ?( f) f: H" y4 x
  105. Format : UTF-8
    2 `1 Y. w" w) f9 G
  106. Codec ID : S_TEXT/UTF8
    9 h: s7 T9 ~. N/ j7 u, N  B
  107. Codec ID/Info : UTF-8 Plain Text
    * c) }( l0 n- i/ v8 @1 N3 s
  108. Duration : 45 min 19 s; \# B& p+ s% b- ^. V
  109. Bit rate : 58 b/s
    , r4 j  @! L+ H& K2 S: v0 `3 A
  110. Count of elements : 696
    - \7 M. D8 o* w6 c# i
  111. Stream size : 19.4 KiB (0%)! n) K: @7 F. e' m' c) |
  112. Title : European  I1 H, n/ ~# t2 B
  113. Language : Spanish
    , j9 o% X& m5 W
  114. Default : No
    ) o2 u- B5 \- K4 b$ t* X' v
  115. Forced : No$ @2 G* C: [- Z. |0 B! ~

  116. 1 C& |8 W" _7 {: Z( a- d
  117. Text #6
    : _) ^, e7 r$ l! U# S
  118. ID : 86 {6 ?- U/ p3 u  \$ {
  119. Format : UTF-8$ F4 m3 H6 ?' w. ?4 z, ^+ t" }
  120. Codec ID : S_TEXT/UTF8
    # v% Q7 s1 _- [% G0 Z. ^
  121. Codec ID/Info : UTF-8 Plain Text' ^! ^3 b+ Z- t/ @( i/ F( e
  122. Duration : 45 min 19 s
    ) S( A7 p$ S& q' K* D
  123. Bit rate : 64 b/s; l! X8 ~! b1 Z! B1 X8 y
  124. Count of elements : 6962 \' Y+ I& y! O3 J. y$ `/ U' M
  125. Stream size : 21.3 KiB (0%)
      p' y5 Q2 x6 A6 s3 J7 L
  126. Language : French( }" K) }/ s; Y* p2 G
  127. Default : No
    0 Q; Y. [$ S1 C/ x1 }( M0 J4 w: Y
  128. Forced : No
    0 M( j5 ]1 y0 H3 E8 z+ k

  129. : ]8 H! d! ^- f$ c5 y
  130. Text #7
    * x; ]4 X& E. ]. R/ D
  131. ID : 9
    4 a) D4 t% F% W) i% w8 T5 j
  132. Format : UTF-83 O* d9 e7 W1 b
  133. Codec ID : S_TEXT/UTF8
    & ?; X- d, B3 p2 Y$ ^4 h
  134. Codec ID/Info : UTF-8 Plain Text
    9 U! w) d+ w5 c  c! H* J( d" K
  135. Duration : 45 min 19 s8 N1 o3 d6 @* {% l. V$ j
  136. Bit rate : 60 b/s
    * W: N' R4 S8 \* E
  137. Count of elements : 696+ w* s) S7 {) ^9 Z( h+ I$ l$ P
  138. Stream size : 19.9 KiB (0%)( [" s5 M* ]! l8 x: g
  139. Language : Indonesian# B* u1 I. F1 O, p6 Q
  140. Default : No; z0 X" T" i  z8 C' ^
  141. Forced : No
      e# I, x; Z) Z6 ^4 p

  142. - ^# I6 C9 |9 {. f4 x
  143. Text #80 J& w: u3 d' d) [/ v2 Z- n
  144. ID : 109 W( P- s5 Z0 q" Z5 ?/ g3 N$ r2 q
  145. Format : UTF-82 w- z1 Z+ j% u: j3 n: J8 h
  146. Codec ID : S_TEXT/UTF8( i& D- a: h7 ?
  147. Codec ID/Info : UTF-8 Plain Text  {, C6 j9 l5 K& p; A
  148. Duration : 45 min 19 s2 k+ C  L. r4 l# U4 i
  149. Bit rate : 58 b/s# h, p+ q" }) v% z0 p
  150. Count of elements : 695. P" u& z* n' K& R6 r! m; |
  151. Stream size : 19.3 KiB (0%)
    8 c9 o- N5 s; q6 P8 P1 x- z+ o: k
  152. Language : Italian, z. j3 U# `! t+ T  _+ N
  153. Default : No
    + q+ U' K6 I; L9 C! ]/ ?$ N6 i
  154. Forced : No7 e: B' L8 W, B2 R7 m
  155. ' ?% ]% P& R1 l9 I/ Q
  156. Text #9* q7 f5 w( ~) D; m5 r( P3 J
  157. ID : 11# S$ q5 s9 E; ?. z
  158. Format : UTF-8
    . b$ L' F- ^% ^
  159. Codec ID : S_TEXT/UTF8
    ! ?1 Q0 w9 f4 D# C6 J  `
  160. Codec ID/Info : UTF-8 Plain Text
    ( u2 r$ J" T8 r% C* g# R
  161. Duration : 45 min 19 s
    6 l9 @2 B: i9 {9 r, f( H! Z/ A( h
  162. Bit rate : 50 b/s- {3 @# u8 q% ?% a. U: D9 B* G
  163. Count of elements : 655& l7 Z  G7 c) j; c- @* Z: u8 S
  164. Stream size : 16.9 KiB (0%)
    ! C. ]3 ^, ?' F" G7 Q4 j5 E
  165. Language : Japanese
    - ?% E( N( J$ X& K& T! l
  166. Default : No9 p& W7 l* y; ^, n  ^
  167. Forced : No" b% ~( d, S8 W5 @& \

  168. 2 \7 a# X$ H5 E5 W  D) M
  169. Text #10: k0 N$ A0 E& t8 x- A) j: G1 e% B
  170. ID : 124 P, ~" D) n# \
  171. Format : UTF-8( a9 Z; A, o! r' v
  172. Codec ID : S_TEXT/UTF8
    8 P- s, ?3 F( R8 e$ L: L. t
  173. Codec ID/Info : UTF-8 Plain Text# `) {1 ?  u' d8 O- O9 y/ ~( Q
  174. Duration : 45 min 19 s+ c# u4 [& Q; s; a
  175. Bit rate : 60 b/s
    ' \- y+ g2 U+ O+ M+ A5 ~# C# L4 w
  176. Count of elements : 701$ o" n% V$ f; t9 O
  177. Stream size : 20.1 KiB (0%)
    / V4 h! b! c! g0 g0 t+ l& B- E
  178. Language : Korean
    0 B8 l( {. |# q4 l
  179. Default : No
    5 G+ @0 \! L% r) A4 t
  180. Forced : No
    ! G5 ^' G1 J: s( }" ^2 v
  181. 1 i8 j+ ^  [0 b8 {' b$ W9 p+ |8 K% Q
  182. Text #11
    ( C7 Z4 t' s4 ?" v
  183. ID : 132 @" @5 c- E$ q7 g5 c9 m8 b
  184. Format : UTF-8
    # K* k5 F3 O; m3 g9 W9 a* I' A' O4 J
  185. Codec ID : S_TEXT/UTF8' [4 @0 X) d9 |8 t
  186. Codec ID/Info : UTF-8 Plain Text
    ; R7 s5 e2 Y8 N! I
  187. Duration : 45 min 19 s
    + d/ }1 F- r* j& B7 Q
  188. Bit rate : 58 b/s
    / ~! ?3 a/ h5 K( K, K2 N
  189. Count of elements : 696& d1 \/ Q7 G$ w& u6 q1 z9 }, e$ `
  190. Stream size : 19.3 KiB (0%); F) u& u, [2 c5 b8 y4 n
  191. Language : Malay
    9 i& n, i' v# }
  192. Default : No. i- Q& h+ Q" E+ @( Z
  193. Forced : No4 i+ b5 t( U8 m" C/ k5 o4 \0 l- B

  194. 4 v! b2 |! k5 ?2 U
  195. Text #12: B5 Q) r$ e/ V; T+ E6 N( j
  196. ID : 14  K& b8 D! C  C" x3 h
  197. Format : UTF-8. b) s- A; _7 `- N
  198. Codec ID : S_TEXT/UTF8
    ) ^  D3 x: u6 v5 W1 _& V/ T; K
  199. Codec ID/Info : UTF-8 Plain Text
    % @. T4 p! H4 H! H
  200. Duration : 45 min 19 s
    6 Y: d) y" v& F6 `# `, y0 X* q
  201. Bit rate : 58 b/s
    9 J. N" ~! q: ?4 i/ a) C- A/ B
  202. Count of elements : 693
    ( Z( R" a% U$ m4 E3 \( m2 C
  203. Stream size : 19.6 KiB (0%)- i9 E3 m$ m% l
  204. Title : European2 J3 L" x8 Q  V# }5 q
  205. Language : Portuguese
    , ~( Z8 I& {5 E6 O* {+ }3 V. O; f
  206. Default : No( U8 [9 Z6 i6 w9 H$ y
  207. Forced : No& T8 D. U: x) E8 F0 q5 y

  208. 1 e0 n  u$ v7 I3 W- @0 |
  209. Text #13
    ( s: W, ~/ I, p' ?' _% h' o  @
  210. ID : 15
    : Z7 P2 N. G5 h$ l) I" U
  211. Format : UTF-8+ r0 y: Z; n# Y8 v0 y+ }9 c0 c
  212. Codec ID : S_TEXT/UTF8' S" X' _6 D3 ?2 b
  213. Codec ID/Info : UTF-8 Plain Text- I* V4 r9 t5 _& S* a' }$ e
  214. Duration : 45 min 19 s) N2 {  ?7 G& ]9 W8 e
  215. Bit rate : 54 b/s7 r$ q! R( `; M8 `
  216. Count of elements : 699
    0 d) ]! y! W: ]5 v7 {! I" g
  217. Stream size : 18.2 KiB (0%)7 s5 B2 o1 j8 u1 h9 V/ T1 q
  218. Title : Brazilian+ y! u0 g% D3 r9 m
  219. Language : Portuguese
    5 f0 |/ M# W/ A/ L  r! a
  220. Default : No
    8 p4 E% U& i, {5 ~9 D7 \+ U
  221. Forced : No: l1 c: O% E; u( m
  222. , e. r$ n- y1 C+ b' R: z7 h5 f8 i
  223. Text #14
    ( O3 m( b6 m) R( }$ f0 N, Z
  224. ID : 16
    ( f) p" [$ b9 L/ W1 M+ }) n% i/ T! Y, C( @
  225. Format : UTF-8
    * _& X& w8 X) X" ~
  226. Codec ID : S_TEXT/UTF8
    * g; }9 X+ h+ B% k) [
  227. Codec ID/Info : UTF-8 Plain Text
    0 U  M, b0 ^3 o3 C, n/ z: b8 o
  228. Duration : 45 min 18 s
    ! H* H* j; D6 q# q- ^
  229. Bit rate : 150 b/s
    : s2 r1 ~3 _9 y7 H; W
  230. Count of elements : 6876 V: W! y' h' J- G% I0 f$ l
  231. Stream size : 50.1 KiB (0%)
    " _7 f" p3 }5 O6 R; F
  232. Language : Thai* c0 V' s) P6 `" x7 [; j- O
  233. Default : No; M/ G  H( Y+ j! S9 X  U
  234. Forced : No
    2 ]6 O3 ?" V: O" m- S

  235. $ ?, u+ A9 Y% T2 x: I7 H1 p3 y
  236. Text #152 Z2 }! j! d! N! Q
  237. ID : 173 e" H  V% O3 \' i* h0 S2 y
  238. Format : UTF-8
    ( k; E- n$ ^/ F# D5 r
  239. Codec ID : S_TEXT/UTF8
    9 `5 E* U6 l( U" S3 E9 v( e0 C) J
  240. Codec ID/Info : UTF-8 Plain Text) C4 j; V' P& u9 |; ~
  241. Duration : 1 min 42 s
    $ w( e/ a% a* b& `
  242. Bit rate : 10 b/s
    5 z. u/ Q* z. x4 ]6 M/ j& P
  243. Count of elements : 23 D' F6 E" ^* `/ U  i: T5 f
  244. Stream size : 132 Bytes (0%)
    ) C0 m9 ^3 O2 N
  245. Title : Forced. _# o; g/ I. D
  246. Language : Thai
    ) w, l* }& V& g' c( h* v5 `* C! ^* H
  247. Default : No
    ) R1 s& Y0 X  Z! H- Q2 N( l" }
  248. Forced : No
    # x: y8 k( j7 Y2 M( N* R4 b1 v% u
  249. & {$ g2 B' Y" [- d: S6 a
  250. Text #16
    9 [- V' X: }; R/ ~
  251. ID : 18
    9 j) _' o3 H. ]0 h6 b
  252. Format : UTF-8, b2 A2 k' R4 N- b' X
  253. Codec ID : S_TEXT/UTF8: A# l0 E1 h! V/ c) o) v4 d
  254. Codec ID/Info : UTF-8 Plain Text$ I8 R) R% z. F/ L
  255. Duration : 45 min 19 s
      j. L& u: E- h2 ^) d* E2 f
  256. Bit rate : 74 b/s  V5 _3 i: m6 [
  257. Count of elements : 695
    - Z/ I9 H; W2 E
  258. Stream size : 24.6 KiB (0%)4 l% A9 F& [3 g0 B9 v
  259. Language : Vietnamese! N( {/ F' ]& A: H
  260. Default : No
    7 q7 c; e% Q6 r/ y
  261. Forced : No; m, n: J% r  M+ {5 L6 j

  262. # K; \) S% n& J& Q
  263. Text #175 k( E, x& }6 r* b
  264. ID : 19  b4 M# R8 Y" Q! z7 f
  265. Format : UTF-8
    9 W1 z: s% o! X( ~3 }5 r( P
  266. Codec ID : S_TEXT/UTF8& j: x& B  |) n% w
  267. Codec ID/Info : UTF-8 Plain Text4 E3 x1 b# G2 F4 D# g, P3 l! d
  268. Duration : 45 min 19 s
    ' z0 n$ n8 V5 @5 |3 O( u
  269. Bit rate : 54 b/s
    $ r  i* ^) o5 g8 N# R
  270. Count of elements : 692
    - ]) n) @# W8 D/ U- |
  271. Stream size : 18.0 KiB (0%)
    7 _6 b) D8 ^1 N" h  O
  272. Title : Simplified$ D1 R) a% p1 C& Y* W
  273. Language : Chinese4 D: |' B3 }) v
  274. Default : No
    $ Q: {6 x! `! @  C: X  Z" D
  275. Forced : No) [6 O8 ^9 N) u. E: l6 s$ r0 x

  276. 4 v8 O5 T# x9 H( J  c
  277. Text #18
    2 y( X$ z) a: m. B
  278. ID : 20
    + [  U7 W" ]" C; f
  279. Format : UTF-8
    6 X% y  m8 U' E+ ?. P- e& k! l8 t
  280. Codec ID : S_TEXT/UTF8
    . \3 v3 x" u& U# _" V6 U: Z
  281. Codec ID/Info : UTF-8 Plain Text6 o  M. @3 z, r( w
  282. Duration : 45 min 19 s
    ( i+ J/ i1 [9 T8 Q- B4 ^4 {( |; W# \
  283. Bit rate : 54 b/s
    8 l" ?% \/ W7 C& K! ?" p# t
  284. Count of elements : 711
    # ^0 x3 n0 X; T7 E
  285. Stream size : 18.2 KiB (0%)4 c2 u; G9 W# p& \! K
  286. Title : Traditional7 J, Z2 Y  f+ v
  287. Language : Chinese) D* I3 b* E& c! Y+ x( d/ C1 n
  288. Default : No! J& q; [. V1 j" N
  289. Forced : No
复制代码

+ w: s( D, k+ U% c! C$ z2 M
4 P0 F6 ^: I7 H2 a& T" M1 j/ r( z2 s4 Q) S9 c9 s# t

- g6 g0 r! k6 ?$ ^+ b2 u# ]$ y1 Z- k0 W. g2 G4 i1 u

9 x# V3 i; ]" l
游客,如果您要查看本帖隐藏内容请回复  VIP可免回复查看隐藏内容 详情请点击
发表于 2019-12-16 19:14:08 | 显示全部楼层
多謝樓主分享!
发表于 2019-12-17 00:32:41 | 显示全部楼层
还从未看过泰国剧,都说是帅哥美女的主演。
发表于 2019-12-17 16:42:36 | 显示全部楼层
泰国剧  还行
发表于 2019-12-17 17:21:39 | 显示全部楼层
谢谢楼主分享高清版本
发表于 2019-12-17 21:22:12 | 显示全部楼层
感谢楼主分享好资源
发表于 2020-7-7 00:04:06 | 显示全部楼层
剧情非常搞笑
发表于 前天 20:58 | 显示全部楼层
舌尖上的泰国
您需要登录后才可以回帖 登录 | 立即注册

本版积分规则

QQ|封号公示|手机版|有问题发邮件到admin#(换成@)hd1tj.org|微博|免责申明|HD一条街

GMT+8, 2020-8-7 06:51

快速回复 返回顶部 返回列表