HD一条街

 找回密码
 立即注册
搜索
查看: 33|回复: 6

[日韩] 双层公寓:夏威夷[自带中文字幕]Terrace.House.Aloha.State.S01.JAPANESE.1080p.NF.WEBRip.DDP2.0.x264-AJP69 52G

[复制链接]
发表于 2019-12-16 18:39:30 | 显示全部楼层 |阅读模式

马上注册,结交更多好友,享用更多功能,让你轻松玩转社区。

您需要 登录 才可以下载或查看,没有帐号?立即注册

x

& c0 x% P$ k+ U7 b4 [0 M7 B                               
登录/注册后可看大图

% {6 g, M. y/ }, Q: J
+ c8 L/ d$ s8 @, [. F& x; u; s( T◎译  名 双层公寓:夏威夷 / テラスハウス ALOHA STATE / 二层公寓:夏威夷 / 双层公寓+ j7 s1 T% W6 `) u( c% ~
◎片  名 TERRACE HOUSE ALOHA STATE
- Y/ ]2 S: G" \" U( Z' `2 j/ x# z◎年  代 2016
+ U2 D2 Z1 Q$ U5 Y◎产  地 日本
0 h- m5 P5 j) K4 y' T  N◎类  别 真人秀$ \" E3 w/ [0 O: i
◎语  言 英语 / 日语
! }. ?5 l$ ?6 G8 d9 u7 Z  x; L- Z◎上映日期 2016-11-01(日本)
3 h4 d" r( Q* R. i# Z7 u( h: n◎IMDb评分  7.5/10 from 615 users
' L, I3 t4 _8 f; T! X◎IMDb链接  https://www.imdb.com/title/tt6588218: j5 I+ P' G5 D1 `0 J
◎豆瓣评分 8.0/10 from 706 users0 y( G  m/ X8 u! X- W; t
◎豆瓣链接 https://movie.douban.com/subject/26933694/7 |" t. A0 h8 J! b; u1 _
◎集  数 36
& {1 {8 _; h" h/ X) Q! P◎片  长 30分钟, p3 j" z* q3 m* D, l
◎导  演 前田真人
7 H" f% ~- U9 F1 b, u. j7 t# I◎主  演 Yuya Shibusawa
3 W! c% U9 `; ]8 _" [1 l       Eric De Mendonca. j, a- o) _' S! ]8 S3 l( |0 m8 P
       Yusuke Aizawa. P, @* W; W! y% Q& k2 h
       劳伦·蔡 Lauren Tsai
! g4 O9 s# Q) G7 W/ l% o, O       Avian Ku$ a  u6 u* s" `' H
       Naomi Frank
/ a& ^# A3 i9 l3 a6 {5 V       YOU7 o, ^1 Y/ ^% d1 z
       特林德尔·玲奈 Reina Triendl- ]% d; B% ?. e9 x6 w' M
       德井义实 Yoshimi Tokui) Q3 ~4 @0 h; L3 ]8 }; m$ o* q
       马场园梓 Azusa Babazono" R0 l; v- F, q5 ]1 O7 S+ q
       山里亮太
' ]" ]6 t- ~( Q1 Q       健太郎 Kentaro/ e/ R* L" o( b2 b, I4 t

$ U1 f: Y+ d* [! D0 e8 b- _/ q' }! Y" J; A
◎标  签 日本 | 真人秀 | Netflix | 综艺 | 日综 | 2016 | 日剧 | 2017
. l3 P% c6 g4 N7 j1 v0 l3 Z9 u$ [. [: j4 v! B" r  e/ N  B
◎简  介  3 c% Z9 ^, J4 ]. {
  G( D, f8 v' \' ]1 U
  湘南、東京と、舞台を移してきたテラスハウス。* O% y7 Y7 u; x) f/ \3 K
  つぎなる舞台は…ハワイ!
& N" `. C! |6 _  この美しい島に集う、
  B- D1 {- j+ e- P2 U( `7 {  見ず知らずの男女6人の日々は…?
$ [% e- B1 I7 |9 b. g! g* {1 _' r  用意したのは、青い空と青い海。; y) O5 p$ k$ ^6 Q3 ~2 ~7 ^8 L
  台本のない青春が再び、はじまります。
  1. Video9 O' V. _) i/ A- s
  2. ID : 1
    + s# q3 r+ c& j- Q
  3. Format : AVC! B. L, x) _% Y  a7 r
  4. Format/Info : Advanced Video Codec
    - ^; I- ]. X4 `  b0 V" V/ H! e( ~
  5. Format profile : [email protected]
    ' i; g, h; H6 I. [
  6. Format settings : CABAC / 3 Ref Frames
      G& z& L. n( n3 b4 T  q
  7. Format settings, CABAC : Yes5 Q: G* Z" s' c' @
  8. Format settings, Reference frames : 3 frames
    " X' Z" m" f7 L4 s
  9. Codec ID : V_MPEG4/ISO/AVC" K; q# Z6 O8 `* ~1 e8 {
  10. Duration : 38 min 26 s
    - x1 |- r" P* I- b+ U- l9 G
  11. Bit rate mode : Variable
    5 O! B" w# L. i) O/ b1 i! C
  12. Bit rate : 7 150 kb/s  k' Q/ ~( |) |  C
  13. Maximum bit rate : 10.7 Mb/s7 }& ~* D# N; _" R& t
  14. Width : 1 920 pixels
    ( `# y) w7 L; M
  15. Height : 1 080 pixels
    1 X: B5 ^0 }0 T, z: {
  16. Display aspect ratio : 16:9$ g% E3 ?  l( {' ^6 Q7 G! b3 J2 g
  17. Frame rate mode : Constant
    . p  w; G  e$ H! }1 q
  18. Frame rate : 23.976 (24000/1001) FPS; O7 H5 s# t8 W6 C5 a% {
  19. Color space : YUV7 v. V2 c) |% j/ @1 u7 j
  20. Chroma subsampling : 4:2:03 c2 `2 P; T. h* }
  21. Bit depth : 8 bits; \; e: L# D: ~6 E4 V
  22. Scan type : Progressive
    - w8 j$ U8 b) Y0 j8 |2 H$ l
  23. Bits/(Pixel*Frame) : 0.144
    ! J; X' ?/ n6 B
  24. Stream size : 1.92 GiB (98%)6 v# H8 q2 }, @: x4 S* q" i
  25. Writing library : x264 core 118
    ! G2 p" D" G- i! f/ U5 d" s, E3 Q2 D
  26. Encoding settings : cabac=1 / ref=3 / deblock=1:0:0 / analyse=0x1:0x111 / me=umh / subme=10 / psy=1 / psy_rd=1.00:0.00 / mixed_ref=1 / me_range=24 / chroma_me=1 / trellis=2 / 8x8dct=0 / cqm=0 / deadzone=21,11 / fast_pskip=1 / chroma_qp_offset=-2 / threads=8 / sliced_threads=0 / nr=0 / decimate=1 / interlaced=0 / bluray_compat=0 / constrained_intra=0 / bframes=2 / b_pyramid=0 / b_adapt=2 / b_bias=0 / direct=3 / weightb=1 / open_gop=0 / weightp=2 / keyint=48 / keyint_min=25 / scenecut=0 / intra_refresh=0 / rc_lookahead=0 / rc=2pass / mbtree=1 / bitrate=7150 / ratetol=1.0 / qcomp=0.50 / qpmin=6 / qpmax=51 / qpstep=4 / cplxblur=20.0 / qblur=0.5 / vbv_maxrate=10725 / vbv_bufsize=14300 / nal_hrd=vbr / ip_ratio=1.40 / aq=1:1.00
    3 G1 ?! O+ t( r% G+ o
  27. Default : Yes0 S9 u5 o) t/ v: G# v/ ^" Z# U/ o: G
  28. Forced : No
    / [3 k- F! n9 b6 Z3 d$ V+ \7 h
  29. 2 S, [- I- R. H) l5 |
  30. Audio
    % i* N! o6 G9 |* V. |
  31. ID : 2
    3 @/ [8 a+ }- X% d9 x7 ~
  32. Format : E-AC-30 E7 W* w) B/ J3 W
  33. Format/Info : Enhanced AC-30 |( g- c8 I: [) @& P
  34. Commercial name : Dolby Digital Plus
    9 v5 D: w: k4 @! b( z7 {
  35. Codec ID : A_EAC30 w! `' R7 l/ u! Y- ?$ o$ q
  36. Duration : 38 min 26 s
    1 i# f; b5 {6 t1 V7 s( O$ C
  37. Bit rate mode : Constant
    - V/ e( M7 e* S
  38. Bit rate : 128 kb/s
    8 T# o% G4 V  T) P9 c/ x
  39. Channel(s) : 2 channels
    3 f; v! b& |! G# C0 ^! j
  40. Channel layout : L R: g* M- l$ [, q$ O
  41. Sampling rate : 48.0 kHz# j& V# S, P7 {8 L) n
  42. Frame rate : 31.250 FPS (1536 SPF)
    $ P" j4 v- F, @$ [
  43. Compression mode : Lossy
    3 }; ~% Z2 T/ k* u+ x( D* |
  44. Stream size : 35.2 MiB (2%)
    9 S3 Y# z& b1 x, p6 b0 \
  45. Language : Japanese
    $ ^8 P9 O) X: x2 |( T+ B* S& P
  46. Service kind : Complete Main
    - q4 h/ B) z2 a% K. k  Y& Q
  47. Default : Yes$ H4 B  }' `. D, T3 }3 C
  48. Forced : No" S0 o* m- t- f1 w/ \

  49. . a. J9 S' n& m: W* a8 @
  50. Text #14 o( U; N! C. Y4 N; Y  @$ B7 E
  51. ID : 32 i5 r, f8 y( S. l. b) w: Z
  52. Format : UTF-84 d  Q4 h/ C# L! j( B/ x. j) s- r
  53. Codec ID : S_TEXT/UTF82 p( a0 X- v% y9 N
  54. Codec ID/Info : UTF-8 Plain Text
    3 Q- R1 ~" [' b% U6 W5 n
  55. Duration : 37 min 48 s& S# f( c. I( K' B; q
  56. Bit rate : 71 b/s; L& C9 u- s* M' G
  57. Count of elements : 577
    / ^* l( R5 `8 y8 I% U
  58. Stream size : 19.7 KiB (0%)
    : A! ]9 a; V0 i  g* y3 }
  59. Language : English* l* L& ?8 t# ~! ?7 G8 L2 Q
  60. Default : No& @$ G7 H$ B/ a* X
  61. Forced : No0 x4 \, F0 b: g  N  `4 B
  62. 0 \9 u, h- O4 }8 E& R, U
  63. Text #25 q; r: z  O  H
  64. ID : 4
    : `0 s# ^9 \% K* j. Y
  65. Format : UTF-8
    * c# }$ O" D: [  ~
  66. Codec ID : S_TEXT/UTF8
      l) z  i3 x7 @8 u! z, H& ?
  67. Codec ID/Info : UTF-8 Plain Text
    - N& ?4 e  y: r% G; q0 ~- y
  68. Duration : 38 min 14 s. t5 X: k. X+ I$ B1 [
  69. Bit rate : 73 b/s
    , Q: C7 s, R0 V7 W2 j" A* y# N
  70. Count of elements : 600) M; O1 ~( U$ @9 k+ T
  71. Stream size : 20.5 KiB (0%)
    * M2 A% j' Z2 d0 z* d( n9 p
  72. Language : Spanish1 R. z& e, ?, Z' u+ y" h( b* K
  73. Default : No
    ! [9 X6 D3 |: x+ b- o& m' V" N
  74. Forced : No- F6 ?$ l/ ]0 U6 Z! G

  75. ' V% J) Z! L4 l8 g2 W3 u; T
  76. Text #3
    . n( O# i7 v" D" g
  77. ID : 5% p' S; `+ U' L0 b3 H7 n
  78. Format : UTF-8: x4 `; m8 R6 s8 x: U
  79. Codec ID : S_TEXT/UTF86 [) g1 G! ?% o$ m* m$ q' D
  80. Codec ID/Info : UTF-8 Plain Text
    1 Z# o5 Z$ K1 L6 ?1 C  e- @1 e0 J
  81. Duration : 37 min 49 s7 ]6 E, W+ H/ u7 z' C" B: k3 |1 A
  82. Bit rate : 124 b/s$ {2 J# p, {' I6 {7 F& a! Z3 W
  83. Count of elements : 732
    $ `/ C2 B% _1 q4 S3 h1 ?$ N
  84. Stream size : 34.5 KiB (0%)' k7 d. b* u$ o) G- f
  85. Language : Japanese
    0 U. F5 L0 m$ v0 V
  86. Default : No
    5 P) `% _3 F; f& m0 B; f
  87. Forced : No
    : y. z  \1 X2 P% O

  88. 6 P' n; d* J, A/ r5 ]
  89. Text #4
    4 q  n) R% n& M! I
  90. ID : 6
    1 t6 w. E; C$ w, Q5 Q. N; V$ \' m7 V
  91. Format : UTF-8
    ( E9 G5 _$ o3 |4 G) b7 F
  92. Codec ID : S_TEXT/UTF86 \5 G3 Q1 v1 h7 k
  93. Codec ID/Info : UTF-8 Plain Text- p8 c- a0 Q' _0 \
  94. Duration : 38 min 2 s
    ' m) W: z! c3 D" [5 F/ ^
  95. Bit rate : 76 b/s7 f% x/ R) a1 |& d$ v
  96. Count of elements : 744
    ! n  p. r7 D6 [3 s* I. p: {
  97. Stream size : 21.3 KiB (0%)
    1 l* c1 l( W  J
  98. Title : Simplified0 i3 q: F% o' q' a# N
  99. Language : Chinese- g" S* y3 k6 X& a4 b" A, t5 b
  100. Default : No1 k  |- p6 S9 _
  101. Forced : No
    2 u+ U6 B- s; ]5 N0 M# @0 [8 k4 }, ]3 Z

  102. ' u  `# t6 o) e! k# r4 ^- \6 S" m; o
  103. Text #5
    ; q$ F4 ~! F. U1 M# E+ H
  104. ID : 7
      o0 a5 t$ J- U
  105. Format : UTF-8& g8 j" t3 Z% ]3 d' A$ X
  106. Codec ID : S_TEXT/UTF8
    8 G: e( R& j# V) _4 R
  107. Codec ID/Info : UTF-8 Plain Text
    . h# `6 X# T  A# o/ z
  108. Duration : 38 min 2 s
    % u1 A2 D2 Z; o' T
  109. Bit rate : 77 b/s' Z5 B# q( O* R; _1 E" J  w
  110. Count of elements : 741
    , x# z0 U! B- j5 o7 ^! P
  111. Stream size : 21.5 KiB (0%)
    # X) b7 u$ z: P( S' l
  112. Title : Traditional
    + }+ O: y% O9 x  P! w% [; I2 N
  113. Language : Chinese
    # N% t7 v; A6 g1 o" X8 e
  114. Default : No
    : k0 l, b+ j* P$ V
  115. Forced : No
复制代码
) @+ f4 X3 q* B, j

- Q7 s4 I& `& p9 Q8 b  Q8 u& E" k' y' B6 x6 B* C
4 m7 j$ _" l/ G# |  V3 K

9 m+ Z2 Q/ ?% i: y( ~/ @+ v; i0 p2 s( n
游客,如果您要查看本帖隐藏内容请回复  VIP可免回复查看隐藏内容 详情请点击
发表于 2019-12-19 08:58:00 | 显示全部楼层
谢谢楼主提供资源。
发表于 2019-12-22 08:31:56 | 显示全部楼层
日剧要试看
发表于 2019-12-25 02:32:52 | 显示全部楼层
thank for share
发表于 4 天前 | 显示全部楼层
双层公寓系列一直都是超高人气的真人秀,但是国内似乎非常冷门。
发表于 4 天前 | 显示全部楼层
完结剧的吧?
您需要登录后才可以回帖 登录 | 立即注册

本版积分规则

QQ|封号公示|手机版|有问题发邮件到admin#(换成@)hd1tj.org|微博|免责申明|HD一条街

GMT+8, 2020-1-22 07:33

快速回复 返回顶部 返回列表