HD一条街

 找回密码
 立即注册
搜索
查看: 353|回复: 8

[日韩] 双层公寓:夏威夷[自带中文字幕]Terrace.House.Aloha.State.S01.JAPANESE.1080p.NF.WEBRip.DDP2.0.x264-AJP69 52G

[复制链接]
发表于 2019-12-16 18:39:30 | 显示全部楼层 |阅读模式

马上注册,结交更多好友,享用更多功能,让你轻松玩转社区。

您需要 登录 才可以下载或查看,没有帐号?立即注册

x

# C9 r* u1 Y$ b6 F( g                               
登录/注册后可看大图

$ d% U4 _+ u# [; t0 h1 q$ x2 ~
7 K) \3 X  h/ l. p8 V, l" n. E◎译  名 双层公寓:夏威夷 / テラスハウス ALOHA STATE / 二层公寓:夏威夷 / 双层公寓7 D  y" ?) J' N2 `- H: Q
◎片  名 TERRACE HOUSE ALOHA STATE
* Z6 r* t& k* X7 u7 t; w9 H& g◎年  代 2016$ w9 @" d  _, w/ P, Z$ o$ X9 g
◎产  地 日本6 |. I7 x6 J. f8 V
◎类  别 真人秀
; b3 Z" l4 a8 S◎语  言 英语 / 日语" w% a) @, O, v1 y9 s; H0 g
◎上映日期 2016-11-01(日本)
7 b$ r. _$ v- L. N◎IMDb评分  7.5/10 from 615 users4 ^; u; u" C& d/ d5 n4 a
◎IMDb链接  https://www.imdb.com/title/tt65882182 Y6 t) a' G6 @5 {
◎豆瓣评分 8.0/10 from 706 users
4 q' a  j% T( T9 p, ^0 |! H◎豆瓣链接 https://movie.douban.com/subject/26933694/4 S; V( A6 @/ X0 b) H6 j7 k
◎集  数 366 B; Z4 O* ~. Q  V
◎片  长 30分钟
6 O/ C$ d9 }1 O0 ]◎导  演 前田真人4 ~9 L5 N1 _: X9 D- o2 Y
◎主  演 Yuya Shibusawa1 y7 s4 d! s8 z; z$ y8 _
       Eric De Mendonca. @% T$ r( Q( Q: O/ x
       Yusuke Aizawa5 P3 S; ^  c! O1 S- W9 b9 A9 |
       劳伦·蔡 Lauren Tsai4 ]6 i3 N- d: E' u7 ^
       Avian Ku3 V6 s7 G9 m: c- ?
       Naomi Frank
# Y, a2 H' t8 r7 R       YOU
, s, s5 \) X  Q8 m3 Z7 v- \       特林德尔·玲奈 Reina Triendl- v0 `" ~( M. q2 c$ V
       德井义实 Yoshimi Tokui4 a4 n" @$ o% K7 O. u
       马场园梓 Azusa Babazono
& I5 z- r, g2 y2 d; r: q3 C/ x, L       山里亮太
" Z) E% a7 U6 r# ^       健太郎 Kentaro
4 |: N& B8 N1 u
' j4 r1 Q7 N; |: }
1 t$ m$ w2 \! u# l6 H. C5 m: R◎标  签 日本 | 真人秀 | Netflix | 综艺 | 日综 | 2016 | 日剧 | 2017& h) W9 F/ s" _/ p+ [! ^$ E& G
. G# q# U+ W5 w
◎简  介  - ~" `) p2 x/ N" v. _" ?

& U1 i- U( c1 W$ I0 c  湘南、東京と、舞台を移してきたテラスハウス。
. ?, H3 N5 T6 L+ ]6 S  つぎなる舞台は…ハワイ!
) m7 [- d% T6 O! w( a( u  この美しい島に集う、
6 ]( g- K( R% W. i+ d0 Y9 y  見ず知らずの男女6人の日々は…?
1 e- X/ [/ ^  T. d$ h4 H  用意したのは、青い空と青い海。$ F8 M! S0 G2 d
  台本のない青春が再び、はじまります。
  1. Video
    - @) u" y4 \- _. U8 l
  2. ID : 19 x" g0 T' e8 y9 M  V$ F1 ], h
  3. Format : AVC
    ! I7 v$ o/ z3 M; m/ O: b8 V' J
  4. Format/Info : Advanced Video Codec
    & f: N# s$ B) Y" U
  5. Format profile : Main@L4
    * Z+ J; n' ^% D' Q9 |
  6. Format settings : CABAC / 3 Ref Frames
    5 w! k( ~6 g/ C+ R) W: W$ t
  7. Format settings, CABAC : Yes
    9 y5 s. J6 b: e9 |& T7 z
  8. Format settings, Reference frames : 3 frames+ k# w  C+ h8 y0 J% |" t
  9. Codec ID : V_MPEG4/ISO/AVC
    : `" n2 b/ R# o
  10. Duration : 38 min 26 s5 ?1 z* [7 f! u# m+ I
  11. Bit rate mode : Variable
    + b6 @, \8 N8 y; }
  12. Bit rate : 7 150 kb/s
    7 n! o# ^( C# O" u1 \, D# }
  13. Maximum bit rate : 10.7 Mb/s! q! b/ ]: H( c% P9 W) K/ C
  14. Width : 1 920 pixels- i- ]+ i! Y* @! q8 _$ m- k
  15. Height : 1 080 pixels
    / |4 w9 a; x7 A# d7 y8 w5 C+ X. n
  16. Display aspect ratio : 16:9
    4 Z4 x8 S' v0 t+ b
  17. Frame rate mode : Constant
    / g( q* g( N# _. P! J; f& X7 \
  18. Frame rate : 23.976 (24000/1001) FPS) B# E5 R1 O5 W; K0 }- I" _) @. K
  19. Color space : YUV9 O: @) {$ W9 ]6 u
  20. Chroma subsampling : 4:2:0. B4 U$ s  Y5 b5 [  D& S
  21. Bit depth : 8 bits
    ! E" l$ G" \' t$ s
  22. Scan type : Progressive
    4 c( o5 n# T& V- _* V
  23. Bits/(Pixel*Frame) : 0.144- J3 y' _: Z( O1 v5 N' p
  24. Stream size : 1.92 GiB (98%)4 h' p3 ]. C2 [1 i# d
  25. Writing library : x264 core 118$ b; q. e1 V  F; ^  f3 Q. [4 J1 E% Y
  26. Encoding settings : cabac=1 / ref=3 / deblock=1:0:0 / analyse=0x1:0x111 / me=umh / subme=10 / psy=1 / psy_rd=1.00:0.00 / mixed_ref=1 / me_range=24 / chroma_me=1 / trellis=2 / 8x8dct=0 / cqm=0 / deadzone=21,11 / fast_pskip=1 / chroma_qp_offset=-2 / threads=8 / sliced_threads=0 / nr=0 / decimate=1 / interlaced=0 / bluray_compat=0 / constrained_intra=0 / bframes=2 / b_pyramid=0 / b_adapt=2 / b_bias=0 / direct=3 / weightb=1 / open_gop=0 / weightp=2 / keyint=48 / keyint_min=25 / scenecut=0 / intra_refresh=0 / rc_lookahead=0 / rc=2pass / mbtree=1 / bitrate=7150 / ratetol=1.0 / qcomp=0.50 / qpmin=6 / qpmax=51 / qpstep=4 / cplxblur=20.0 / qblur=0.5 / vbv_maxrate=10725 / vbv_bufsize=14300 / nal_hrd=vbr / ip_ratio=1.40 / aq=1:1.00% \; J) d+ q, l
  27. Default : Yes* G2 i, X+ |% f
  28. Forced : No5 l+ R& ~0 X& q' D; D1 `2 l( y

  29. * V' v# p; R; o0 l
  30. Audio: H6 q* l7 n8 o; t- \3 K2 n( \
  31. ID : 28 E( `4 Y/ w& ], v( s) R; J2 o
  32. Format : E-AC-3
    ! M) I( q8 M$ h# h2 f4 o
  33. Format/Info : Enhanced AC-3/ S0 @+ N" Y1 m" g( A
  34. Commercial name : Dolby Digital Plus
    4 Z  T* _: \3 \& L) o
  35. Codec ID : A_EAC3
    ( U. {' Q! \  x$ n
  36. Duration : 38 min 26 s$ q& M* O  a+ u. [3 M: g
  37. Bit rate mode : Constant
    5 ?/ `/ X- N7 `& H
  38. Bit rate : 128 kb/s
    ) A$ o/ \% R3 P# Y- a0 \
  39. Channel(s) : 2 channels5 |: g; A# h+ }: V- I* t) a
  40. Channel layout : L R
    0 E/ t& X. [" `/ f
  41. Sampling rate : 48.0 kHz
    4 `  B5 ^: [+ V( M* U  {( ^
  42. Frame rate : 31.250 FPS (1536 SPF)- A$ s: A" Y8 Y' I' U0 O" K
  43. Compression mode : Lossy
    ! F6 `* a- _) H( r4 @+ L4 h$ d7 O
  44. Stream size : 35.2 MiB (2%)+ `- m; v) u5 v
  45. Language : Japanese5 i2 P: _+ M/ x: e
  46. Service kind : Complete Main3 a, S$ b0 y: _6 |! J8 G( m+ l
  47. Default : Yes* @; ^" X$ @4 S7 \0 w- w# d
  48. Forced : No
    / I# c' m% a( M+ _: h
  49. 6 @  M1 c1 r& a! \7 |% n
  50. Text #1
    2 e0 y; z1 j) L* Q$ v$ [! k3 Y, p0 c
  51. ID : 3
    4 j" H& l. a& T& ^9 G
  52. Format : UTF-8; K9 w& L# f2 `1 `* S) X
  53. Codec ID : S_TEXT/UTF86 V  @, B- U1 E* K
  54. Codec ID/Info : UTF-8 Plain Text5 C" K- g$ S5 t) M& m
  55. Duration : 37 min 48 s
    & o4 w4 r0 F" E; T4 M
  56. Bit rate : 71 b/s
    4 K  z" ?& O' R0 h; g
  57. Count of elements : 577- O, e2 a" `, l; M) H
  58. Stream size : 19.7 KiB (0%): E2 G# B+ w/ F" W& d: P8 Q9 J
  59. Language : English
    , \8 d! f9 F+ I7 ]
  60. Default : No! p; f  h5 H, }9 L7 v2 R- ^
  61. Forced : No4 o. x' ~; n& U

  62. ) K9 N" G% N1 s' Z; ~# E9 ?" O4 Y
  63. Text #2. H' [1 e6 r; M3 _1 W5 D: v7 o
  64. ID : 4
    0 X- I1 d2 [  E1 A7 c) I4 P
  65. Format : UTF-8- o( `- U% L+ p' [/ K
  66. Codec ID : S_TEXT/UTF88 K0 D8 w, U# |* U# T
  67. Codec ID/Info : UTF-8 Plain Text8 I: `9 l) ]+ N3 j/ Y
  68. Duration : 38 min 14 s: P5 f9 X2 E% u0 h3 a% ^1 I5 f
  69. Bit rate : 73 b/s$ V6 H# l! A. z! n6 ^- q
  70. Count of elements : 6001 |0 w  I: G0 ^( |
  71. Stream size : 20.5 KiB (0%); w& }$ k( \2 K- u
  72. Language : Spanish
    6 w' O0 q1 b/ o0 S6 L* e
  73. Default : No$ `2 @, w6 p8 v/ o8 n4 g
  74. Forced : No
    + Z  |( Z* {  k( @" w

  75. - e- B% C/ r4 P+ g0 {1 X. }
  76. Text #36 {# D/ |* y+ c# @
  77. ID : 53 w; E; B! q2 S: {, D+ J% P, T
  78. Format : UTF-8
    % K; R( b' B2 R+ m
  79. Codec ID : S_TEXT/UTF8
    * G4 N0 X! Z) T2 D' j2 e
  80. Codec ID/Info : UTF-8 Plain Text8 L" n3 Z0 U; _5 ^* Q
  81. Duration : 37 min 49 s& l* h4 a6 O* B/ u# ~9 J, V
  82. Bit rate : 124 b/s
    & M8 z0 B$ J0 f; ~8 ^; n
  83. Count of elements : 732
    1 Z2 f/ W9 a9 z: h
  84. Stream size : 34.5 KiB (0%)
    ! H) Y0 Y  v4 B2 |9 M* k
  85. Language : Japanese, H0 I# f1 x, w- ~9 O5 {
  86. Default : No4 ?. C5 ^' ~' K" C, Q+ i/ K" S
  87. Forced : No4 _9 ^/ Z( \+ x2 C/ n2 x) j
  88. . P: ?$ C7 \* ~" N) y
  89. Text #4  n6 O, M) I5 F7 _, T& x7 N
  90. ID : 6, c, E7 U5 N7 @$ w! N6 ?( p2 Z
  91. Format : UTF-8' E. @% Y" U! q0 p) Q6 n0 |- @3 J! ]
  92. Codec ID : S_TEXT/UTF8
    ! L! t" o, l5 ]
  93. Codec ID/Info : UTF-8 Plain Text5 n4 b4 E0 o% E% f4 C% W
  94. Duration : 38 min 2 s
    8 s, V! t3 U  |; n% V; b8 _2 u! g
  95. Bit rate : 76 b/s; C  P! j  j9 t* ]; R# J. R) C
  96. Count of elements : 744
    # u) Q" ?) R" @! `
  97. Stream size : 21.3 KiB (0%)
    ; S- K2 e) o% k- ~$ v* h! A
  98. Title : Simplified$ g4 f' [4 a# g8 S
  99. Language : Chinese# z$ X" p9 P& L* @
  100. Default : No( s, v$ M! C) t( W
  101. Forced : No' S" N* x3 \; q! }8 n
  102. 8 Z% c  T+ \1 E  G/ Q  C3 _0 c
  103. Text #5# ~# I8 v! E; m; f
  104. ID : 7
    * o. |8 K* n. s$ I0 w; z
  105. Format : UTF-8
    , D( q  K: ]; w  W7 h( H
  106. Codec ID : S_TEXT/UTF8
    3 R5 d  g$ U$ z7 C0 n
  107. Codec ID/Info : UTF-8 Plain Text  n, Q% A! \2 _6 l! H% L
  108. Duration : 38 min 2 s0 q! e( Y2 q& A# _9 p5 }$ D. P
  109. Bit rate : 77 b/s8 f# h" s5 U' h* u9 f$ a; I% Y
  110. Count of elements : 7410 w: ?5 D# X) o4 v' W# R1 M: }
  111. Stream size : 21.5 KiB (0%)
    ! j! a& U6 O  X& j
  112. Title : Traditional
    3 f1 i: I3 d' [+ P0 h7 Q- ]" ]  Z) a, N
  113. Language : Chinese4 E' O0 U- N; [/ ~7 t. e
  114. Default : No1 D6 d4 E) p( V6 J& o  ]& E0 D+ Z- Q
  115. Forced : No
复制代码
, g9 _( B: {3 H% O; s4 B* L

; j8 j( C* x3 k- k6 A5 Z/ L# Y- s! {! {  o; a" H5 M

5 H; T3 g) K6 |0 a  k0 ~' n, R- z* e- h' L1 c

  t( k: v3 Q' H4 V1 b4 m$ J
游客,如果您要查看本帖隐藏内容请回复  VIP可免回复查看隐藏内容 详情请点击
发表于 2019-12-19 08:58:00 | 显示全部楼层
谢谢楼主提供资源。
发表于 2019-12-22 08:31:56 | 显示全部楼层
日剧要试看
发表于 2019-12-25 02:32:52 | 显示全部楼层
thank for share
发表于 2020-1-18 12:54:43 | 显示全部楼层
双层公寓系列一直都是超高人气的真人秀,但是国内似乎非常冷门。
头像被屏蔽
发表于 2020-1-18 13:15:01 | 显示全部楼层
提示: 作者被禁止或删除 内容自动屏蔽
发表于 2020-3-29 15:40:38 | 显示全部楼层
良心资源谢谢分享
发表于 2020-3-29 19:09:18 | 显示全部楼层
感谢分享资源
您需要登录后才可以回帖 登录 | 立即注册

本版积分规则

QQ|封号公示|手机版|有问题发邮件到admin#(换成@)hd1tj.org|微博|免责申明|HD一条街

GMT+8, 2020-7-5 15:15

快速回复 返回顶部 返回列表