HD一条街

 找回密码
 立即注册
搜索
查看: 473|回复: 10

[欧美] 室内设计大师/室內設計達人 Show 第一季 [自带中文字幕]Interior.Design.Masters.S01.1080p.NF.WEBRip.DDP2.0.x264-SPiRiT 13.45G

[复制链接]
发表于 2019-11-7 10:49:15 | 显示全部楼层 |阅读模式

马上注册,结交更多好友,享用更多功能,让你轻松玩转社区。

您需要 登录 才可以下载或查看,没有帐号?立即注册

x

: q5 K0 Q" v4 T5 \# W                               
登录/注册后可看大图

# A' w9 L- i1 r" C  n7 w4 r/ I3 A3 [& t4 a$ x7 `. j( D2 l
◎译  名 室内设计大师 第一季/ ]# F. w# v1 w* ?
◎片  名 Interior Design Masters Season 19 V8 [: h, H' D9 O$ K  k+ T  F
◎年  代 2019
& i9 d9 X& h3 e9 L, r8 o& v; _◎产  地 英国+ t5 m  R% D- S
◎类  别 
; |8 @8 N! z8 D- {; s& `8 \◎语  言 英语
( x% @0 i5 r8 O; J, M◎上映日期 2019-08-14(英国)
3 j" D3 O0 B" u' F/ s◎IMDb评分  6.9/10 from 216 users
0 x' s% Z; L! m◎IMDb链接  https://www.imdb.com/title/tt8367694// T7 I7 y( q6 L) {
◎豆瓣评分 0/10 from 0 users& }% {  ^- d/ D: G+ r3 U3 k3 `
◎豆瓣链接 https://movie.douban.com/subject/34843209/# D2 J" C5 r: I/ @2 n5 V
◎集  数 7- ]: {8 y. o1 F) Q% i
◎片  长 57分钟
0 M# u& p# M" \& l
0 z* D& Z3 T% @% N5 F◎标  签 室内设计 | 英国 | 2019 | Netflix | 英剧 | 真人秀 | 综艺 | 设计. }/ m$ M$ M9 ]/ W) v/ Z% E  y

1 c% d) W, D% M( @; [0 K◎简  介* Z% D2 u4 E5 p3 P+ K6 t* v7 \
" r* H9 C9 F6 c+ K
  Interior designers compete for a life-changing design contract and opportunity to work with a prestigious commercial client.
  1. Video
    . a; c& x+ p& B0 y
  2. ID : 12 A1 Z% n: D) v# E7 _2 I' ]+ O
  3. Format : AVC
    + ?) q" t0 R7 o$ M
  4. Format/Info : Advanced Video Codec
    ; h- @  C1 x! b7 i2 w9 G9 |6 @
  5. Format profile : Main@L4' J: S4 T# u$ p2 D  r- K3 R  H
  6. Format settings : CABAC / 3 Ref Frames0 C$ K' Q- Y7 x
  7. Format settings, CABAC : Yes8 e9 q6 ?+ f# {' |3 Y7 i
  8. Format settings, Reference frames : 3 frames! Q+ J; a2 O4 g/ O
  9. Codec ID : V_MPEG4/ISO/AVC
    ! ^& D/ N5 M' d* U, I8 u; T; ?
  10. Duration : 45 min 0 s
    " r7 g: ^$ o9 R: f, t
  11. Bit rate mode : Variable; M% a5 T/ ^2 e% m7 _
  12. Bit rate : 5 800 kb/s/ N; w% E9 e; n" B( R
  13. Maximum bit rate : 8 700 kb/s  a+ S6 L1 h: T
  14. Width : 1 920 pixels
    " P8 r3 J' u5 t
  15. Height : 1 080 pixels
    ) K" a& A5 m9 l8 h! m' Q! D
  16. Display aspect ratio : 16:9" [1 L. G. t# |: ^" Y7 v% j3 r
  17. Frame rate mode : Constant
    , m, I0 T: @- \. i
  18. Frame rate : 25.000 FPS3 R' a; A7 h# v6 c" @7 r7 v5 c
  19. Color space : YUV+ x/ M8 J0 o; h, Y6 |' S' N2 W) \, I- N, d
  20. Chroma subsampling : 4:2:0
    ' q. I/ Q- m0 ?8 i" I9 i8 s! C
  21. Bit depth : 8 bits& j$ I% s; R* b. [
  22. Scan type : Progressive
    ' P+ T  h1 @  T2 b
  23. Bits/(Pixel*Frame) : 0.1122 _9 q, G# j* p& ]; e: K
  24. Stream size : 1.79 GiB (98%)) w$ f& k( F0 b) m
  25. Writing library : x264 core 148 r2715 7e75228
    ; u4 ?4 g8 U9 \5 K6 k
  26. Encoding settings : cabac=1 / ref=3 / deblock=1:0:0 / analyse=0x1:0x111 / me=umh / subme=10 / psy=1 / psy_rd=1.00:0.00 / mixed_ref=1 / me_range=24 / chroma_me=1 / trellis=2 / 8x8dct=0 / cqm=0 / deadzone=21,11 / fast_pskip=1 / chroma_qp_offset=-2 / threads=6 / lookahead_threads=1 / sliced_threads=0 / nr=0 / decimate=1 / interlaced=0 / bluray_compat=0 / stitchable=1 / constrained_intra=0 / bframes=2 / b_pyramid=0 / b_adapt=2 / b_bias=0 / direct=3 / weightb=1 / open_gop=0 / weightp=2 / keyint=250 / keyint_min=25 / scenecut=0 / intra_refresh=0 / rc_lookahead=50 / rc=2pass / mbtree=1 / bitrate=5800 / ratetol=1.0 / qcomp=0.50 / qpmin=6 / qpmax=51 / qpstep=4 / cplxblur=20.0 / qblur=0.5 / vbv_maxrate=8700 / vbv_bufsize=11600 / nal_hrd=vbr / filler=0 / ip_ratio=1.40 / aq=1:1.00
      M- |( ]6 d& |: K
  27. Default : Yes; P. }+ Z- o, `; L0 [7 _
  28. Forced : No' n1 a/ o- H: r0 k3 X5 k+ H: x
  29. 6 m+ q1 T. h* v1 L5 r4 I
  30. Audio4 q' c3 D8 n3 G1 u' P
  31. ID : 2& R) D! K2 h# L/ i% \! p0 n
  32. Format : E-AC-3) I! S% L9 u$ A) B0 d: [, h1 q3 H
  33. Format/Info : Enhanced AC-3
    0 v4 G6 w% t3 e& m/ @
  34. Commercial name : Dolby Digital Plus3 k( ^  b2 E) T0 w. E
  35. Codec ID : A_EAC38 y8 a, j$ J7 l; b# w. H
  36. Duration : 45 min 0 s1 `0 z( D4 D9 s8 P3 N% X
  37. Bit rate mode : Constant
    1 n% A0 ]$ }4 w  ]$ U. N9 ~
  38. Bit rate : 128 kb/s
    6 r/ V6 R# o2 W; u# E
  39. Channel(s) : 2 channels, q! Z3 _$ V, Y7 v# l
  40. Channel layout : L R
    " [* R7 M( s4 Z! C9 ^( J* G) ?
  41. Sampling rate : 48.0 kHz
    4 _1 `9 Y" k! S* \7 _, U$ ^
  42. Frame rate : 31.250 FPS (1536 SPF)
    3 f- e( U! z( W! ?, Q: ~% D% b& t
  43. Compression mode : Lossy+ u- R0 T# ], ^  L' ~; J' G
  44. Stream size : 41.2 MiB (2%)- n! e! n  W  F; u' Q
  45. Language : English- J" O) ?7 X" a' g
  46. Service kind : Complete Main8 x! i) g! N4 z
  47. Default : Yes
    3 A  D! y3 c8 {
  48. Forced : No- j/ n* B" C+ s3 K

  49. ' g2 z6 z, y! x+ ^0 C
  50. Text #1
    , f1 \/ t' _4 n
  51. ID : 39 v0 F( G( Q4 {$ y& i
  52. Format : UTF-86 }) B, A- H9 Y' |1 k) `8 y7 Q: G, _
  53. Codec ID : S_TEXT/UTF8
    # @: G3 m1 l$ L$ U8 H. p
  54. Codec ID/Info : UTF-8 Plain Text
    ; y: y/ B4 z! e1 C: c
  55. Duration : 43 min 31 s$ K* l7 Y; j( J( s( q# I$ C: L
  56. Bit rate : 120 b/s! m0 [" S' Z9 ?/ H
  57. Count of elements : 10403 z* H. I! Z0 B* {2 n' ~
  58. Stream size : 38.3 KiB (0%)
    " X  T1 b! G/ c8 z- W! e
  59. Title : SDH
    5 g* J/ N/ X/ G8 J3 r( ~3 H1 F
  60. Language : English
    4 Q- ?# P( ~( ]5 i6 L2 w8 i/ A. `1 D# F
  61. Default : No: ]4 |0 P" U9 o
  62. Forced : No! v) ?" p2 C0 q+ m8 I
  63. . j0 E- C' n+ S* q
  64. Text #2
    8 o( P4 q0 Z9 f& \/ F3 _
  65. ID : 4! [4 {, N/ ^3 |2 Q% Q
  66. Format : UTF-8
      {* q( z! W5 @* P. i
  67. Codec ID : S_TEXT/UTF8* q7 l' m7 A( t: o$ P
  68. Codec ID/Info : UTF-8 Plain Text
    9 m( S2 h. ~7 m1 F7 L& Y
  69. Duration : 44 min 4 s; c1 l3 Y- V) j" c0 v: h- U! d
  70. Bit rate : 188 b/s# D* l' W3 l0 k6 q! X$ A+ c
  71. Count of elements : 1078
    ( U4 e& Y" E* N) v/ {& U8 P
  72. Stream size : 61.0 KiB (0%)1 D" w5 H3 q' [( R% H, h; F
  73. Language : Arabic+ s' ^& Y; I+ \# P  Z6 C6 }
  74. Default : No
    ( B. Y+ i4 _. ~0 w1 k( T1 W
  75. Forced : No
    " [/ }# A6 c( K* k/ R2 `

  76. ( u  L( ~0 S- ?: G- }. w& d4 v4 g
  77. Text #3# b; g! Z; Z- {3 v
  78. ID : 5
    % L" H. O# J  }+ W& V
  79. Format : UTF-89 [# e+ n; h/ Z
  80. Codec ID : S_TEXT/UTF8  U) g4 N' w2 E) ^) P, v2 B
  81. Codec ID/Info : UTF-8 Plain Text! Z: R6 @4 r! P' G' \
  82. Duration : 44 min 4 s
    " V7 H* D! R% v3 E  p+ E; m
  83. Bit rate : 102 b/s
    6 D; ~  `, o5 P% W, P& c& N4 w" S
  84. Count of elements : 1090
    - G8 h5 ^9 H1 T
  85. Stream size : 33.0 KiB (0%)' r! E8 U' f. g7 c3 K
  86. Language : Czech" [' X2 f9 ]' z! i9 d8 w( r
  87. Default : No% O$ c4 s% c% Q( T8 `3 Q
  88. Forced : No
    % o* F  m* s& N  Y5 F; }$ K

  89. 7 m+ L# w, w& _; j
  90. Text #4
    1 L, D5 P0 p( _$ c5 ~
  91. ID : 6
    7 a7 k9 X# W8 r6 v& @6 @; s% L
  92. Format : UTF-8, K2 K: l" @" Z+ v) R5 o
  93. Codec ID : S_TEXT/UTF8. g8 W3 O5 i; a1 a2 X
  94. Codec ID/Info : UTF-8 Plain Text
    " Z0 u/ A6 c2 p+ P& I) J
  95. Duration : 44 min 4 s
      R$ P( L/ R* O
  96. Bit rate : 100 b/s
    1 n& n9 t& [' E$ m
  97. Count of elements : 761/ v  N& Q4 @. D
  98. Stream size : 32.4 KiB (0%)( Z. H, n# T. P% L4 ]4 D5 z2 i
  99. Language : Danish7 s9 }5 Y$ c) [, N+ P
  100. Default : No
    # S# f: ^& R1 Q' s! F5 w  n
  101. Forced : No
      W: [0 c  X. e* i* p
  102. 7 h" [( V3 w0 Z# G$ S/ Z* O  w, R0 P
  103. Text #5
      f1 g8 @9 c/ a4 x# M2 t$ ]
  104. ID : 7
    $ r3 \" ]! [/ y( A; C2 Y5 b% A
  105. Format : UTF-8
    & A1 E& X' @: ^+ A
  106. Codec ID : S_TEXT/UTF8/ u( ~) M) d5 S. o% M
  107. Codec ID/Info : UTF-8 Plain Text
    ) b, _+ p; o4 N* M8 x2 V
  108. Duration : 44 min 4 s) N" B% \9 j' m) S
  109. Bit rate : 118 b/s% l! T5 g( ?4 w, E
  110. Count of elements : 10659 O& P% Z( T) ]5 E! @
  111. Stream size : 38.3 KiB (0%)% S8 }( G3 u- |6 i3 T* i
  112. Language : German8 E5 W2 c7 V$ W9 u8 B6 A9 l
  113. Default : No; R2 O2 V7 d0 j: z5 T9 X  Y
  114. Forced : No( z2 w7 D7 u' k; d% [9 ~7 O
  115. ' T& S% p/ `$ n. c
  116. Text #60 U5 g4 }, O) i1 J* L% c, c' b
  117. ID : 8& w) p/ J5 K5 A
  118. Format : UTF-8
    : J% K; v  A  x( C( Y5 j) G6 b" Z  e9 ?
  119. Codec ID : S_TEXT/UTF8
    9 y1 t4 _$ Q& D3 J" ^' E' [9 b5 t
  120. Codec ID/Info : UTF-8 Plain Text
    1 ?3 I8 O2 v$ v2 x  [
  121. Duration : 44 min 4 s
    ! |/ w! t; Z' {% ^' f( ]
  122. Bit rate : 181 b/s# b3 _$ s4 ~' a* `9 o  U" ?) P
  123. Count of elements : 1078
    8 Z9 k- r/ p0 v: Z
  124. Stream size : 58.5 KiB (0%)
    $ `2 B0 Z0 |, B8 Y1 E* q* N
  125. Language : Greek
    5 ~3 F4 ~& Q$ L$ C+ N
  126. Default : No
    $ F5 S5 A! Z! b, h
  127. Forced : No
    ' h! g# w# P. h; C. }* Z" x- T) p

  128. ; B; v) T& _: J* u1 V4 p0 _
  129. Text #7. I9 ]) Q; w' s
  130. ID : 9
    ) u  G' W2 D; E) C" ^/ p3 v
  131. Format : UTF-8
    0 _! y7 X* P* q3 [( a4 T8 e
  132. Codec ID : S_TEXT/UTF8
    ; w+ z$ T$ L% ]. G- ^
  133. Codec ID/Info : UTF-8 Plain Text
    4 c4 e- z6 M( M
  134. Duration : 43 min 37 s
    % D  l! F: }5 R8 D2 H/ k: x% g
  135. Bit rate : 101 b/s- R; ]. C) H! w; X5 S+ y
  136. Count of elements : 9517 R, ?  G7 ^  o4 T# P3 i5 ?
  137. Stream size : 32.3 KiB (0%)8 r# b% W2 I1 z5 f' \
  138. Title : Latin American$ w, b- {& h! B& q* D  H
  139. Language : Spanish
    # w. Z- h' z0 f- f+ Y# d1 m/ A
  140. Default : No
      U3 {3 e  N8 I9 d) |
  141. Forced : No( L4 D' M4 f* R1 l0 \3 J% X1 ~
  142. 8 M, t' i. p0 A8 Y# Z
  143. Text #8
    8 U- j7 V! s' I0 k( p! e+ O+ f" v
  144. ID : 10, i% F# d0 p" H! S: a, q2 N
  145. Format : UTF-8
    ) r1 h0 N9 m) y
  146. Codec ID : S_TEXT/UTF8
    2 }% B" l: Y3 p2 r- }/ W  M
  147. Codec ID/Info : UTF-8 Plain Text9 {" {) D' S4 \0 l( N! a
  148. Duration : 44 min 4 s3 k7 N+ v6 I; b# n) ^; p9 z3 E
  149. Bit rate : 99 b/s
    : M7 g$ {9 b2 d5 U1 L
  150. Count of elements : 996
    - M: F: t9 m& `6 T) c
  151. Stream size : 32.2 KiB (0%)
    ' ?1 \- y* H7 V% b5 Z& e
  152. Title : European3 Y& N1 `. ^$ y
  153. Language : Spanish
    % ]3 o; H  X* x" u7 D) e( _: P+ Y# e- X% J
  154. Default : No
    : d/ u8 m5 S, ?
  155. Forced : No" H6 ^5 j! d' i) S

  156.   t9 j( o: }* l7 n' T
  157. Text #9% r& ^7 ]9 ~7 _& p6 G3 ?
  158. ID : 11
    5 N0 S* [/ ^9 h5 K9 B
  159. Format : UTF-8
    & I8 H4 `) i# f6 M! j- H1 v3 Z
  160. Codec ID : S_TEXT/UTF8+ n- y9 U2 w6 y
  161. Codec ID/Info : UTF-8 Plain Text
    8 d6 C  p* O! j: _) o$ }0 Z
  162. Duration : 43 min 37 s
    , F4 d- d  q, i1 z* g; e4 s
  163. Bit rate : 109 b/s$ s+ N! D3 M& y8 q' `- @/ {; e0 @
  164. Count of elements : 916! a4 _4 D/ S( D" ^/ e
  165. Stream size : 35.0 KiB (0%)
    $ F- m( ]  j6 F0 a% y' w. w$ p* w! s
  166. Language : Finnish
    + h& L: t. X9 k  }$ d' ^" r
  167. Default : No
    % n9 s  b. s" S: Q! Y
  168. Forced : No
    # ~8 R1 M5 p. _6 P  |) g
  169.   v9 B; r# A% M- S- P
  170. Text #10. ^  B  l5 K2 S+ g
  171. ID : 12
    % M! T/ Z* \# u  g) s% O1 h; m
  172. Format : UTF-8" m! k2 S( i6 V4 W
  173. Codec ID : S_TEXT/UTF8- s3 A, v) g, @' ^/ p4 Q( P  n# X
  174. Codec ID/Info : UTF-8 Plain Text. Z6 c( @3 t% t
  175. Duration : 44 min 4 s1 x) R8 U& u% ?* f0 b
  176. Bit rate : 96 b/s
    " H' @$ u3 W6 ?6 T9 a/ t* q. p. ?9 a
  177. Count of elements : 9947 O6 Y4 d  {2 `6 d: v) Q+ d/ K+ z7 q
  178. Stream size : 31.0 KiB (0%)
    6 ~% C: q7 R# e# @4 G# }
  179. Language : French5 S2 m& K3 F& G
  180. Default : No
    : i% F& O( @' o/ s. X& {" {
  181. Forced : No
    : f5 c, ]! r% L* U" F! n/ M

  182. % O7 z- u1 U7 g9 _, r& n' U
  183. Text #111 R6 S" n" Q4 O$ g6 e5 t! V2 [
  184. ID : 13
    # |2 i$ h. P; C# z/ H8 m3 O+ h
  185. Format : UTF-8
    / |3 J, J# t  c- `) a( n& V8 H
  186. Codec ID : S_TEXT/UTF8
    ) p9 k  i; t" o5 _5 U; o( w
  187. Codec ID/Info : UTF-8 Plain Text
    , c% V1 N  d2 _
  188. Duration : 44 min 4 s) k. A& ~- Z( i& G) A
  189. Bit rate : 158 b/s
    " }4 w1 w* D' P
  190. Count of elements : 917
    6 ?0 y8 b3 o% P& T
  191. Stream size : 51.0 KiB (0%)
    * m2 z' g) m* j5 D
  192. Language : Hebrew
    1 f! [# E$ s5 e& c, S
  193. Default : No& }0 M7 E4 u) s) y- L# N: i
  194. Forced : No; {& R7 I. |9 Y) I. b
  195. % |& S+ y) A6 v- o  s; a
  196. Text #12
    - [( O2 ?: [6 K2 O, o% w
  197. ID : 14
    % p" Q- w' W4 J, _
  198. Format : UTF-8
    % k& {, t* S5 i0 l, v) S, j6 r
  199. Codec ID : S_TEXT/UTF8
    , L! ]+ N$ k, K! q
  200. Codec ID/Info : UTF-8 Plain Text' p7 {' L/ o6 K) Z6 F( Y; \' \
  201. Duration : 44 min 4 s4 s2 o5 C+ Q: b5 d6 k
  202. Bit rate : 100 b/s: H5 E) _4 Y) M2 {. Y% c( [8 X
  203. Count of elements : 1078
    1 `( K- K% o+ l) y3 v
  204. Stream size : 32.5 KiB (0%)
    # o' N# Y/ a5 j$ ~( k1 l
  205. Language : Hungarian+ l2 R  U4 U/ O; x5 @/ S
  206. Default : No8 [! W6 ^1 @; _, ]) r2 [
  207. Forced : No
    . ~; Q6 k# F& e# \
  208. 9 D( B. K9 J) B+ ^; P6 x" ~' ?9 {
  209. Text #13
    # l  c6 o1 C- U8 h1 M
  210. ID : 15
    ( u; Q4 K% p/ w0 {( O
  211. Format : UTF-8
    " g; [3 q: p1 Z, C
  212. Codec ID : S_TEXT/UTF8
    0 [' h2 r$ n# @8 ]
  213. Codec ID/Info : UTF-8 Plain Text% b5 K5 J/ w4 n$ L
  214. Duration : 44 min 4 s4 Y+ U6 j: Y; A0 Z7 x/ @8 C. {5 m# y
  215. Bit rate : 107 b/s( d% V; ?3 g4 \& E) J
  216. Count of elements : 1078
    / K4 R" G, Z0 @& U
  217. Stream size : 34.8 KiB (0%)
    " w3 q) y3 U3 ?* R7 S
  218. Language : Indonesian) w# ~9 {- z2 E
  219. Default : No8 G% |$ ]$ @0 x$ V: g" o  ^
  220. Forced : No! J) @) O, m; V9 c/ S+ }2 u

  221. 2 r4 C; `* e( }2 S4 Q" l+ W
  222. Text #14  t4 o; ?! P4 x- q! d
  223. ID : 16
    9 r5 u1 D5 Y- ?- U/ f# W
  224. Format : UTF-8
    # z* P  C, @0 S4 O# o
  225. Codec ID : S_TEXT/UTF8# i3 i2 s( s, w
  226. Codec ID/Info : UTF-8 Plain Text& D3 S6 F2 H, q) z" n: P
  227. Duration : 44 min 4 s  L5 _. H0 s/ J/ a% M" }
  228. Bit rate : 94 b/s
    3 C9 {& u9 W8 ~) \
  229. Count of elements : 978
    ; p: H8 C2 {1 f* \6 a9 N# y2 F
  230. Stream size : 30.6 KiB (0%)5 ~" u: a+ c  b* y9 o" d
  231. Language : Italian1 A5 G4 S) @$ e5 O! j! \
  232. Default : No
    8 }7 ^. k' L6 \
  233. Forced : No
    / E  @8 c: v7 i0 X' Q5 u3 a

  234. 6 @* ?0 i! J" [3 }8 s# n
  235. Text #15
    ; y9 R. U4 S. Y" ?
  236. ID : 17
    . E  p5 _: V, p* L6 P! p
  237. Format : UTF-88 j# V# {* X$ t& Q7 j
  238. Codec ID : S_TEXT/UTF8' w! ]) H# h% [* i0 k
  239. Codec ID/Info : UTF-8 Plain Text
    7 b/ C6 N- H' x, \" @% x# o
  240. Duration : 44 min 7 s5 \; l. `" r8 r8 F( s7 o
  241. Bit rate : 109 b/s
    ; x- z% @/ i1 T- [( J/ M& l
  242. Count of elements : 1077, t' a# j# y& B5 {, R1 |
  243. Stream size : 35.3 KiB (0%)
    9 K6 k; ?: p1 ~5 I6 e! D
  244. Language : Japanese: y- K( d* B" T& y0 _5 m6 z& V
  245. Default : No+ C/ e9 e6 g' s* `' U/ B  i" G
  246. Forced : No* |: T6 H6 ~- ^2 `* w, G) K7 c0 U

  247. 9 j0 X, r, P' C. G, ^8 z
  248. Text #16# m) u8 x9 q* O% Y( O
  249. ID : 18( q+ E6 z& K: d) _5 S
  250. Format : UTF-8
    2 M, P* ?8 J/ u+ D2 r
  251. Codec ID : S_TEXT/UTF8/ w8 M. ~% b1 v9 u# E1 q% f
  252. Codec ID/Info : UTF-8 Plain Text: Z% `7 L$ m* l9 m0 n1 W
  253. Duration : 44 min 4 s/ V; q# ^6 h1 T- C4 f
  254. Bit rate : 140 b/s/ ^8 \4 Y! Z, A* q+ v  A
  255. Count of elements : 1012. t8 u6 f4 V& s0 R9 L: j  Y
  256. Stream size : 45.5 KiB (0%)& n# }6 F. N, s! p( G$ G
  257. Language : Korean
    . J' u- k6 }4 o. G9 \/ W
  258. Default : No# _$ D) S8 G' N, B# I
  259. Forced : No
    + n/ ~/ ?0 ~: p8 Z4 D& i

  260. + R5 y' J; P0 m% B- s( b
  261. Text #173 x  ?! w" ^; W' d
  262. ID : 199 v& c, P1 q9 g3 B$ _: K
  263. Format : UTF-8. {) ?6 B' b' s; B! i+ m+ y, Z
  264. Codec ID : S_TEXT/UTF8
    $ ?3 n% Y- F1 B3 v
  265. Codec ID/Info : UTF-8 Plain Text
    8 H( k; \1 H- b6 Y7 o$ l- A( ^
  266. Duration : 44 min 4 s1 Q: t( J3 w$ Q2 @
  267. Bit rate : 97 b/s6 k4 {; N: [$ ~" J: _& e+ t
  268. Count of elements : 1005, c1 g% i, D4 e3 g$ t8 z# Y" I
  269. Stream size : 31.5 KiB (0%)
    ! `% ?5 L) y4 l( k: f7 t2 [
  270. Language : Norwegian Bokmal
    ! l# I. X7 `  k; F  d) D4 u# G
  271. Default : No
    & j5 O/ ]# P0 A" |8 v1 Y
  272. Forced : No  e$ ^9 \3 u' l

  273. 8 p2 o% t: @6 b0 ]: s$ B
  274. Text #18
    , ]* a0 p2 S7 z( N! W: j/ s; `
  275. ID : 20
    3 h; ~3 t8 m# v2 I4 h9 r! j
  276. Format : UTF-82 x* M" p+ t0 u* J1 |
  277. Codec ID : S_TEXT/UTF8$ C3 F, i% G  r8 |4 T+ r7 p! C
  278. Codec ID/Info : UTF-8 Plain Text+ c9 l/ S9 R5 G! }, M  |; }
  279. Duration : 44 min 4 s
    0 ?9 h/ R3 A; F
  280. Bit rate : 100 b/s. Y) r2 g; m/ s
  281. Count of elements : 1006
    ' F7 e8 J+ y3 y, K  D  i
  282. Stream size : 32.4 KiB (0%). x! @' {/ P- g. X( f
  283. Language : Dutch3 y: D7 K% k( ?' c6 x( N
  284. Default : No( t+ U* c, P2 n2 a3 u. R0 W
  285. Forced : No; S* K0 \* r; z
  286. / K' g5 S! t7 j* W) C
  287. Text #197 D; p+ U6 F" O; i% V- c/ q/ V
  288. ID : 21
    + j! X5 |( Y2 e  u: `& j
  289. Format : UTF-8( b- h8 h' I0 `6 t: c& o$ U
  290. Codec ID : S_TEXT/UTF8
    : F9 r' u$ V+ \9 f
  291. Codec ID/Info : UTF-8 Plain Text
    7 V$ m9 q, q6 }. N" ~4 p; W) P: ?
  292. Duration : 44 min 4 s  u6 F! U; C1 P' M  S
  293. Bit rate : 92 b/s
    0 ?8 @2 v- |2 K' T
  294. Count of elements : 957
    # Z$ X! [; G5 V
  295. Stream size : 29.9 KiB (0%)4 a7 @9 c- n7 M) L/ _  }
  296. Language : Polish$ g! v! u/ w1 O
  297. Default : No
    4 o% n* P; T/ d' f0 k
  298. Forced : No' C) T/ U0 _) A

  299. 9 J+ \; f4 Z8 a
  300. Text #206 A* T- a1 `6 I2 z; A/ q, n% T2 n6 _
  301. ID : 22
    ( a: q( z9 K1 t
  302. Format : UTF-84 U* l/ D/ A5 t$ l4 b* C
  303. Codec ID : S_TEXT/UTF82 A) `' t; B& L+ Q9 C" f8 U2 }
  304. Codec ID/Info : UTF-8 Plain Text
    7 D5 R- ^  C/ U
  305. Duration : 44 min 4 s
    ; V6 i5 _) \3 @9 u5 I5 E' S3 ]1 N
  306. Bit rate : 112 b/s! _: y* }  {5 W% X: q
  307. Count of elements : 9583 D9 u& m$ v& i
  308. Stream size : 36.4 KiB (0%)
    # e5 ]# Z! }* G; q) M* J2 U) e
  309. Title : European7 F. I2 ^' y+ C2 m; h/ X& q
  310. Language : Portuguese. H! [* a: ~/ i
  311. Default : No
    + w# y7 I# @# O) }& {5 x
  312. Forced : No
    2 \3 J: x2 n- u  F
  313. 1 a4 K. K" h5 z2 ~/ e- D  g
  314. Text #21
    " ]* w: H4 f* v# Q/ e2 C; b% h
  315. ID : 23' N% R: u+ a' j3 T: f6 a
  316. Format : UTF-8- Z8 `2 p  E- m# j: K
  317. Codec ID : S_TEXT/UTF8/ a: H% o7 f+ `; }) M
  318. Codec ID/Info : UTF-8 Plain Text+ g! K  T* H4 z  n' l0 f! R+ m
  319. Duration : 44 min 4 s. |% `1 g& Z, c: f( r( y9 m
  320. Bit rate : 104 b/s, g, D1 ^0 E' s
  321. Count of elements : 872
    8 Z  L8 |; a3 |! ~8 L
  322. Stream size : 33.8 KiB (0%)
    ' c: U+ ^7 J) w5 Z
  323. Title : Brazilian5 |; c3 |: E$ @8 V2 C
  324. Language : Portuguese% B* f7 G7 A; E- j" g% f
  325. Default : No7 M1 m- t* {& ]/ b- A, K
  326. Forced : No: Y: E6 M4 ^- E. r' N. A" N

  327. " T# X! _& H# r$ h  D6 H" o
  328. Text #222 I: ^/ ], c9 D* x
  329. ID : 24
    3 `) b* A' ?8 D# c
  330. Format : UTF-8
    : M/ ~& g3 Y5 R
  331. Codec ID : S_TEXT/UTF8$ y' M. v6 B. d, c# v; E
  332. Codec ID/Info : UTF-8 Plain Text
    ! b# Y8 b& L& i# d& i4 f: D
  333. Duration : 44 min 5 s6 m9 O3 r" A0 b& M
  334. Bit rate : 111 b/s
    % |2 a& |& R' d/ e8 i( i# }5 Q
  335. Count of elements : 772, k+ D- ]7 T+ N' Y8 _3 m9 T8 N
  336. Stream size : 35.9 KiB (0%)8 w$ v% U3 X; J' p9 ]
  337. Language : Romanian5 }7 d  W% w! J# y- R! x
  338. Default : No
    4 B9 Q6 j" U. Q6 Q) M
  339. Forced : No$ L: c7 c4 G7 @
  340. , S! U3 \3 X, S3 O' w1 g
  341. Text #23
    0 {) r, F- ~( R9 ~7 N
  342. ID : 25
    4 J, P: k9 E' p5 `# ?7 W: [0 L% _8 Z+ d  l
  343. Format : UTF-80 X: Y6 ]0 J  U* {, U6 |
  344. Codec ID : S_TEXT/UTF84 N* i6 |* C% e( U% |
  345. Codec ID/Info : UTF-8 Plain Text
    9 Q' N, X' J7 @# C3 T" |" I
  346. Duration : 44 min 4 s
    , H1 Y$ l( S; l2 s' A; X
  347. Bit rate : 188 b/s6 |+ W* G8 v: K) R8 E2 g
  348. Count of elements : 10684 a8 H7 \& N! Q. N& G% Y
  349. Stream size : 60.9 KiB (0%)) @! H/ i1 @( g9 H6 Z
  350. Language : Russian0 s2 j7 X0 ^$ d, o& s6 [# I
  351. Default : No. t* B5 Q0 H( Z$ S
  352. Forced : No
      l* d( Z  U% S$ g7 @* q
  353. . [! ]# G" i0 u& S4 j
  354. Text #24
    $ a: |( q7 v5 F% ]2 j
  355. ID : 26
    9 j) R  l; ]/ X0 `
  356. Format : UTF-8. [: Q# [  H9 ^# X" Q
  357. Codec ID : S_TEXT/UTF80 s% Z! c, f9 b) L, G! x
  358. Codec ID/Info : UTF-8 Plain Text4 U6 k/ j' U9 L, l# y7 L, [
  359. Duration : 44 min 5 s
    * L. s+ P3 |3 A. f6 ^( C: G. I, N! j
  360. Bit rate : 89 b/s/ w2 t4 D% b' X' ?! q; A
  361. Count of elements : 820
    ( b3 f$ l+ c0 {& J" g. G' Y! x  m
  362. Stream size : 28.9 KiB (0%)# M* p. K; @* d; N. q
  363. Language : Swedish% B+ t; D  u" E6 z. b& I9 y1 O
  364. Default : No
    ; ]" H  a' ?: Z! [3 C% m3 j, _
  365. Forced : No
    : ]. B3 l; Z" n$ {& k
  366. ! S+ @- G% q" b( F: I+ c
  367. Text #25; u' C! W  u6 `" |3 Y/ J4 y9 N
  368. ID : 27
    : {# k2 N9 v0 P/ ^
  369. Format : UTF-8
    ' W0 p! k7 `2 f5 Y3 b5 W$ [; j6 h
  370. Codec ID : S_TEXT/UTF8, h+ G. a7 o$ q" `. y# o) f/ N! t$ ^/ Q3 N
  371. Codec ID/Info : UTF-8 Plain Text
    # C' i. y, ^! ?4 a4 [& O: C
  372. Duration : 44 min 4 s
    6 X. R- X! G6 F+ U6 U" Z
  373. Bit rate : 316 b/s( H# ^; [% {& K% C- e' }4 Q8 l" d
  374. Count of elements : 1082
    ) L, S0 {( [5 ?  b* G
  375. Stream size : 102 KiB (0%)
    9 |, ~) M8 G; h6 q6 L, E
  376. Language : Thai# z3 C. H) ?: B; P1 k4 M
  377. Default : No
    , n* ~; `' m" `
  378. Forced : No) r0 ^! a8 G; ?4 J8 _

  379. & U9 G; i4 Y0 o: v
  380. Text #264 }0 z  E. X; E6 w2 ?% [# h( B; T
  381. ID : 28
    : a$ t. C. W( z% `' J& R7 e* j; L
  382. Format : UTF-8
    7 ?; }- j8 L6 M" q% y# Y% Z* c
  383. Codec ID : S_TEXT/UTF8
    8 r" t1 q1 p- r8 f6 S
  384. Codec ID/Info : UTF-8 Plain Text0 V# \: k, M. U4 X' X
  385. Duration : 44 min 4 s
    3 H) g6 v/ q! N: e
  386. Bit rate : 105 b/s! I3 z) \! L3 z6 l! {9 q
  387. Count of elements : 1047$ a5 ]7 M* E. R$ y0 l' `5 t
  388. Stream size : 34.2 KiB (0%)
    * n3 x4 l' t) @, \$ M/ Z
  389. Language : Turkish0 \( j; F# \" k
  390. Default : No
    8 j/ v( C3 i( F$ I' O* Z
  391. Forced : No
    2 q, c5 L* H! R6 p1 |( w
  392. 6 F5 W% @+ {1 N$ |) A5 o3 p
  393. Text #27
    6 S5 Y* P: v3 P  U- S* [8 ~2 P
  394. ID : 29& k9 X) z, L4 ~% z6 N6 w
  395. Format : UTF-8
    ' H+ X6 Y+ M+ I9 W9 E
  396. Codec ID : S_TEXT/UTF84 `" w1 {/ v. \2 o& A
  397. Codec ID/Info : UTF-8 Plain Text) W/ |3 _- e# M; Z" z1 N
  398. Duration : 44 min 4 s. a0 _! x# |& I* l& n0 H
  399. Bit rate : 146 b/s
    % z$ H$ @2 m0 g- A
  400. Count of elements : 989% g6 S8 `* c1 P8 c
  401. Stream size : 47.2 KiB (0%)
    " ]" f8 H1 i8 @" h
  402. Language : Vietnamese
    + d0 [# R* x; c, J
  403. Default : No! c% M9 L+ m5 d$ r: k2 H% H7 ~
  404. Forced : No
    ' D# q4 F) g3 Z% [

  405. " K# v, v3 X. Z: e0 ]- F
  406. Text #28$ [8 D* L) s" ]2 q
  407. ID : 30
    . `( v9 W8 A" z4 v9 C
  408. Format : UTF-8
    % w8 @/ \) D1 {; ]
  409. Codec ID : S_TEXT/UTF8* d" X  L2 s/ j8 h
  410. Codec ID/Info : UTF-8 Plain Text
      W8 B: ~) o! W" M
  411. Duration : 44 min 4 s1 j1 G% `& u0 W) m1 C% c, ]
  412. Bit rate : 104 b/s5 l8 y! J7 T, R. {
  413. Count of elements : 1080
    ' H' s3 d$ A: c% @! R, @9 @7 e7 A1 s
  414. Stream size : 33.9 KiB (0%)7 ^, N/ r3 V0 t1 A7 R# U, @4 Q+ |, x$ w& M
  415. Title : Simplified0 i4 W& I! h  j+ \! @6 l* b
  416. Language : Chinese$ c' [, Q1 H% G8 O/ d( Z+ b4 o* G
  417. Default : No. k. m1 t0 n. h' E
  418. Forced : No
    + J" N, {9 K" B6 K
  419. 3 g" Z7 _$ }+ n, l. F: `9 X1 [0 W0 `
  420. Text #29* _9 @! q" m; _' @& F
  421. ID : 31
    , _) a0 a; y$ e2 v
  422. Format : UTF-85 n$ L; W: r3 \
  423. Codec ID : S_TEXT/UTF8
    4 t8 }; s; [/ Q# z6 @4 P
  424. Codec ID/Info : UTF-8 Plain Text. X1 d- s; |) N9 [
  425. Duration : 44 min 4 s6 W" s: G( ^+ \, h1 W
  426. Bit rate : 102 b/s
    : m, A2 t  ~: i, H: A& W
  427. Count of elements : 1027
    3 ]7 O( O: W$ t( X% @9 a! u3 J3 k
  428. Stream size : 33.2 KiB (0%)5 D/ K; Q( \  c% n6 _
  429. Title : Traditional& {: P& P6 H9 E. S
  430. Language : Chinese) M" l  _& y$ w9 @: |
  431. Default : No
    " o. C% s4 M% @: c; X
  432. Forced : No
复制代码
% w1 X4 W2 g! T& H- g+ Q

( n2 D, B- }3 I- e( y) }6 w( }: @: E- E8 d1 i$ z% @

2 Q* v' S1 w. U# f) d6 ?! x  K8 F# i" R3 k, K

! }+ d$ p- T, P# O* n
游客,如果您要查看本帖隐藏内容请回复  VIP可免回复查看隐藏内容 详情请点击
发表于 2019-11-7 11:03:21 | 显示全部楼层
个人挺喜欢室内设计的,谢谢楼主分享。
发表于 2019-11-7 16:11:38 | 显示全部楼层
这个适合正在装潢啊
发表于 2019-11-7 17:23:56 | 显示全部楼层
谢谢楼主分享高清版本
发表于 2019-11-7 18:29:30 | 显示全部楼层
先拿下谢楼主
发表于 2019-11-8 00:04:55 | 显示全部楼层
谢谢楼主提供资源
发表于 2019-11-11 01:09:50 | 显示全部楼层
真需要的高清资源!
发表于 2019-11-11 08:39:12 | 显示全部楼层
来,给我也设计一下
发表于 2019-11-12 20:46:23 | 显示全部楼层
Nice sharing good
发表于 2019-11-13 23:10:02 | 显示全部楼层
这个外国设计的题材有趣
您需要登录后才可以回帖 登录 | 立即注册

本版积分规则

QQ|封号公示|手机版|有问题发邮件到admin#(换成@)hd1tj.org|微博|免责申明|HD一条街

GMT+8, 2020-6-2 00:11

快速回复 返回顶部 返回列表