HD一条街

 找回密码
 立即注册
搜索
查看: 490|回复: 13

[1080i] [无台标][日剧:深夜食堂5/深夜食堂 - 东京故事2 全10集][1080P-Netflix版/8.65G][日语 简繁英多国软字幕][MKV]

[复制链接]
发表于 2019-10-31 19:45:30 | 显示全部楼层 |阅读模式

马上注册,结交更多好友,享用更多功能,让你轻松玩转社区。

您需要 登录 才可以下载或查看,没有帐号?立即注册

x

7 ?) |. p# c" |' d6 @! w, U                               
登录/注册后可看大图
# f9 J6 X- R. ^1 @9 `
$ H" l* I- S0 L, ^. U1 c0 M
◎译  名 深夜食堂5 / 深夜食堂 - 东京故事2 - / 深夜食堂第五季
' q% Y3 w  Q0 s6 B, L◎片  名 深夜食堂 ‐Tokyo Stories Season2‐
0 J# M0 L6 W) g' E0 ?◎年  代 2019
8 ~& A/ r" N0 l  ]( Y* e◎产  地 日本, N2 [; R8 u/ a" X+ C
◎语  言 日语* X+ G& U4 H4 \3 H$ ~1 U
◎上映日期 2019-10-31(日本)
' v7 f. J, W7 v; ^& R0 N& m! {◎豆瓣评分 0/10 from 0 users
4 T! |6 K' ?: q0 e% k◎豆瓣链接 https://movie.douban.com/subject/33418410// l- F9 z/ n+ m% H* [# v) ^
◎集  数 10
- c& [( w+ a6 y6 M, E; ^◎导  演 松冈锭司 Joji Matsuoka / 山下敦弘 Nobuhiro Yamashita / 小林圣太郎 Shotaro Kobayashi" |/ N9 i' D0 l. k$ P' A) v, [
◎编  剧 真边克彦 Katsuhiko Manabe / 向井康介 Kôsuke Mukai / 小嶋健作 Kensaku Kojima / 大島まり菜1 E- ^# b& F& l% r) Y0 T  n
◎主  演 小林薰 Kaoru Kobayashi
8 x6 j- y( l! U1 H       不破万作 Mansaku Fuwa
* P6 {& v  u# z" Z( n3 L; j       绫田俊树 Toshiki Ayata
7 e& j  \1 c, H( r       松重丰 Yutaka Matsushige3 E/ C2 u; P" v) ]
       安藤玉惠 Tamae Andô
& z( p! v. Y) r6 r$ I/ S       余贵美子 Kimiko Yo/ V, {3 s' g+ U. R& T  e# K: w( l
       小田切让 Jô Odagiri
' D' q( x& v- m: b! f8 s, K; w0 s       仲村亨 Tôru Nakamura$ Z  v+ c7 J& j. s) j! V
       柄本明 Akira Emoto, q1 s* Q" Q4 P
       柄本佑 Tasuku Emoto
' |% ?) G- i: E& q$ o9 ]7 |       张孝全 Hsiao-chuan Chang- U# q  L+ U$ D
       胜地凉 Ryo Katsuji( ^/ Y& E% I) {4 s
       永山绚斗 Kento Nagayama: |: ~' B# i( A% `, L$ x
; i: P2 ]6 a* N+ p+ G' b2 T$ E

+ [4 ]* \0 R& i/ M7 m◎标  签 日剧 | 深夜食堂 | 日本 | 温情 | 人生 | 美食 | 料理 | 日劇
) _; @( ~8 \$ C8 t5 C& q/ U. h* C$ X  T' C9 d0 {2 T
◎简  介  
% V/ X, V& j# J9 C# v0 g) r, O4 p# K
  松重丰、小田切让,不破万作,余贵美子等常客继续出演,仲村亨,胜地凉,永山绚斗等新卡司加入、第五季「深夜食堂 - 东京故事2 -」全10话、将于今秋在Netflix开播。
9 C/ g& P7 n9 x
  1. Video" ~  }; X+ l% s2 n0 |+ O7 n
  2. ID : 1
    * t4 F% v: i6 W; z: S
  3. Format : AVC
    2 t! \5 i; O% C
  4. Format/Info : Advanced Video Codec7 L& b4 E% u( B7 ?; j, u
  5. Format profile : Main@L4' m! ?: p) R) C
  6. Format settings : CABAC / 3 Ref Frames! F) @: V0 {. `1 o( O0 T
  7. Format settings, CABAC : Yes
    5 ^" y# ~% o! W2 B0 n4 O  |2 q' n
  8. Format settings, Reference frames : 3 frames
    6 y. r9 d4 t* z3 X. Q
  9. Codec ID : V_MPEG4/ISO/AVC
    * B& }5 Q% f& j- _6 e; I
  10. Duration : 26 min 40 s' I4 K& X: q7 H" a: R
  11. Bit rate mode : Variable) h  i* L1 M* B; T7 c* q" d9 E
  12. Bit rate : 4 870 kb/s$ B% ^' Y$ E2 o8 W- Y
  13. Maximum bit rate : 7 305 kb/s% q, A* V6 v2 P/ x1 g
  14. Width : 1 920 pixels
    ) `) D; S& g; W& C3 U3 L
  15. Height : 1 080 pixels
    , E* ^. M1 C! X7 b2 e" m
  16. Display aspect ratio : 16:9! P8 a/ u% b, @
  17. Frame rate mode : Constant4 ?/ ?2 z% |% ~
  18. Frame rate : 24.000 FPS
    ' O) C' z  Z  I$ Z3 [  j
  19. Color space : YUV
    : g0 I. K0 }% B2 f
  20. Chroma subsampling : 4:2:0
    5 r$ Q# d+ `! x/ z- @7 W9 [- Y
  21. Bit depth : 8 bits
    ' N2 ^9 M+ N- }9 T" h
  22. Scan type : Progressive, T" Z0 I1 y8 Q6 A% B: O! N( ^
  23. Bits/(Pixel*Frame) : 0.098+ C3 W1 X: S4 Q/ m: p; D; u
  24. Stream size : 926 MiB (97%)5 a% |$ R/ R( s/ {5 Y
  25. Writing library : x264 core 148 r2715 7e75228
    1 L( x9 I  J2 I# n# {
  26. Encoding settings : cabac=1 / ref=3 / deblock=1:0:0 / analyse=0x1:0x111 / me=umh / subme=10 / psy=1 / psy_rd=1.00:0.00 / mixed_ref=1 / me_range=24 / chroma_me=1 / trellis=2 / 8x8dct=0 / cqm=0 / deadzone=21,11 / fast_pskip=1 / chroma_qp_offset=-2 / threads=8 / lookahead_threads=1 / sliced_threads=0 / nr=0 / decimate=1 / interlaced=0 / bluray_compat=0 / stitchable=1 / constrained_intra=0 / bframes=2 / b_pyramid=0 / b_adapt=2 / b_bias=0 / direct=3 / weightb=1 / open_gop=0 / weightp=2 / keyint=250 / keyint_min=24 / scenecut=0 / intra_refresh=0 / rc_lookahead=48 / rc=2pass / mbtree=1 / bitrate=4870 / ratetol=1.0 / qcomp=0.50 / qpmin=6 / qpmax=51 / qpstep=4 / cplxblur=20.0 / qblur=0.5 / vbv_maxrate=7305 / vbv_bufsize=9740 / nal_hrd=vbr / filler=0 / ip_ratio=1.40 / aq=1:1.00
    / C- G5 k1 v! s2 m. ?/ ]
  27. Default : Yes3 O* ^' a, m$ X! Z& d! o
  28. Forced : No# `+ c3 L' r9 f7 F) ?6 P- ]: I

  29. 5 R( j* k( P/ W+ b
  30. Audio8 O2 I; d9 L$ X( a& d9 X1 A
  31. ID : 2) D. k6 K3 j" Y# A1 i5 |6 }# Z
  32. Format : E-AC-3
    - H& X( v2 U% X% d
  33. Format/Info : Enhanced AC-3
    ) J* M7 }; W- {# I9 F' X/ F' c
  34. Commercial name : Dolby Digital Plus
    4 `% {- z9 R) C" t1 c6 ?
  35. Codec ID : A_EAC3
    8 M9 l. J( \, g$ s9 h: {
  36. Duration : 26 min 39 s
    9 u& j+ j2 M# F9 e
  37. Bit rate mode : Constant
    & u0 x8 ^2 w4 J' D+ `
  38. Bit rate : 128 kb/s
    $ M) {/ d7 k8 F& ]/ O2 ?9 Z
  39. Channel(s) : 2 channels
    ) d2 B9 F4 ?# _. X( _# {  B
  40. Channel layout : L R0 W8 Y/ J. ~2 l# M
  41. Sampling rate : 48.0 kHz
    % i$ q: c  ^& C" n- p- ~
  42. Frame rate : 31.250 FPS (1536 SPF)
    , R) u# b) q& k3 e6 l9 h( B8 X- N
  43. Compression mode : Lossy0 N: {) a) F* S
  44. Stream size : 24.4 MiB (3%)% G% _2 r, T6 C. @3 O- B; M
  45. Title : Japanese1 n6 H$ ^/ _/ A# G3 v
  46. Language : Japanese
    : _% `" |* P; e6 A: x: i- Q3 o  j
  47. Service kind : Complete Main
    & q6 s! p) Y2 H& Y& f
  48. Default : Yes
    # }) Y4 E8 [7 \( d5 I1 C% M& n, P5 T
  49. Forced : No
    & e' K" h& U% g2 J

  50. 8 t2 j/ G! q9 n6 M5 ?- b6 A& W7 g  [
  51. Text #1
    # b# t0 D5 w6 j0 H. o' p" y
  52. ID : 3
    4 Y5 G7 n' U; G* l/ X2 z
  53. Format : UTF-8
    ( c* v3 a$ T5 T* h
  54. Codec ID : S_TEXT/UTF8
    / M- E$ ]! {6 _# P
  55. Codec ID/Info : UTF-8 Plain Text! X$ X& a5 {0 V# ]5 }
  56. Duration : 23 min 52 s4 A" o) x* k# W* k
  57. Bit rate : 47 b/s
    1 R0 J+ x( N) ]1 U$ ^3 e
  58. Count of elements : 285
    . |8 \" b' W7 I8 Q8 |2 v
  59. Stream size : 8.37 KiB (0%)
    : Z' J; n; F7 e* Z7 C9 P. P6 ^: ~
  60. Language : English
    ( C4 v) d* v. N: M% H2 Y
  61. Default : No
    ) h$ C8 ^0 O4 j; M$ y9 g: n
  62. Forced : No2 p# a" d) @4 o8 g: s9 g4 {; b

  63. & v; W* r& n( j3 w, n
  64. Text #2
    " q' Z$ N8 B9 g4 y7 k& m  W
  65. ID : 4- w, a0 u5 d( z! O! ~  X
  66. Format : UTF-8
    , S8 U! i8 o" b+ Q0 F
  67. Codec ID : S_TEXT/UTF80 C0 b1 ?, Z: C; o+ g% Z7 d: O
  68. Codec ID/Info : UTF-8 Plain Text
    7 R! A! R4 L7 K. x  w9 [
  69. Duration : 24 min 51 s
    4 D. ]! I/ H: z5 `  Q, i
  70. Bit rate : 76 b/s, T, Z% ^. B$ w  a9 j3 ^3 w8 g
  71. Count of elements : 289) X1 q: q: M6 `9 e
  72. Stream size : 14.0 KiB (0%)
    4 H( D0 t9 l  f( o& V
  73. Language : Arabic/ D- [& n$ Q. t4 [, c  f
  74. Default : No0 u1 J0 H1 @4 f+ p5 \1 D7 y
  75. Forced : No! [7 v6 W2 [1 l) x) R+ ?

  76. 6 c" l1 n1 @9 }- m5 D0 ~1 \
  77. Text #3
    ' ?4 F" R+ ]: ?( O% B" ], k
  78. ID : 54 }+ ~! e& h# [, E  c" o9 L0 k
  79. Format : UTF-8) _) w' J; ]1 b8 w% Q' n0 c' m/ |1 M
  80. Codec ID : S_TEXT/UTF8% i9 ?" D- e0 m. q+ P. ?$ t
  81. Codec ID/Info : UTF-8 Plain Text( q% d5 ?3 V5 K0 E& n  m2 D, R& f
  82. Duration : 24 min 51 s
    . J  E! Q' t& c$ i) x3 `7 j
  83. Bit rate : 43 b/s
    ' a; t- L# A" P/ J, g
  84. Count of elements : 289- H3 I+ n* z. ?" e8 I; n5 d
  85. Stream size : 7.98 KiB (0%)
    3 j& d( |0 B( V7 ^2 V
  86. Language : Czech$ L8 o" W% @4 G1 i
  87. Default : No7 _7 U. W8 O0 M' a
  88. Forced : No$ u% t" R' R; s! A8 e  W' ]

  89. 0 ]( n2 h" {$ u. R1 A% Z9 `
  90. Text #4
    / U, |$ `6 ~) S& i( D" `
  91. ID : 6( ?5 j1 W, U8 [
  92. Format : UTF-8
    & v2 v# ?! e, c7 W4 |3 ?9 Q
  93. Codec ID : S_TEXT/UTF8$ G; ]( x& u9 O, F" ]7 Z+ P
  94. Codec ID/Info : UTF-8 Plain Text  ?0 G% j8 \+ b+ c! s8 w% V
  95. Duration : 24 min 51 s9 T: e% e; e& N# {  M: W) `
  96. Bit rate : 42 b/s
    3 X0 B& Q# l4 T! J4 o* z2 L
  97. Count of elements : 288( f3 i0 o$ l! O
  98. Stream size : 7.74 KiB (0%)
    # \! J  \$ t$ E! Q; J& g# O* {( [
  99. Language : Danish
    , z$ _1 k) h/ v9 J1 t" Y# [5 s
  100. Default : No
    - k' h1 G5 g9 m1 X4 _: }* w' p
  101. Forced : No
    $ e  M- a6 l6 P: O9 g2 C+ {& C

  102. , C$ @. T- y/ o% K
  103. Text #5
    & ~' V8 u$ z7 `; E- m- e
  104. ID : 77 u) @7 M  g. S  J
  105. Format : UTF-8
    : j2 f- O: s7 y6 u$ _# C- }
  106. Codec ID : S_TEXT/UTF8. k+ N3 G1 W9 Z7 ^/ z; D
  107. Codec ID/Info : UTF-8 Plain Text) V5 ]% f8 S$ t$ F0 m- W
  108. Duration : 24 min 51 s
    , s* X: }7 K: n* N
  109. Bit rate : 46 b/s7 ~6 d. L+ X+ R6 W& q! [" N
  110. Count of elements : 289
    . M" o0 K0 ^) F0 u  V: g3 }! P
  111. Stream size : 8.45 KiB (0%)
    " \2 Q/ i4 z& ]+ I
  112. Language : German
    9 Q* c" x, o/ Z/ H$ |$ M7 e
  113. Default : No
    " v1 T5 X( M; J: ~0 m2 l
  114. Forced : No
    $ e3 u* Q& L  X  c
  115. . s2 @7 R8 @6 {) ~7 ]; S2 o& v
  116. Text #6; K7 O7 K- ?$ U% u! ]
  117. ID : 8
    6 \, C4 r& @8 b0 ^" n% V+ C& D
  118. Format : UTF-8
    8 k8 l1 C( O5 i! K' k* D) W9 m) T
  119. Codec ID : S_TEXT/UTF8
    " U# _6 J' U  \; P, s$ u1 H0 {! x; T
  120. Codec ID/Info : UTF-8 Plain Text
    8 ~9 c& I. r2 c( E
  121. Duration : 24 min 51 s. w5 T$ ]. {- a) j
  122. Bit rate : 79 b/s
    ' p6 X/ h7 ?7 ?5 a
  123. Count of elements : 285& k0 g/ c6 a* a- G+ k
  124. Stream size : 14.5 KiB (0%): X- [+ s4 s+ O7 X: e, E, c
  125. Language : Greek
    0 |: z2 n" H; ^% v4 N# t% I
  126. Default : No
    3 F( H3 G6 m0 G5 x' Z
  127. Forced : No4 Y! E, f) }5 K$ B4 i+ I+ w, V; [
  128. 0 h, ]: H3 R6 s2 ~. T9 F! B
  129. Text #7# l. d" \& n1 v/ F  {( A9 g
  130. ID : 9
    * c& t# X1 h2 O) A  E
  131. Format : UTF-88 q' Y' u# Z( H: Y4 L) O: k; W
  132. Codec ID : S_TEXT/UTF8
    7 `6 H! o  b" u
  133. Codec ID/Info : UTF-8 Plain Text
    ! s0 a. v; C+ V/ u  n
  134. Duration : 24 min 51 s4 |+ `5 c% n" C- f# _* H2 Q
  135. Bit rate : 47 b/s
    3 u7 t8 O$ y; j
  136. Count of elements : 2897 k  J2 e/ [" l& E
  137. Stream size : 8.69 KiB (0%)* }1 u0 f6 ?( ?$ v" g& {
  138. Language : Spanish6 Q1 J. t& S8 b3 m0 a
  139. Default : No) Q6 T) X) _- t! w2 ?; R& U
  140. Forced : No0 N) C2 D& I( k9 Z" i  d& F

  141. 5 k) ^. d, }9 |+ L7 u1 ^/ k/ L& H
  142. Text #85 A" D" F% P) a6 p1 T1 M5 W
  143. ID : 10
    8 z. s. G& Q4 G+ s9 L# q! N/ m, E+ f
  144. Format : UTF-8
    $ y7 c! w3 Q& B
  145. Codec ID : S_TEXT/UTF86 g( Y& n: c) P0 [$ Q
  146. Codec ID/Info : UTF-8 Plain Text
    ; ?  k: s: ?: f7 x
  147. Duration : 24 min 51 s3 y: b7 V, |1 d
  148. Bit rate : 47 b/s4 {: h* a( N+ |% |0 e. l
  149. Count of elements : 289+ D4 Q- m6 ~( X3 \
  150. Stream size : 8.69 KiB (0%): L5 n1 ~. v$ ?1 I7 Q+ Q
  151. Title : European/ j+ H0 [) ]8 w( s( f( M) X. ?
  152. Language : Spanish
    + O, c) E9 Y8 Z3 M; Z3 I
  153. Default : No( H. W* ~, }9 `8 ~; K- q2 G0 S
  154. Forced : No3 m# t/ V( @& `: m+ z: k/ z8 D! l

  155. 3 c7 @. s6 M1 J* D" H+ x
  156. Text #9
    ; |  ~# f9 t; ]9 v# x8 u, b/ T
  157. ID : 110 `& ~* L$ w/ r- c+ _0 n
  158. Format : UTF-87 b/ ?& h$ r, v7 I/ d7 H% X
  159. Codec ID : S_TEXT/UTF8
    2 y! ?4 H) \8 Z* i2 ?; {
  160. Codec ID/Info : UTF-8 Plain Text
    ) S( |9 @; \4 k7 d0 c
  161. Duration : 24 min 51 s
    0 m+ E4 R+ Y. s* |7 a
  162. Bit rate : 42 b/s
    # L: _! ~0 N- U. q2 {0 C7 }5 F
  163. Count of elements : 287
    $ g+ {7 A+ V& i3 ^
  164. Stream size : 7.81 KiB (0%)
    / k0 v- j. C. Y# h
  165. Language : Finnish
    8 [& J' ?# u/ p! o7 c. w
  166. Default : No
    " r/ e/ j  t8 U$ z' ]
  167. Forced : No
    3 c& w: Z1 G, X
  168. ; o! a7 h% l; i' G: Q- i
  169. Text #10
    2 ?% }3 h+ x' R; Q+ T# p
  170. ID : 12# P/ W$ k$ f) u. S
  171. Format : UTF-8
    5 I0 l2 |( |9 r
  172. Codec ID : S_TEXT/UTF8
    - `4 q9 {# G0 M: Q- _! \' h
  173. Codec ID/Info : UTF-8 Plain Text
    7 p3 x" @0 K9 t  z8 q6 B* z
  174. Duration : 24 min 51 s
    * J' L. c: N9 h, y5 C
  175. Bit rate : 46 b/s
    + o. w9 Q* I0 N) `6 J0 |5 U
  176. Count of elements : 288
    : s4 V+ Y/ g% z
  177. Stream size : 8.43 KiB (0%). s; D+ H# G. M8 o* K2 ~
  178. Language : French
    . \  o* n2 F* d2 |' b( ^" q
  179. Default : No) T6 U7 D3 g  o  d5 W) M
  180. Forced : No
    8 P6 [* g- S, d" f

  181. # x" |0 W$ \. n
  182. Text #11. u0 H9 J9 x1 a$ y, A/ p3 n
  183. ID : 13$ X# M( v' |! M/ _" z
  184. Format : UTF-8) M0 V) ]7 q, O' L, k5 A
  185. Codec ID : S_TEXT/UTF8" a. O1 i! K% m# @
  186. Codec ID/Info : UTF-8 Plain Text' t* i1 o* Q* A: Q/ \5 X
  187. Duration : 24 min 51 s
    . R" o$ u9 @# u1 H8 U
  188. Bit rate : 70 b/s
    1 U7 m8 r( `% E0 f7 N0 A
  189. Count of elements : 289
    8 }* f# Z! U/ i/ C
  190. Stream size : 12.8 KiB (0%): k: ?8 V, Y& v- f5 I
  191. Language : Hebrew
    7 o! ?! \0 b2 ?% y; `( Z# p5 V
  192. Default : No
    0 o, K5 `! O4 P( Z( M
  193. Forced : No/ |) S" i) f+ r/ q0 w) K
  194. * C% Z+ ?5 n9 x
  195. Text #12
    3 K( b" ]! }& q. F8 v
  196. ID : 14
    % s& w5 o( y) ~: C2 S+ ]- a6 C' _1 _
  197. Format : UTF-8
    ' G: S* J; c+ r) r# ^- e5 Q) u
  198. Codec ID : S_TEXT/UTF8) ?/ M( Q( P% _/ F3 w- E+ o+ @: r5 T
  199. Codec ID/Info : UTF-8 Plain Text' R2 n) [5 t7 e+ p9 @
  200. Duration : 24 min 51 s8 @6 e. V4 X4 B& @, w* u! {, t
  201. Bit rate : 46 b/s$ o+ g$ U. Z& U" H2 l
  202. Count of elements : 289
    , N- I. K0 T2 {) v$ k+ A4 n
  203. Stream size : 8.39 KiB (0%)
      a) ^) o+ j5 M' \
  204. Language : Hungarian" |8 \9 h+ K+ h! u; E4 ~: v
  205. Default : No
    ; I/ ]9 n2 S; V9 m3 T1 p
  206. Forced : No1 z, s& x! d, Z# U9 K

  207. , ^1 l0 w' H7 r# s- v) m" w2 d
  208. Text #13* [) n- j: d# p' @+ E, K6 r! d
  209. ID : 15& C9 y2 @: \: I% p# p8 E0 P
  210. Format : UTF-8
    5 q/ F( {0 [, ]! j5 d
  211. Codec ID : S_TEXT/UTF8
    9 V/ z7 n3 K$ Y6 p
  212. Codec ID/Info : UTF-8 Plain Text
    2 y# B9 q$ o) }8 s  W
  213. Duration : 24 min 51 s
    7 a1 S" V" h1 D# P# s' K& g
  214. Bit rate : 43 b/s2 b$ T, Q1 Z* R0 H
  215. Count of elements : 2890 {4 T0 X( s8 N) @) N$ |- \
  216. Stream size : 7.86 KiB (0%)  c( g7 L+ c0 U5 [0 S
  217. Language : Indonesian
    ) e- |9 }0 E- t8 k) ~4 W7 _2 F6 y
  218. Default : No
    9 R8 K+ d' @9 B: y
  219. Forced : No# }2 F$ E# }: W; Q' B' W; K7 E4 n  F

  220. ( R- O% z) M) ^$ r  {2 u
  221. Text #14$ ]2 F( E7 e. k0 |3 {
  222. ID : 16
    - X( w, [2 }& N5 L1 t3 c
  223. Format : UTF-8+ r* a8 l7 ]' S; @9 Y( Q: j
  224. Codec ID : S_TEXT/UTF8
    7 I5 p% B4 `# m' ~2 a* E
  225. Codec ID/Info : UTF-8 Plain Text
    # g# K5 P; y/ U
  226. Duration : 24 min 51 s  N& I8 T" l) U" J
  227. Bit rate : 45 b/s4 l+ z) `( T4 G- v$ s, s1 m  f4 L6 e8 J
  228. Count of elements : 289! L! N3 j( o, m1 m. l
  229. Stream size : 8.31 KiB (0%)4 J& \9 o( o4 ]) e! s
  230. Language : Italian% A8 S- R1 [) b
  231. Default : No; k5 f3 L' ~0 @" h7 g6 n0 V
  232. Forced : No
    + q, W2 ~( J: o, W8 h  y9 Y# m

  233. ; [; |! e" x; v' S  S4 g( I: t
  234. Text #15
    ; H8 j3 R- F- j' [
  235. ID : 17/ ~' p) d( c: g) p7 \
  236. Format : UTF-8
    6 ~2 S9 O) @; Y
  237. Codec ID : S_TEXT/UTF85 i, a1 ^8 b9 n, \) j& j
  238. Codec ID/Info : UTF-8 Plain Text# S5 Z! \) `# |0 ]( z' Q9 ]4 O" s0 _
  239. Duration : 23 min 53 s
    ( K5 B: I6 g1 c
  240. Bit rate : 92 b/s
    7 _3 l0 _* Y  u6 e) v5 M
  241. Count of elements : 3509 V0 ~) Y5 P& @/ Z$ h
  242. Stream size : 16.1 KiB (0%)
      K5 W( s; p) l( g1 W$ t
  243. Language : Japanese
    + e! a* V$ j  c4 i8 u
  244. Default : No3 W! U6 Q8 ?, M4 `2 c! V1 R
  245. Forced : No& y1 d) L6 ?" ]; |; X

  246. % a6 b% h: S" n# a, u. P1 o5 x1 Q  P
  247. Text #16/ [8 {- u; O% O
  248. ID : 18
    - G7 [. `5 ]1 z
  249. Format : UTF-8
    . s/ ^! q, P9 ^: l, n# e+ u6 ?( R
  250. Codec ID : S_TEXT/UTF84 c2 s5 W8 n, [7 R0 @
  251. Codec ID/Info : UTF-8 Plain Text0 ?: }( f) b& ]4 M
  252. Duration : 24 min 58 s
    " M7 [- D( ~1 g5 a% u( Z
  253. Bit rate : 88 b/s) m- v1 s2 Q6 [. J
  254. Count of elements : 3533 E3 l) L- @2 S' }
  255. Stream size : 16.2 KiB (0%)
    + V4 A$ l1 b2 E& d. M: g9 W
  256. Title : SDH
    6 Z; f8 d0 T$ b1 b% g7 g6 F
  257. Language : Japanese
    : n; k% z  o9 f9 V3 f
  258. Default : No  V) R: L; h$ q2 x
  259. Forced : No
    ' D  n* D% E" a+ _

  260. & s2 R* q" s; R' x+ d/ ^: V8 s
  261. Text #17
    / i! k3 a: z8 k7 P. I$ A
  262. ID : 19
    4 K# G' A% u  g! C
  263. Format : UTF-8
    5 N3 X4 a9 }9 y& R3 J. a5 [: H
  264. Codec ID : S_TEXT/UTF8. c2 y: S6 h- O2 e  h! O
  265. Codec ID/Info : UTF-8 Plain Text
    1 u' F- ]$ t) q+ c
  266. Duration : 24 min 51 s
    ) x8 R. k. l1 v3 I' ?
  267. Bit rate : 57 b/s* S4 F5 x9 l: j8 s+ u5 k( R; Q
  268. Count of elements : 285
    + s$ I- q9 M2 j3 q* x
  269. Stream size : 10.4 KiB (0%)( r& }& O' |' \! q3 l
  270. Language : Korean
    / N& W8 ~8 c3 s+ L
  271. Default : No7 O. R# `3 I2 J4 J
  272. Forced : No
      J2 d6 O' O3 ~

  273. % d) O( s; B" b; \
  274. Text #18
    3 \- V# R) h( D; e' o9 q& w
  275. ID : 20
    " v, _4 r! u/ P0 N3 L
  276. Format : UTF-8
    , P! p% q4 }, d+ x" c, S
  277. Codec ID : S_TEXT/UTF8
    3 w. b$ d- N" w( E# O& D/ P  p
  278. Codec ID/Info : UTF-8 Plain Text$ F- v: n' H8 G( L3 D, W9 b
  279. Duration : 24 min 51 s$ L! N% n) w6 }
  280. Bit rate : 43 b/s" Q# l9 r7 Y* v/ g; A" B( V+ `" S
  281. Count of elements : 289: P8 I7 U: }! h) a
  282. Stream size : 7.93 KiB (0%)9 B& l0 f! e/ I
  283. Language : Norwegian Bokmal4 o7 }2 N9 j% u
  284. Default : No
    3 F; z' n, l( m  j
  285. Forced : No
    - S4 n- U% D, Z4 g9 b

  286. ) l+ B1 P  ~* g! a( k* Y6 j
  287. Text #19+ a: U. z$ ]7 }4 E
  288. ID : 21
    0 ^; M9 y3 t1 q+ C; y
  289. Format : UTF-8
    ' W1 T5 p1 [% t5 n, C+ e' ^# `
  290. Codec ID : S_TEXT/UTF81 U' x( ~* L. N% J- C
  291. Codec ID/Info : UTF-8 Plain Text3 e- p! G% L5 Y" m& W& H
  292. Duration : 24 min 51 s
    3 J' x$ B; n* y0 \8 {9 |
  293. Bit rate : 42 b/s. o, X# s# f4 \% g% Z) Q
  294. Count of elements : 288- P2 s! M* h- @3 [
  295. Stream size : 7.82 KiB (0%)6 _: I! ?  R& X% u5 N; d8 r$ G+ {4 J
  296. Language : Dutch
    : o2 s3 S) i2 N: p" V3 k/ m
  297. Default : No" c3 ~* g+ r: o4 y; K
  298. Forced : No
    + R; u3 i  y! k7 J% F

  299. 8 M4 S) r0 S, T8 v# v
  300. Text #20' ~4 L& s: a1 `. M2 v
  301. ID : 22$ G) Z, S+ }6 p2 m9 A2 [  J
  302. Format : UTF-8
    5 M( t" S! R' h. D) e9 J8 d
  303. Codec ID : S_TEXT/UTF8
    1 b6 N: F0 @& }, n  ^( v4 g7 a3 Y+ s
  304. Codec ID/Info : UTF-8 Plain Text
    7 N- v9 n- F0 w% x: b/ \
  305. Duration : 24 min 51 s
    ! O4 s- e  v, a4 N5 O' t
  306. Bit rate : 43 b/s
    ) e- R& v7 C& Y" o! s3 W7 k
  307. Count of elements : 287
    ) G. `, |& Q* W2 U0 J! S
  308. Stream size : 7.94 KiB (0%)9 p! Q+ k& W$ a$ p
  309. Language : Polish
    9 ^, j$ _2 `( a4 T+ @
  310. Default : No* F- ]; q: A5 A3 y. D! ~
  311. Forced : No/ h; [# a1 N) D! |7 C

  312. + H2 D' k3 f5 w; i0 \
  313. Text #212 i( h9 V6 g7 k
  314. ID : 237 C9 B0 P9 r9 O& Y
  315. Format : UTF-8
    : L& j: i6 a# h) z
  316. Codec ID : S_TEXT/UTF8- X7 Q7 }9 L' G, {$ ]
  317. Codec ID/Info : UTF-8 Plain Text4 k  o4 u$ ~, C5 J9 i5 R2 t% d
  318. Duration : 24 min 51 s" O  J1 f* S* F2 C8 u* |1 H
  319. Bit rate : 49 b/s1 W( _- _* i1 `; |' y
  320. Count of elements : 289
    % K. O) O9 w9 @: L  T/ l6 C
  321. Stream size : 8.97 KiB (0%); j0 j/ P' Y/ A1 T9 d
  322. Language : Portuguese8 {) \9 N; I7 F  l+ \" `, W( k
  323. Default : No
    - M  P- z0 E3 {( i
  324. Forced : No6 c: _, d+ P6 w

  325. - t* {  i% d. |  s
  326. Text #22" Y& n* {4 b" Z, R+ k4 Z
  327. ID : 24
    - q- S3 O( X3 ^# ?3 q) j6 [+ g
  328. Format : UTF-8+ D. N/ x4 x) _& F/ Y) ^( k) V
  329. Codec ID : S_TEXT/UTF87 J+ ~1 ~, s8 M6 q  w+ l) y4 v; C
  330. Codec ID/Info : UTF-8 Plain Text
    & F! u. W- J" P2 H4 s. Y
  331. Duration : 24 min 51 s! C7 {+ r" S  `4 S3 c% {9 [. ~, P9 [
  332. Bit rate : 46 b/s
    # ?# f. G) h( O
  333. Count of elements : 289
    : a% H% Y; y/ p/ C( l1 |4 e
  334. Stream size : 8.44 KiB (0%)" n1 U" N- y' p: K) ~& F' Z
  335. Title : Brazilian/ \0 X2 m, f3 {1 @( B
  336. Language : Portuguese
    1 f  S6 o; p& r  ]) @
  337. Default : No  x5 h9 E% k- U( g
  338. Forced : No% L. `) E9 G0 g* ]9 w
  339. / P0 B8 \* U- a3 S
  340. Text #23$ Z5 @$ O5 A; l
  341. ID : 25
    ) q0 r$ [' E0 h! c. L$ e# a
  342. Format : UTF-8- {7 w' Y: U3 k4 a
  343. Codec ID : S_TEXT/UTF8
    2 y, W5 l0 {% I( h  {
  344. Codec ID/Info : UTF-8 Plain Text
    9 p8 R7 P9 b' f7 [
  345. Duration : 24 min 51 s! ?+ A( e& Q0 D* ?2 q# O6 w
  346. Bit rate : 53 b/s+ F+ @, v9 ?1 G+ k
  347. Count of elements : 289& `: I# c" c$ d$ `: m  q+ {9 V
  348. Stream size : 9.78 KiB (0%)) B6 J6 [; b; y7 n. K+ f
  349. Language : Romanian
    ; @. \0 h! I# g$ N3 R5 t& D" C- g
  350. Default : No
    2 e2 |' M% }% h3 F9 T5 T" m
  351. Forced : No
    ! C: I2 [5 s  T( c

  352. $ z  i* t: Q2 V/ \# S) W5 g
  353. Text #24+ @; i6 G5 H! W4 b
  354. ID : 26
    1 m. U5 K: a& f/ Z* p
  355. Format : UTF-8
    , T3 g( p. h5 |# n, D/ c2 ~
  356. Codec ID : S_TEXT/UTF88 T# v' ]# m, W. x: z+ l0 r( q" r5 s
  357. Codec ID/Info : UTF-8 Plain Text
    - j7 D" M4 o& [5 J7 @9 z
  358. Duration : 24 min 51 s  F* h% j$ c" u5 h
  359. Bit rate : 71 b/s
    ) q& C3 W' [$ N
  360. Count of elements : 288
    , c2 _% c2 Y- c$ \. ?7 o
  361. Stream size : 13.0 KiB (0%)1 u3 n: \( }' _4 H  }& i
  362. Language : Russian
    1 u7 A, E7 a- A3 g
  363. Default : No
    + K0 H4 V  U$ k* a, F2 U1 X
  364. Forced : No
    . f7 E8 j4 |2 B* d6 w
  365. 5 f, ]' n8 E- ^
  366. Text #25
    - f) B% D( Y$ y9 T
  367. ID : 27
    ) q8 Q6 o! b* G2 T* B
  368. Format : UTF-8/ N; z0 W3 V, B
  369. Codec ID : S_TEXT/UTF8
    ! x; K6 l) w0 k5 t: S4 h6 W' v3 b
  370. Codec ID/Info : UTF-8 Plain Text
    % |: D! W: b" |6 H" e6 {% M
  371. Duration : 24 min 51 s3 O# k; Y- w9 U7 u7 H. T# T
  372. Bit rate : 45 b/s. d: Z  a5 j4 \, [1 t3 v7 m- F
  373. Count of elements : 289
    ! v! e, P9 G0 q. C$ R( [8 v; w
  374. Stream size : 8.26 KiB (0%)
    % z) h4 I4 }, ~# U! M0 K2 \
  375. Language : Swedish
      D1 v1 C! B# d1 T2 G
  376. Default : No
    6 k: e- c0 u# |- E
  377. Forced : No/ `, l2 `) ?) ?: y9 V- J( P8 a. y

  378. ( X& y) Z- j& z3 A& Y
  379. Text #264 x! H( I, W$ _6 `1 j: a' @
  380. ID : 28
    7 O" w* s! [& z& ^) n% y  I* n8 L
  381. Format : UTF-85 C  {! L  x, G; _
  382. Codec ID : S_TEXT/UTF8/ {; U6 C+ [8 E2 u" J& |7 `
  383. Codec ID/Info : UTF-8 Plain Text) C  Q; X" C% \& T8 d
  384. Duration : 24 min 51 s. F! s; M5 d3 n4 ?8 {
  385. Bit rate : 120 b/s0 j% W1 n" D$ ?. _
  386. Count of elements : 2909 N- `6 I' ~, o) t- y# ?
  387. Stream size : 22.0 KiB (0%)
    / ?! C) Y: E- N. x
  388. Language : Thai4 {! J$ d$ j/ z# t/ `: E7 n
  389. Default : No5 O& ?' i, [* L/ d! W
  390. Forced : No' O* ?0 Q- a5 v; M
  391. * L) r! I/ @4 H1 b7 o4 A7 `! H7 ~  c
  392. Text #27
    0 L5 ^1 ?- [6 h+ ^& V  b" [
  393. ID : 295 Y# j$ `7 X- g3 P0 R5 r
  394. Format : UTF-8" c  g9 P, t$ k. {2 T% L0 z! X( e
  395. Codec ID : S_TEXT/UTF89 ~* h8 f- p( X+ ]0 s
  396. Codec ID/Info : UTF-8 Plain Text
    % B. L9 D  `' F/ O
  397. Duration : 24 min 51 s) M" ~! u; z0 B7 y
  398. Bit rate : 46 b/s
    5 x3 T: n' S$ U5 i
  399. Count of elements : 289' v+ K8 Y" [6 \1 {
  400. Stream size : 8.43 KiB (0%)
    ) ~5 l0 E2 D- I, I+ p! c" W
  401. Language : Turkish
    8 q- K6 Z5 `2 D8 l" X; `$ ~
  402. Default : No% C& N$ t3 e* d' D# d! b
  403. Forced : No: @$ L. D% ~9 H# z* ], T, S
  404. ) d! u) `: m' U8 d9 S- S
  405. Text #28
    1 `% ^! ~$ B  {
  406. ID : 30: F/ E( a& R! k0 E. j: T! T
  407. Format : UTF-83 t: T5 N6 }" i- x
  408. Codec ID : S_TEXT/UTF82 E) l5 y) [+ I6 W% b( H" f
  409. Codec ID/Info : UTF-8 Plain Text
    ! }, L. L& u% d
  410. Duration : 24 min 51 s
    8 @: _3 V6 Y( l0 T& {1 }! D
  411. Bit rate : 64 b/s4 a% P) b: w2 H
  412. Count of elements : 289
    ; u; F9 J- s  ?3 j8 H( Y. T' u
  413. Stream size : 11.8 KiB (0%)( I0 `  n" I4 Y1 i" v( Y$ d8 U
  414. Language : Vietnamese; m3 y( C5 f1 i! j2 u. F
  415. Default : No5 G( D+ y- B) S' a$ l" K
  416. Forced : No
    & L% a# G  V$ x  J/ z' V- C' S9 e8 j
  417. 6 ?- b( p" `1 `6 u; T7 t3 N
  418. Text #295 F: f, B  v% E$ s5 o  E% t: }. _) U
  419. ID : 31
    & r6 g( P% s  \! M9 M6 }! k, o9 k5 |
  420. Format : UTF-8
    3 }; I  q% S) p' D
  421. Codec ID : S_TEXT/UTF8
    3 X0 w$ x/ a/ g; z8 T# S
  422. Codec ID/Info : UTF-8 Plain Text0 j" P6 g$ Y7 I% a; [  T! N& N
  423. Duration : 24 min 51 s" w, H3 `; w. l, G2 g! m
  424. Bit rate : 47 b/s% d1 g2 i  x) g5 _- i
  425. Count of elements : 2890 L5 ^6 W* k1 K' K
  426. Stream size : 8.70 KiB (0%); R8 G$ K# Z/ M' g
  427. Title : Simplified
    . ^* x' P1 ~- x% J* u# u
  428. Language : Chinese% g: G' T; o! Z* S6 J, W  ?- y3 _
  429. Default : No7 p" q1 F+ m. q' N9 ]
  430. Forced : No/ x  W3 J7 |4 \, b) _
  431. 1 c4 _( l& N$ Z
  432. Text #30
    : v  D" u% U. O, v7 ]5 O
  433. ID : 32
    ; D2 J% {5 |7 w% F, d/ e% T# I
  434. Format : UTF-87 k; d4 H% V5 D) H
  435. Codec ID : S_TEXT/UTF8
    # r; o4 w* ]! i9 R6 G( p2 c
  436. Codec ID/Info : UTF-8 Plain Text
    " g! u3 _5 h6 S. W1 X
  437. Duration : 24 min 51 s
    ; l/ s) k2 g% L) N* E( q/ j
  438. Bit rate : 45 b/s* {  q- m' i5 |' N, X+ B
  439. Count of elements : 2894 {( s. P; b/ g4 n, z2 ]
  440. Stream size : 8.37 KiB (0%)
    - K* b" ?" ^% t
  441. Title : Traditional
    5 p$ O' b7 Y: ?' {3 j
  442. Language : Chinese" X. k. Z$ F$ n3 `! i% d5 x' Y. `
  443. Default : No
      |! h* @% g4 N& |
  444. Forced : No
    ) {  z+ [& D& s4 F1 h

  445. # Z% H4 _9 {( U! A
  446. Menu! J8 [8 f0 N. E. F6 H, w# ]
  447. 00:00:05.000 : en:Intro start! Y; P" Q7 n( {' `1 w
  448. 00:01:56.167 : en:Intro end
复制代码
( [% \1 {8 F; {
1 g3 g3 {3 j/ m4 t4 @

% L, f& p/ T8 h' G) c' \
3 ^( K' |' I' ?& y3 Z  w
& Z1 ^/ {3 O" S. P$ S, U3 f" p! ]
游客,如果您要查看本帖隐藏内容请回复  VIP可免回复查看隐藏内容 详情请点击
发表于 2019-10-31 19:51:38 | 显示全部楼层
收了收了,大爱奈飞
发表于 2019-10-31 21:00:58 | 显示全部楼层
thank you very much
发表于 2019-11-1 01:17:20 | 显示全部楼层
日剧一般就是10集左右,好看的会觉得意犹未尽。
发表于 2019-11-1 04:15:43 | 显示全部楼层
Thank you for sharing
发表于 2019-11-1 06:51:25 | 显示全部楼层
谢谢楼主非常想
发表于 2019-11-1 10:25:53 | 显示全部楼层
《深夜食堂》原来是剧系列剧集啊,大名鼎鼎的但是木有看过
发表于 2019-11-1 11:40:23 | 显示全部楼层
必须深夜追
发表于 2019-11-1 12:07:15 | 显示全部楼层
谢谢楼主分享
头像被屏蔽
发表于 2019-11-1 16:57:57 | 显示全部楼层
提示: 作者被禁止或删除 内容自动屏蔽
您需要登录后才可以回帖 登录 | 立即注册

本版积分规则

QQ|封号公示|手机版|有问题发邮件到admin#(换成@)hd1tj.org|微博|免责申明|HD一条街

GMT+8, 2020-6-3 01:50

快速回复 返回顶部 返回列表