HD一条街

 找回密码
 立即注册
搜索
查看: 885|回复: 16

[1080i] [无台标][台剧:罪梦者 全8集][1080P-Netflix版/13.5G][国语 简繁英多国软字幕][MKV][张孝全/贾静雯]

[复制链接]
发表于 2019-10-31 19:37:21 | 显示全部楼层 |阅读模式
5 Z8 e! e6 a" m+ j
                               
登录/注册后可看大图
, T, b/ T) g( W$ h5 O
% E" c: q% H. z% f' C! a, H1 l
◎译  名 罪梦者 / Bardo / Nowhere Man / 摆渡身2 j4 u9 r- e# }- z% S( Y3 S7 k
◎片  名 罪夢者8 S5 k9 R7 D6 s/ y9 M
◎年  代 2019
' j: a1 [. s9 a4 _+ J" t" f. ^0 O# ]◎产  地 中国台湾: U! s- P# g2 x; t6 g  P
◎类  别 悬疑 / 犯罪
* d1 k) G; N; Z  z- l) x7 A- w◎语  言 汉语普通话
3 Y2 _7 X" n1 B8 H◎上映日期 2019-10-31(台湾)" c- m3 K+ q% @7 T* c/ @1 ^
◎IMDb链接  https://www.imdb.com/title/tt10895588: f, W; r. t1 U
◎豆瓣评分 0/10 from 0 users
6 Q+ ?5 Q% G2 k/ k. K2 K◎豆瓣链接 https://movie.douban.com/subject/30338164/
3 \% O/ y7 o% s◎集  数 8
+ d" N4 f9 q$ s' Q- V) ^7 J◎片  长 60分钟4 I5 ]# L) d( t0 l
◎导  演 陈映蓉 Yin-jung Chen
8 \- D5 @# F; g' a+ Q) e$ T◎编  剧 陈映蓉 Yin-jung Chen0 D5 H3 H+ z; ^
◎主  演 张孝全 Hsiao-chuan Chang
8 }% S( h% d: d* F       贾静雯 Alyssa Chia
: `% K3 e* `8 {) k: j       范晓萱 Mavis Fan% d$ ]9 V- q0 ?! r
       王柏杰 Bo-Chieh Wang
( h4 e; v4 }2 o       刘子千 Jeremy Liu. {" T  B! h- @+ V* L6 J
       周洺甫 Min-Fu Chou
& S* T) X& m& l! n0 F4 y       陆一龙 Yi Lung Lu
& v, a1 ^( u+ q: |       许光汉 Greg Han
: T: L' V* O. t; @* @; [! Y       章立衡 Li-heng Chang
9 K3 Z. Q8 Y8 o  C; g7 J# L2 u9 r
+ S- N! T- L: p8 {; p: c& @- e3 ?! n/ H: X1 F  l8 a# B
◎标  签 Netflix | 台剧 | 张孝全 | 台湾 | 贾静雯 | 范晓萱 | 2019 | 电视剧  X) I+ ^: r& m+ s# }& V% S
' s( F" f+ N- U7 ^) O
◎简  介  ( W8 ^& b% S" l! a' q% ^
) @: ^- \8 `9 J
  《罪梦者》讲述了死刑犯阿全在狱中等待死刑的漫漫长日里,听闻自己的儿子遭到绑架,为了救回儿子及保护家人,阿全策划逃出囚笼,却发现自己身陷更危险的计谋之中。整段过程中,阿全不时会陷入半梦半醒的境界,他也将带领观众一起踏上救赎之路。故事主轴则是感人的兄弟情、复杂黑帮社会跟惊险逃狱情节。
  1. Video
    3 ~4 p  Y0 F3 V+ Z' h4 G# ?2 j
  2. ID : 1
    + p- w, _4 E& \0 Z% X. S
  3. Format : AVC  T& D* u0 G9 e
  4. Format/Info : Advanced Video Codec7 `0 e/ i, _. N+ }7 b2 ]2 s
  5. Format profile : Main@L45 c# V; L+ U1 h( r2 Q) T
  6. Format settings : CABAC / 3 Ref Frames
    % S4 s7 ], w7 J. P4 j7 a, o* B# r3 }
  7. Format settings, CABAC : Yes- U% ]6 i- r5 S) g8 G$ q# \: Z+ l
  8. Format settings, Reference frames : 3 frames
    ( \  g8 [' Y, C- C" @# D5 L
  9. Codec ID : V_MPEG4/ISO/AVC6 d1 g- F% l8 ]( [% k8 h
  10. Duration : 1 h 5 min" j- \7 [" ^2 G+ T/ K
  11. Bit rate mode : Variable
    # A  `$ J+ a: }. u. X, t. c# g( O
  12. Bit rate : 4 220 kb/s
    1 E8 J: B& v) ~0 U
  13. Maximum bit rate : 6 330 kb/s5 `9 }3 s, ]2 N8 Z) @
  14. Width : 1 920 pixels
    2 p/ M1 W7 K. n6 O: J) j* I
  15. Height : 1 080 pixels
    4 s9 W4 n3 ]/ [! W
  16. Display aspect ratio : 16:9
    9 f2 X; `2 `+ J  t! J' o3 v
  17. Frame rate mode : Constant4 ]- ]. ~) M6 ^7 J; a! l
  18. Frame rate : 24.000 FPS5 L" d+ f1 E) `0 p2 o/ @- `
  19. Color space : YUV9 w  y' x. O/ {/ C! I, j
  20. Chroma subsampling : 4:2:01 P! Z5 d5 d  T
  21. Bit depth : 8 bits
    2 t1 t* F# o% e3 ^6 u/ f
  22. Scan type : Progressive
    4 D+ E$ I# h5 V
  23. Bits/(Pixel*Frame) : 0.085
    1 Z  R$ L3 r6 `6 _
  24. Stream size : 1.92 GiB (87%)
    ! Y, _" ]1 O1 h5 a9 R
  25. Writing library : x264 core 148 r2715 7e75228
    ( |* w- o/ Z' l
  26. Encoding settings : cabac=1 / ref=3 / deblock=1:0:0 / analyse=0x1:0x111 / me=umh / subme=10 / psy=1 / psy_rd=1.00:0.00 / mixed_ref=1 / me_range=24 / chroma_me=1 / trellis=2 / 8x8dct=0 / cqm=0 / deadzone=21,11 / fast_pskip=1 / chroma_qp_offset=-2 / threads=8 / lookahead_threads=1 / sliced_threads=0 / nr=0 / decimate=1 / interlaced=0 / bluray_compat=0 / stitchable=1 / constrained_intra=0 / bframes=2 / b_pyramid=0 / b_adapt=2 / b_bias=0 / direct=3 / weightb=1 / open_gop=0 / weightp=2 / keyint=250 / keyint_min=24 / scenecut=0 / intra_refresh=0 / rc_lookahead=48 / rc=2pass / mbtree=1 / bitrate=4220 / ratetol=1.0 / qcomp=0.50 / qpmin=6 / qpmax=51 / qpstep=4 / cplxblur=20.0 / qblur=0.5 / vbv_maxrate=6330 / vbv_bufsize=8440 / nal_hrd=vbr / filler=0 / ip_ratio=1.40 / aq=1:1.00: {' U1 v/ r1 n: J: i
  27. Default : Yes
    1 O* _) B7 ?4 d" h5 ^
  28. Forced : No# X- i4 e3 R+ w6 y+ @( c5 N
  29. 0 x* s5 k- D  C( `8 Z
  30. Audio
    * Q( G9 P3 `" o* v  X
  31. ID : 2
    7 U; g$ s! B! \& D. ~7 \
  32. Format : E-AC-3
    2 |# }8 u2 h  s2 K) I
  33. Format/Info : Enhanced AC-3& d; T+ d1 [! _( ^6 j0 w
  34. Commercial name : Dolby Digital Plus
      j3 s3 |# R  [
  35. Codec ID : A_EAC3
    , u: A. K7 `4 u7 E+ s6 T! F: d
  36. Duration : 1 h 5 min
    3 s5 h) @. @- B: P
  37. Bit rate mode : Constant7 \# |# \% ]: J: Y/ |/ d; n
  38. Bit rate : 640 kb/s! |) _5 N3 [, A8 P4 ?
  39. Channel(s) : 6 channels) H  i$ F  |8 B1 P* M
  40. Channel layout : L R C LFE Ls Rs
    0 ]8 i/ J9 W1 W/ t+ G" t# B
  41. Sampling rate : 48.0 kHz
    5 O% v% ]' I1 e" i" s2 {( I
  42. Frame rate : 31.250 FPS (1536 SPF)# o4 m& `/ t5 ]& @& u/ m& @
  43. Compression mode : Lossy$ o5 j3 S6 ?& r
  44. Stream size : 300 MiB (13%)( q% U$ w9 K' e, }0 P
  45. Title : Mandarin5 T% L1 j. J; t% p
  46. Language : Chinese
    4 R5 h4 Z0 D& ?
  47. Service kind : Complete Main
    # Y, h3 L% T8 @$ ?
  48. Default : Yes, i) s" n( v" v5 p
  49. Forced : No
    9 ^& R% J4 B& ]8 g# U8 L2 g

  50. ' |2 |+ e' }0 b& K* y
  51. Text #19 `, u$ G1 e* u' @+ I
  52. ID : 3) P  y: j- E2 }( |
  53. Format : UTF-8* D' b, A7 Q) r8 z/ [9 z  G, A, J
  54. Codec ID : S_TEXT/UTF8+ L% c0 @" C1 p  R( c6 v$ r6 s( @, U
  55. Codec ID/Info : UTF-8 Plain Text+ P% @' d4 q, [! w
  56. Duration : 1 h 5 min
    ) s0 m  L- N# s$ O. w( ~, c# ~5 m" k
  57. Bit rate : 37 b/s
    ; o' ]- |& W% W, u
  58. Count of elements : 681
      l! t- ~7 o8 S
  59. Stream size : 17.9 KiB (0%); k. v4 d. V# q/ |$ o) z
  60. Title : SDH% G/ a& l- u, M  P, f
  61. Language : English
    # P; ~) ~4 Y$ z
  62. Default : No7 U" o) ?4 H8 G
  63. Forced : No
    ( A" l/ X8 L# M) F
  64.   r  I( E0 S- R$ T1 h/ X
  65. Text #21 e) T: z, v( b  w
  66. ID : 4
    * h( _. W  W2 m# V/ r4 `" A
  67. Format : UTF-8
    : h  t* o( h! Y: C
  68. Codec ID : S_TEXT/UTF8
    ; l( U3 Q1 [0 Y# _# K6 c2 z# p
  69. Codec ID/Info : UTF-8 Plain Text
    + b0 R# n- K# B+ k/ O
  70. Duration : 1 h 0 min
    , ^/ Q( ]* t* ?  P0 y
  71. Bit rate : 38 b/s4 T  f4 T. Q: R2 Z2 N1 X
  72. Count of elements : 613
    2 j% v5 K* K0 v) L: x9 a
  73. Stream size : 16.9 KiB (0%)
    & Q' E% a; e' S
  74. Language : English
    / r! ?4 `+ Y- d" s8 [
  75. Default : No
    , d2 A+ w, o5 s* Z1 w1 Z8 J; K) C
  76. Forced : No9 ]' q4 N! P. Z
  77. ) T0 \  y- u9 V2 T; d* D
  78. Text #3
    & q+ l$ [* j2 Z
  79. ID : 5
    * b% }; F7 z2 b( H( m5 j& Q
  80. Format : UTF-8
    8 C, x1 W% y- U+ X
  81. Codec ID : S_TEXT/UTF8- n. b) `+ {+ A: v/ B: H+ O
  82. Codec ID/Info : UTF-8 Plain Text
    ' K4 m* E7 p8 x8 L& @
  83. Duration : 1 h 4 min9 I; Y4 ]; S; O4 S1 v
  84. Bit rate : 60 b/s
    / F5 t0 u' K5 p9 K2 S$ i/ d
  85. Count of elements : 613) ^. o  P3 ?7 u3 O
  86. Stream size : 28.6 KiB (0%)5 d% h, D7 }* {: x
  87. Language : Arabic+ `. d- ~' j1 l9 ]3 p0 S
  88. Default : No& C+ p. N+ o9 d% Q8 q: h1 f
  89. Forced : No
    " X' r% \3 L2 x3 O- v

  90. " P* p4 I# K# ?3 b  r3 I4 s
  91. Text #4
    , K$ e: E& c# n6 f5 i1 ?6 r
  92. ID : 6
    3 p) S/ X* c. z4 t
  93. Format : UTF-8
    6 A0 ^- m* s5 z
  94. Codec ID : S_TEXT/UTF8
    2 k% n$ \) P8 N6 v8 Y' h, o
  95. Codec ID/Info : UTF-8 Plain Text) O" W6 S, S  I0 H
  96. Duration : 1 h 4 min) A1 s$ ?  e' E
  97. Bit rate : 30 b/s
    - R- v0 C' }4 P# y( e# u  ~' y: B
  98. Count of elements : 618
    0 I: [' D( F$ Y* b
  99. Stream size : 14.5 KiB (0%)
    1 n5 b! c. E+ |' r% J* H
  100. Language : Czech
    - b6 P" K' v& I+ [
  101. Default : No
    3 k( o$ l9 ~, v. w
  102. Forced : No, Q0 Q' x% U1 X$ j% N) J/ Q+ r
  103. * v' O' l4 L/ f; r
  104. Text #5
    6 t- v9 M6 J4 W- N
  105. ID : 7. O0 I) E" w5 g  F4 D; m* P
  106. Format : UTF-8, g, X9 ?) I# b$ S5 b3 M! G
  107. Codec ID : S_TEXT/UTF86 R; ?; l% i; p$ @, T( d/ w/ j
  108. Codec ID/Info : UTF-8 Plain Text- u7 t* l" O* N+ p9 ^4 ?) n
  109. Duration : 1 h 4 min
    3 Z! o7 o0 `$ V  R9 n' O
  110. Bit rate : 31 b/s
    2 |% a1 U$ k2 w, p# i' ?
  111. Count of elements : 505
    . }1 I, K, l: Z  h, o
  112. Stream size : 15.0 KiB (0%)2 N& ?1 R' p* k& a' f" y- x
  113. Language : Danish
    : @7 y# \* o$ v1 ]5 S
  114. Default : No
    # c# h4 Y+ l5 Y% Q' S2 h2 i
  115. Forced : No
    ' R" Z3 O3 F1 r- \
  116. % O9 Z/ y9 n/ @5 |: c0 |9 [
  117. Text #6
    ( u7 l9 i- I' i
  118. ID : 83 @& g# X0 Q2 B: M- Q
  119. Format : UTF-8, R+ b' _0 M- D, g$ M
  120. Codec ID : S_TEXT/UTF8% C6 N8 g$ r1 Q
  121. Codec ID/Info : UTF-8 Plain Text. d6 A' t$ C1 `& R9 d: d
  122. Duration : 1 h 4 min  i- |, ~& x3 V( U
  123. Bit rate : 28 b/s
    * U+ R1 B4 F0 j; Q4 ?- [
  124. Count of elements : 599
    ) L1 u0 r7 G1 n- v0 t
  125. Stream size : 13.8 KiB (0%)# k9 X$ r, ~4 W
  126. Language : German
    2 ?, C+ u6 ?6 q/ H( l" k
  127. Default : No
    ( `+ _/ b$ L; q. Q/ A
  128. Forced : No* x( X/ U; g5 l5 {+ v7 ^

  129. : Q( X2 h& l. @
  130. Text #77 B2 C- s* S' V. d1 F* \$ ^  R
  131. ID : 9
    + ~) b* m! W! i0 \
  132. Format : UTF-8
    ! t2 P0 ?+ J: C% C* |8 Y9 n1 O$ f
  133. Codec ID : S_TEXT/UTF8
    % p  L' }) }! c8 J. z- Q# L( ?: y
  134. Codec ID/Info : UTF-8 Plain Text
    % I/ F/ s$ |/ ^8 E6 Z" l
  135. Duration : 1 h 4 min* h3 X8 A3 W- v/ Z* ^
  136. Bit rate : 53 b/s; z: t; Q4 q! V& S, C6 Q3 I1 }
  137. Count of elements : 612; G+ l( {! t* H
  138. Stream size : 25.3 KiB (0%)
    # l- X6 x( N; g
  139. Language : Greek
    ' d) ~* L$ E3 z7 Y) @! \4 k
  140. Default : No/ r. w8 f- m8 t8 @
  141. Forced : No& Y! p% D6 |* L! e

  142. $ ~6 n0 U% p  W) b* j
  143. Text #86 }' |& _0 ~* e# D$ H8 I5 X
  144. ID : 109 Q8 ?  n1 [. `" O
  145. Format : UTF-8/ P& X* U$ o. a" w& ~$ h5 M
  146. Codec ID : S_TEXT/UTF8- N* f, v8 f2 P
  147. Codec ID/Info : UTF-8 Plain Text9 Q% @% i- B' O: J0 K/ ^2 N
  148. Duration : 1 h 4 min& s6 c3 g4 j. _; f) a8 M
  149. Bit rate : 30 b/s  t6 o4 Q# U4 h5 m; B
  150. Count of elements : 596
    ( R! k  e" }% [, A7 Q2 F* L
  151. Stream size : 14.5 KiB (0%)
    - @& }8 M+ g5 f& u
  152. Language : Spanish1 O! f4 y" W; y+ S
  153. Default : No
    1 o7 b! L7 X2 V* E/ L
  154. Forced : No
    , g- l5 N4 g, W
  155. 7 ~7 j& v- o* X
  156. Text #97 Y' S1 C' a0 ^1 o" q1 c7 x
  157. ID : 11
    4 x; p$ Y% a% |% E# h& m1 r
  158. Format : UTF-8
    ( V; m2 r5 T( K9 z1 V! K1 Z
  159. Codec ID : S_TEXT/UTF8
    $ o; r+ T2 D9 z1 w- X" s
  160. Codec ID/Info : UTF-8 Plain Text" B( S# p  _! q! K" ^
  161. Duration : 1 h 4 min2 G7 B0 q! x" {6 K1 r
  162. Bit rate : 29 b/s
    7 E3 r1 W+ H6 U" h6 L
  163. Count of elements : 601# N. @4 V5 P+ h/ J' Y9 K% B$ Q+ O" B
  164. Stream size : 14.1 KiB (0%)
    9 k4 f; N! h* _; d* ?
  165. Title : European. g% ~: e% C8 f; }  ?
  166. Language : Spanish
    ) M3 ~: k$ K- U4 A& p  f
  167. Default : No2 V7 a6 d& _6 f' h8 g9 x1 J2 Z
  168. Forced : No
    & Q- @3 t' b  \% i: d3 T5 H/ O
  169. 8 `  V: |# Z( W9 c6 m
  170. Text #10. w2 K$ r5 X2 b* }2 w, G
  171. ID : 12
    3 E+ h5 _8 [( ?0 y' V+ M
  172. Format : UTF-8& |: q; `7 D" W4 L6 X. o! m5 U
  173. Codec ID : S_TEXT/UTF81 `) q1 x. M: C/ R# P& R
  174. Codec ID/Info : UTF-8 Plain Text
      j' a3 ^0 ^5 p0 {; B6 a- i$ P+ Q
  175. Duration : 1 h 4 min
    ( {; g0 Q2 N5 `
  176. Bit rate : 31 b/s
    ( A" x2 h, g0 o" w3 n  j- A
  177. Count of elements : 549
    3 Z+ \6 W, |/ _
  178. Stream size : 15.0 KiB (0%)$ Z; e+ n. b- ~/ A  Y6 s' U
  179. Language : Finnish
    7 _' |- w3 M0 u
  180. Default : No
    ; j2 Z6 e9 v4 m7 j4 I" f& t' I
  181. Forced : No) I9 z/ p9 R3 a9 b( c
  182. - r6 ?5 Q7 M8 u, Q
  183. Text #11
    % w7 a5 N+ y) e6 p7 U
  184. ID : 13/ M' G& T& f3 w( |4 N
  185. Format : UTF-84 x4 u1 e, ]$ A: p- C% ~
  186. Codec ID : S_TEXT/UTF8
    ) ]! F5 A. V; t' V; m; f
  187. Codec ID/Info : UTF-8 Plain Text5 y$ u0 Y4 P" k1 w; D- y, \  T
  188. Duration : 1 h 4 min! X4 f" M9 ], F
  189. Bit rate : 33 b/s9 ^/ Z8 U* L4 H: p) e
  190. Count of elements : 6150 i2 l8 r& o! `7 L9 Y( Y
  191. Stream size : 15.8 KiB (0%)
    1 `% r' L7 @. ?$ ]
  192. Language : French, }- W! z- t8 i/ K$ a+ y8 c) s' x
  193. Default : No) r& m/ v' R7 \# E1 y0 l% T
  194. Forced : No
    ( T0 ?, c1 Q  t9 |6 C8 t

  195. - f* k) ^" @& f5 j3 w4 N  z, }
  196. Text #12
    , M* p9 m$ N2 @) o# T
  197. ID : 14
    # A$ j% ]5 B9 V  s& |/ m
  198. Format : UTF-8
    ( f: T2 f9 C( S# ^8 y! }/ J
  199. Codec ID : S_TEXT/UTF8
    " U4 i4 V" ]0 d# A% j7 a' `
  200. Codec ID/Info : UTF-8 Plain Text
    ; s4 i. {+ Y% ~
  201. Duration : 1 h 4 min  |0 k1 N1 P' N
  202. Bit rate : 56 b/s
    0 D& c8 @: R5 m/ p
  203. Count of elements : 625& E+ n* ?# U8 h! W: |+ r
  204. Stream size : 27.0 KiB (0%)1 L8 m' g, `" v% O/ K- |
  205. Language : Hebrew: r7 v8 T6 q$ \. ^
  206. Default : No6 o( y8 J5 I0 w
  207. Forced : No0 z3 r  t6 M$ W2 J( y9 F; C

  208. " ?# g+ [! G% ~: T" a: y2 H
  209. Text #13! g7 z' c( r9 z5 t; K+ [" o) `
  210. ID : 150 A) c- H. h& ^
  211. Format : UTF-83 m' s$ {, Z! J
  212. Codec ID : S_TEXT/UTF8
    * t) l; s$ x6 ~2 R
  213. Codec ID/Info : UTF-8 Plain Text- w% v! E7 h4 H. e1 J  S
  214. Duration : 1 h 4 min
    . p: `, }8 D$ i. g' n) F
  215. Bit rate : 90 b/s1 {0 ]8 ?. i- e& t) f
  216. Count of elements : 621
    / s* l  h7 K! s8 D3 k$ z
  217. Stream size : 43.3 KiB (0%)
    ' D# E/ Y1 g0 r
  218. Language : Hindi& d; F+ Y; x1 h" d1 x. l6 s1 c
  219. Default : No- n( w. Z  M2 n; s# v) I. p
  220. Forced : No* e# |7 O- M3 p9 ~

  221. + R% W4 d0 D3 O' X& `* K- J8 J
  222. Text #141 I# @; Z# k, e4 D" h9 Q& j  x# @
  223. ID : 164 C, Q, p  a. z* F8 q. [
  224. Format : UTF-8
    4 ~9 K) |: S. m0 m+ x8 l
  225. Codec ID : S_TEXT/UTF8
    : w" C. a( }4 p( y
  226. Codec ID/Info : UTF-8 Plain Text
    , T7 n& I& E! h. }- m) M9 F2 _
  227. Duration : 1 h 4 min
    / Q( v/ a9 i: O# T/ [
  228. Bit rate : 31 b/s
    4 ^! C2 U3 |) i% l7 _7 x. J
  229. Count of elements : 609$ f* ?" ~/ q6 T
  230. Stream size : 15.2 KiB (0%)1 X7 _  n9 X6 n+ H
  231. Language : Hungarian
    % A" @  x/ w: Y1 y) y
  232. Default : No
    " N  W5 y8 x0 ]) F& ^% R) Y) c. {+ i
  233. Forced : No
    : m" Z% X3 K& }5 a' r
  234. " k  Z- M; @3 i6 L$ d
  235. Text #15" V& U0 D1 Y, Z4 t0 X: H- |+ N
  236. ID : 17% `7 X  z- o4 c& B: h8 J% T
  237. Format : UTF-8& M2 ?7 @% w/ h  Z  q9 p
  238. Codec ID : S_TEXT/UTF86 _2 N( I* E4 ?# D( Q
  239. Codec ID/Info : UTF-8 Plain Text! F! z; x& a8 |: N8 m; f) i* P+ B
  240. Duration : 1 h 5 min, i! N# B# G0 l8 d
  241. Bit rate : 31 b/s7 t( q; f. Y7 ?3 W% V) `4 c4 E
  242. Count of elements : 646
    2 ~8 S  A+ O  J6 r: k# c: N
  243. Stream size : 15.1 KiB (0%)
    0 U! V% s7 z& E& {) z  h* J
  244. Language : Indonesian
    - B$ F; ]  z- d' K$ S. c7 O2 u
  245. Default : No% P7 T0 ~4 \5 s+ [3 [+ y9 G
  246. Forced : No3 D) p$ ^3 g' b+ `$ h
  247. . E7 c) X% v+ F$ a. Q8 g  v
  248. Text #164 v! V$ L. T2 q. v" H9 S
  249. ID : 182 }8 Q7 W, O% `# ]% J
  250. Format : UTF-8
    1 v/ W9 W. \' H: b" |
  251. Codec ID : S_TEXT/UTF8) K$ L8 n; f' g+ B+ z) s6 A
  252. Codec ID/Info : UTF-8 Plain Text2 j* ]  ]  F' t+ `& B9 ^
  253. Duration : 1 h 4 min
    6 O  b1 ~( }* e: V9 P2 `3 Z
  254. Bit rate : 28 b/s
    & _8 F2 |4 i0 g, r9 k
  255. Count of elements : 618
    8 W# Q" x6 g9 E5 d
  256. Stream size : 13.5 KiB (0%)
    3 {; W% K; R- y" n, X! ~* T% a
  257. Language : Italian0 I, g3 B, P. {/ p
  258. Default : No$ C. K0 l8 q$ }- I6 ]0 F
  259. Forced : No$ u& B: y9 w2 {7 s
  260. 0 V) ]! f% Z) l) w' I
  261. Text #17# _1 g6 [- o/ j
  262. ID : 19( Q% N9 `2 Y, q/ S
  263. Format : UTF-8
    # Z, r+ }) i6 M; Z+ V
  264. Codec ID : S_TEXT/UTF8
    - W9 d! d/ I' P: j1 n
  265. Codec ID/Info : UTF-8 Plain Text6 I  g$ N& _# {
  266. Duration : 1 h 4 min
    * X  T% o' H, h# m
  267. Bit rate : 37 b/s) s' x# V: i8 L$ b# w. f$ z
  268. Count of elements : 667
    , ?  U. X0 B3 z) H- \, p
  269. Stream size : 17.6 KiB (0%)- r8 O% O, H5 }3 E. g/ h
  270. Language : Japanese
    : E4 J3 B7 S) t, S; S8 z9 [2 W
  271. Default : No
    1 X% q' c. |% w% z; J9 V: q' ?
  272. Forced : No
    - @, x( i4 U6 O# y, M- U0 Y" y( Q$ r

  273. , N" \6 |3 [) {' ~6 i4 D3 ^# I
  274. Text #18& k" u! v1 ]* Q$ [; X0 G, @
  275. ID : 203 v8 |0 U# X& a
  276. Format : UTF-8
      E; [/ m; E* h7 Q6 x& a
  277. Codec ID : S_TEXT/UTF8/ {( d8 N( r: {! F7 e
  278. Codec ID/Info : UTF-8 Plain Text
    : T* v# [  ]8 P9 \: Y4 J) z
  279. Duration : 1 h 5 min
    6 E0 t2 }/ w" E3 [# E% h/ W1 \
  280. Bit rate : 41 b/s. r1 w! U5 j& T* e0 d1 r
  281. Count of elements : 661% k- f5 q! P1 {: f9 k- {2 b
  282. Stream size : 19.8 KiB (0%)
    4 C( |$ U: o  B2 ^  x
  283. Language : Korean
    & r9 r7 {' L! W$ f% E- W$ ?
  284. Default : No
    0 b) y* N# r! r6 X
  285. Forced : No
    ; b$ y, e7 h3 M' K2 H- o% C+ z  ^6 h

  286. ' m  a2 i2 g9 x2 H
  287. Text #19
    , S: j: ]- H" G1 n
  288. ID : 21
    8 O0 I2 c% c! [# S+ V& }
  289. Format : UTF-8# u) H* W/ ?* h
  290. Codec ID : S_TEXT/UTF8
      T! |; F+ X  Z" x3 g$ H$ h- N* ~% _
  291. Codec ID/Info : UTF-8 Plain Text" M# Q2 f4 j6 e1 N% Q3 U
  292. Duration : 1 h 4 min8 |) N5 j; x0 J6 U; ]
  293. Bit rate : 31 b/s# c6 i  O* Q8 K6 P- w# n3 S
  294. Count of elements : 595: R  q+ D3 k1 I) f
  295. Stream size : 14.9 KiB (0%)- e. f% F" O7 F& N9 \
  296. Language : Malay
    0 `, L5 T4 h. p- P
  297. Default : No2 F+ ~: |( R9 h9 B$ F; l
  298. Forced : No# v: S6 c6 h* {* ^* i0 m% ^
  299. 1 ^$ T6 V) D5 M! p( r. W6 B; |5 A
  300. Text #20
    7 Z2 N  ]& }$ M. w
  301. ID : 22
    * {/ |! f& [' J, P+ G! a
  302. Format : UTF-8
    & e2 V2 D5 t( S9 v
  303. Codec ID : S_TEXT/UTF8# |3 ^# L- i2 \3 T! u5 L6 u7 k- _
  304. Codec ID/Info : UTF-8 Plain Text& S* j- H; p' x/ B
  305. Duration : 1 h 4 min! ]# Z! }1 l( H0 p% R
  306. Bit rate : 29 b/s0 B9 i: Q9 {8 j7 `3 T$ L
  307. Count of elements : 577
    + ]' s9 ?; E6 l& J
  308. Stream size : 14.1 KiB (0%)
    " Z4 g- p, r  S+ V+ Z- m
  309. Language : Norwegian Bokmal# j* O% Z% f7 o
  310. Default : No+ @9 ^4 s; }+ H/ `/ v9 B6 k9 r
  311. Forced : No
    , U. Z% K: c/ W+ W5 B( w

  312. 1 x  d1 `/ ~1 M7 l2 l
  313. Text #21) i# M2 ~; V1 L7 T" V# G
  314. ID : 23
    ! o* |, r: Z3 z- f
  315. Format : UTF-85 n  L( w" m+ A% F2 G1 I( ~
  316. Codec ID : S_TEXT/UTF8
    $ R+ x8 _) }- R5 W) ?
  317. Codec ID/Info : UTF-8 Plain Text
    7 r0 g. q$ r9 ^7 D4 H: x
  318. Duration : 1 h 5 min
    / c; H( K6 v* Y) @4 m7 l
  319. Bit rate : 30 b/s' X) E  g- l0 a, e
  320. Count of elements : 555
    / P# R: [3 i3 A* a
  321. Stream size : 14.3 KiB (0%)  ]6 N, C! O4 a9 Z' p8 n8 f
  322. Language : Dutch, x* m3 Y. a8 [! q$ C  W) |0 R6 t
  323. Default : No8 ^. u( z* {, \/ A
  324. Forced : No# W& P& J2 m/ H1 _$ d
  325. & E1 z$ Z; y: {
  326. Text #22
    8 l8 r6 H; R& N4 L; T. p
  327. ID : 24! H/ V* Z" f2 U/ g* O
  328. Format : UTF-86 w. l5 L- o2 {: h: {* G
  329. Codec ID : S_TEXT/UTF8- v8 c+ z  o) L" R- a
  330. Codec ID/Info : UTF-8 Plain Text, ~  |9 V! H! Y0 D
  331. Duration : 1 h 4 min; W6 a0 W9 L8 I! o, s$ L2 T
  332. Bit rate : 34 b/s
    % |: u5 b# o  y5 c' d2 ]7 m: A5 k
  333. Count of elements : 643
    / m0 Z% z# s7 B
  334. Stream size : 16.3 KiB (0%)
    - M8 h" m& \( C" O3 i+ \- f
  335. Language : Polish; E. n: r# ]% b. Z
  336. Default : No
    0 }6 k) m# C' h' l
  337. Forced : No
    + B7 A0 }6 x' E# s7 h3 Q4 N

  338. 0 c1 `: Q2 y( M# [; p1 w2 X' Q2 R
  339. Text #23( ], ]: ^# ?0 O4 Q' o% f
  340. ID : 252 Y' |2 t/ |- l6 d
  341. Format : UTF-88 V3 n+ H' N/ @: a. X* h- s
  342. Codec ID : S_TEXT/UTF8
    4 }, U. d9 u, o( i/ ^1 v; r  l& W6 {
  343. Codec ID/Info : UTF-8 Plain Text
    , h- _& h/ n. R$ Q7 V
  344. Duration : 1 h 4 min
    & M) h1 e0 ~1 S9 z. c
  345. Bit rate : 29 b/s( G3 _) \* S$ ?$ h* Y7 J7 R( t
  346. Count of elements : 614
    8 t) N9 n/ |! w, c* J) R
  347. Stream size : 14.1 KiB (0%)
    : b8 r+ b1 t/ a$ d+ O9 D
  348. Language : Portuguese) J% [2 [. }9 q6 [2 U
  349. Default : No  V. ~! K- g4 {1 J) p
  350. Forced : No7 J& v5 `1 M# i# ]
  351. / M; t- L0 o0 x3 u; q, P& z
  352. Text #24
    . E! _* e, L0 Q# e: p- E# `# M
  353. ID : 26/ N' U- \5 S0 I, {
  354. Format : UTF-8
    ) [6 n" T1 \$ E) F- m$ L# u
  355. Codec ID : S_TEXT/UTF8
    ! ~2 K7 [4 r5 h! j0 v( A: i' [
  356. Codec ID/Info : UTF-8 Plain Text. z9 r* p' o9 E
  357. Duration : 1 h 4 min
    " |5 I/ G$ C6 ?! P9 e; \
  358. Bit rate : 33 b/s2 O' v5 k8 s' @3 z) L
  359. Count of elements : 611
    ( n" S& Z* a8 C8 b- U! I
  360. Stream size : 15.9 KiB (0%)
    : n, M5 ]& d5 V5 \' S/ ~7 C5 ^
  361. Title : Brazilian
    3 X. i2 y! m, i+ h
  362. Language : Portuguese
    5 W. g8 T2 T. f2 i% Q% t
  363. Default : No
    . r! J6 g$ M& Q( o  \/ i5 F/ _0 d
  364. Forced : No
    ! ~/ z5 `; f, S; H1 L0 c; R
  365. . H- s; W5 u2 a/ G
  366. Text #25
    - |; G( C$ F6 u3 f
  367. ID : 27
    ' X% J* }4 t; `) g8 X1 g0 }
  368. Format : UTF-84 y! K# r5 M& Y, @" p+ |
  369. Codec ID : S_TEXT/UTF89 j: O2 l0 f( A- F: r! }
  370. Codec ID/Info : UTF-8 Plain Text1 V; Q/ j6 h" P: s1 C
  371. Duration : 1 h 4 min0 D6 M0 s, T9 V& n
  372. Bit rate : 36 b/s* G8 x3 D6 K* e0 V- N, I6 T
  373. Count of elements : 617
    7 T) w4 Q2 W8 a4 S. ~' T! Q  M2 O
  374. Stream size : 17.6 KiB (0%)& K- h) Z) K& F  d. w& W
  375. Language : Romanian% m1 E; q9 L  o) i+ D4 h+ N* d$ F
  376. Default : No9 Q8 T: {# a/ E8 [. I3 [: k1 U! \
  377. Forced : No, ], B6 P, h4 u, ]# v6 B

  378. 1 F% G) `7 p# S! U; C
  379. Text #26
      o- e6 k' l% c' O2 \* D
  380. ID : 28
    $ J; g& D# |+ }
  381. Format : UTF-8
    0 e  l  E$ X8 E1 N
  382. Codec ID : S_TEXT/UTF8: D4 x& A8 t' Y1 H* M
  383. Codec ID/Info : UTF-8 Plain Text, p0 M6 ~, S$ _3 y8 z
  384. Duration : 1 h 4 min: B% ~3 q0 \* Y  }! v
  385. Bit rate : 53 b/s
    1 ^* F' w* i' U8 _7 |
  386. Count of elements : 600
    % m7 c8 k; n  {
  387. Stream size : 25.6 KiB (0%)
    8 Z8 `3 c& r, e5 I9 `: I+ P7 ?
  388. Language : Russian/ {& {8 F2 j5 g  {
  389. Default : No
    . B' o( w7 }9 `" d
  390. Forced : No
    ! e/ o6 n# N9 |
  391. - @/ W- R3 I+ U" g0 V8 v
  392. Text #27$ L, f/ d& [$ f+ H& `( B/ H3 _* m
  393. ID : 29- m8 T3 {/ p4 s3 q2 [! y
  394. Format : UTF-8
    ' E4 j4 @9 w) v
  395. Codec ID : S_TEXT/UTF8' n1 s8 b$ T' @$ d. l" S
  396. Codec ID/Info : UTF-8 Plain Text. E" z6 ^( k9 ~8 a. Z5 \3 c  q% T" J, S
  397. Duration : 1 h 4 min7 W, y; Q+ ~9 U; {  ?
  398. Bit rate : 31 b/s
    . F8 c9 a* d& e7 Y! W8 A" ~
  399. Count of elements : 563" E0 J8 f# u/ y( c3 B% m. S
  400. Stream size : 15.0 KiB (0%)8 L$ `2 S" U& q& Y
  401. Language : Swedish3 W/ ?& H4 c4 O9 P
  402. Default : No2 `/ n- u0 U4 B: Y. r
  403. Forced : No
    4 j& O* H1 c8 n5 f, `" Q
  404. " Z5 s  @" H; p" i$ V2 r% g
  405. Text #28* \$ Z5 g8 j7 k- {. L1 v+ e
  406. ID : 30- ~1 w( c' V: J% z4 X2 h
  407. Format : UTF-8$ J8 f' T- B+ ]8 b
  408. Codec ID : S_TEXT/UTF8
      y  g6 ^$ A1 s
  409. Codec ID/Info : UTF-8 Plain Text
      V: x/ {5 X1 |* B: D9 r! H, l
  410. Duration : 1 h 4 min' w1 E4 |3 M; u
  411. Bit rate : 86 b/s) S' s* z; X1 C1 }, x- D" L
  412. Count of elements : 640/ e( c2 ^  k  W3 J% O
  413. Stream size : 41.2 KiB (0%)
    9 Z4 b4 n2 I9 e$ k
  414. Language : Thai  t* |( ~; t* {8 _. Z3 ~  b; F5 ~
  415. Default : No
    4 G; I) y& q' U
  416. Forced : No5 V1 m& J0 ]5 M
  417. 5 y+ w5 e0 I" t$ ~$ t, o' U, M
  418. Text #299 @3 j6 `8 k" H. u( p$ U) O
  419. ID : 318 F- T' V: ^' c* N8 J7 \+ H& y, J
  420. Format : UTF-8
    1 h0 Z6 j1 u, Z+ T' j  Z
  421. Codec ID : S_TEXT/UTF8! v8 D$ E9 i3 D) ]& ~6 [+ e
  422. Codec ID/Info : UTF-8 Plain Text, s5 u" R9 \# j
  423. Duration : 1 h 5 min
    1 n9 j& b! |$ B  c8 l
  424. Bit rate : 96 b/s. x4 p# ?& W7 A6 b' X  B' l
  425. Count of elements : 704' ]/ A2 H2 H* a( H1 m2 I( c
  426. Stream size : 46.0 KiB (0%)- I& y8 Z8 ~; O# y- n9 c
  427. Title : SDH
    & Z* j5 X  J! K
  428. Language : Thai
    ' ~2 }; \0 h! Q
  429. Default : No
    7 ~5 T) K- Z- v5 [+ h, p
  430. Forced : No# y0 x! n9 i3 G$ ^, n7 G. P

  431. $ R/ U0 A( C1 F  n+ ?4 s8 J
  432. Text #305 w- T5 D5 D) z% z& G* B7 y
  433. ID : 32
    5 W1 A1 d; S8 X  V# P; S
  434. Format : UTF-8+ \$ ~2 a" Z9 M. K" q9 Y
  435. Codec ID : S_TEXT/UTF8
    ! C9 E1 [5 x2 O0 `
  436. Codec ID/Info : UTF-8 Plain Text. X' r: [3 x" Q3 y5 e
  437. Duration : 1 h 4 min
    3 y( C) D5 X$ R, j9 \# n7 w4 R
  438. Bit rate : 32 b/s
    ' ^& \% S& F0 ?7 O" s
  439. Count of elements : 645
    ) Y& K4 I4 V% x( z* d$ L
  440. Stream size : 15.6 KiB (0%)! h1 @: `7 A& O9 \! ?
  441. Language : Turkish
    $ i* j# V& p8 m2 O! r3 \& X
  442. Default : No+ Z  E/ N$ c/ V3 a: k
  443. Forced : No! w7 N  z, ~0 w6 s

  444. 9 m% I5 X6 z/ X- j2 @) r$ f
  445. Text #31
    6 j/ V- x5 ~# b  F, P% u3 J/ j( G
  446. ID : 335 M* D: w3 _, b" C0 s! r
  447. Format : UTF-8% \$ x" D* W* L! T
  448. Codec ID : S_TEXT/UTF8
    % x7 f" O, a$ c# ?9 [6 O
  449. Codec ID/Info : UTF-8 Plain Text) K- [0 R: _( M7 H0 s8 }
  450. Duration : 1 h 4 min' h, D4 G" G/ |' k/ [6 T( r" ^3 K; g
  451. Bit rate : 46 b/s
    . T9 w1 y6 s' }0 x% |9 a
  452. Count of elements : 643
    : h# [, h3 u7 T- O
  453. Stream size : 22.1 KiB (0%)" J; E. u! v7 I+ z$ |/ M! B/ J
  454. Language : Vietnamese. Q. H" M5 z% O2 ^+ J1 `% O4 Z
  455. Default : No
    ' O3 E. s4 A6 l6 J. l: u
  456. Forced : No) I3 ]) C1 b: l( z/ k
  457. ' t% l* v$ }; p0 x4 Z# `
  458. Text #32
    6 n- p: n8 \3 ?- o$ i2 ~
  459. ID : 34" ^# A) W! D2 p; x  o5 |( t; F
  460. Format : UTF-8, S2 G! X# c, n0 E9 T* c0 h
  461. Codec ID : S_TEXT/UTF8& u5 W7 D3 {4 k  |9 K8 O7 \
  462. Codec ID/Info : UTF-8 Plain Text
    % Z+ _8 J+ g  f9 R6 r
  463. Duration : 1 h 4 min
    9 D3 V" h' \- \+ A! v0 [3 `& V6 I
  464. Bit rate : 29 b/s
    - ?+ G" S. Y8 O4 r$ |8 A( [! Q
  465. Count of elements : 611
    3 L& [5 H  c: h6 x; A
  466. Stream size : 13.9 KiB (0%)
    5 F% K" ]* F: U6 G' o) f* [; }2 z
  467. Language : Chinese
    % O# w: J8 G1 ^$ X9 F9 Q/ w) m: ]
  468. Default : No
    ! Q4 @( D( _2 P# [$ _
  469. Forced : No7 n. X" O% J0 V* ]: m
  470. + F0 c  `( C% A, M, P
  471. Text #332 s; C. @5 t. E3 v
  472. ID : 35
    ) q2 E1 D$ q! t, E5 @8 _
  473. Format : UTF-8
    3 l$ G4 Q1 C  U; E5 L
  474. Codec ID : S_TEXT/UTF85 j  @! M, ?. ~( ~  n, @2 C/ _
  475. Codec ID/Info : UTF-8 Plain Text
    / ^' Q8 s' C% C0 A) K( @4 o
  476. Duration : 1 h 4 min0 @2 Y  [* K. r$ `
  477. Bit rate : 32 b/s
    7 C$ r6 J& S. n
  478. Count of elements : 629
    ; z; S  \. [' F  x: L0 u
  479. Stream size : 15.6 KiB (0%)
    . o* |* P  g1 c, M) V( K
  480. Title : Simplified
    ( t  J4 j: ^% e& }
  481. Language : Chinese+ ~) l3 u" d: @& {. c
  482. Default : No
    ! e6 Y! K+ x' F* `
  483. Forced : No
      Q2 @( t1 v8 S

  484. # q$ m! X: q* G/ H/ c
  485. Text #34
    8 Q  k: s. {+ N9 |% k6 h  d  _
  486. ID : 361 f4 \7 ]7 k+ }+ t2 Q
  487. Format : UTF-8; N! `$ K/ x/ A$ O6 J
  488. Codec ID : S_TEXT/UTF8
    , c9 g* C( ]& n
  489. Codec ID/Info : UTF-8 Plain Text, p2 H$ L% F5 c/ O# A8 Q/ |; K
  490. Duration : 1 h 5 min+ {; c, o5 s' ~/ l+ O$ A: x
  491. Bit rate : 36 b/s
    ! D7 k- w1 a. E, K: i% E4 v1 Y+ _$ o* V
  492. Count of elements : 687/ m; q! v+ f  C, x( ^- g/ _
  493. Stream size : 17.2 KiB (0%)4 ^8 P& q% j7 `' L1 ]6 ^
  494. Title : Simplified SDH
    6 A, w( ]/ L9 @8 }* C
  495. Language : Chinese
    8 c/ E/ T  l$ t; T% n
  496. Default : No- E! V3 [4 m9 C" Z1 b2 C, A7 L* H
  497. Forced : No( y2 w7 J  I) U/ O, Q$ l
  498. ' g- x% y  _' D  @- O9 `
  499. Text #358 h! x/ J0 V9 X8 a/ i' E
  500. ID : 37$ ~4 R, g; i, [/ }3 i- l; C
  501. Format : UTF-8
    / }9 W9 K6 @: q1 p. b
  502. Codec ID : S_TEXT/UTF8( T" z% P$ q! j# @
  503. Codec ID/Info : UTF-8 Plain Text1 Q* [- f$ m8 W- z0 X4 x
  504. Duration : 1 h 0 min, o5 ~1 v6 f: ~+ F
  505. Bit rate : 35 b/s+ C% m, x& R; h1 o  _
  506. Count of elements : 708
    ' L/ \8 n: d- V! u8 k
  507. Stream size : 15.7 KiB (0%)" @' S5 I5 r! a+ }
  508. Title : Traditional4 _4 @6 q$ e. g3 D" K
  509. Language : Chinese' e- S& U7 ?/ ~% @( {. Q2 a
  510. Default : No
    6 d3 n% u. g$ B6 o3 N2 u
  511. Forced : No4 r0 {* c# j5 s5 B) a% G0 Y

  512. , k# E, Z. |4 T* x( l- a2 [5 I' T3 _
  513. Text #36+ J) M6 o& h; G8 W. W6 J( _
  514. ID : 381 m+ b$ k* x, i1 M
  515. Format : UTF-8
    0 o7 L4 b; m7 p) g, h
  516. Codec ID : S_TEXT/UTF8( P4 J* o: K% D2 c
  517. Codec ID/Info : UTF-8 Plain Text
    , T' c& x7 g8 V5 J. c( Q" Y7 L8 t" R& J- n
  518. Duration : 1 h 0 min
    8 q, O6 X; g- Z; H
  519. Bit rate : 46 b/s3 m: D3 J) E" l0 G$ v7 B
  520. Count of elements : 738! D2 H. u, a) ~9 l( K, o$ [- m
  521. Stream size : 20.6 KiB (0%)- w' m$ A) C- ?
  522. Title : Traditional SDH' |( E5 a% u- d% F) B2 c3 i, d
  523. Language : Chinese
    : r% l  y1 ~2 U
  524. Default : No; b  T3 b: @  T( `
  525. Forced : No
复制代码
3 e/ ^/ Y1 F3 A. ^. m# Y

& a1 v( R; h) z* G6 L8 g8 \) a. U
3 a# w" E; v/ h3 ]5 J& ?  W" [: W% Q. y
3 E+ \9 e( ~. _) C& V7 [
; z; m% V! n1 n! T8 B+ e
游客,如果您要查看本帖隐藏内容请回复  VIP可免回复查看隐藏内容 详情请点击
发表于 2019-10-31 19:43:21 | 显示全部楼层
谢谢楼主分享
发表于 2019-10-31 19:49:52 | 显示全部楼层
速度杠杠的。
发表于 2019-10-31 19:55:58 | 显示全部楼层
前排支持,多谢分享
发表于 2019-10-31 20:08:24 | 显示全部楼层
netflix的影视都很多元,感谢分享
发表于 2019-11-1 06:27:04 | 显示全部楼层

" ?* e* g' d5 R' ^谢谢楼主分享
发表于 2019-11-1 09:12:12 | 显示全部楼层
谢谢楼主分享。
发表于 2019-11-1 09:27:05 | 显示全部楼层
感谢楼主分享 !
发表于 2019-11-1 10:51:11 | 显示全部楼层
出来了 啊啊啊啊啊    真好 找好久了
您需要登录后才可以回帖 登录 | 立即注册

本版积分规则

QQ|封号公示|手机版|Archiver|有问题发邮件到admin#(换成@)hd1tj.org|微博|免责申明|HD一条街

GMT+8, 2019-11-22 09:52

快速回复 返回顶部 返回列表