HD一条街

 找回密码
 立即注册
搜索
查看: 494|回复: 13

[1080p] 风流断剑小小刀 The.Deadly.Breaking.Sword.1979.CHINESE.1080p.AMZN.WEBRip.DDP2.0.x264-SbR 5.74G

[复制链接]
发表于 2019-10-25 11:28:53 | 显示全部楼层 |阅读模式

马上注册,结交更多好友,享用更多功能,让你轻松玩转社区。

您需要 登录 才可以下载或查看,没有帐号?立即注册

x

$ w/ D" x& U; ~3 Z" R) z% K0 X                               
登录/注册后可看大图
8 }7 @: P2 v0 A, T4 D

; R% N$ K% b5 Q: ]◎译  名 风流断剑小小刀 / The Deadly Breaking Sword
3 V* W4 y" G' X- F$ z◎片  名 風流斷劍小小刀
5 |; X# q, p1 P; Z' C4 c+ `- u& u◎年  代 1979- I3 R0 w: j* O+ d# z, }6 a, n  V
◎产  地 中国香港
6 w. B; R  }! |6 `. ~◎类  别 喜剧 / 动作
) ]9 n+ F5 F% t9 \◎语  言 汉语普通话
# A, o' O% C4 y/ L8 z9 E0 J7 p, Y◎上映日期 1979-04-12
, C9 v- U0 n3 D/ G* K4 R7 W; n◎IMDb评分  6.7/10 from 169 users( _6 Z2 G1 y" C8 A" O4 J
◎IMDb链接  http://www.imdb.com/title/tt00791485 y: C8 i/ ]$ E$ R5 @9 b
◎豆瓣评分 6.5/10 from 388 users
( ~. J3 f& ~  t( v% p- o◎豆瓣链接 https://movie.douban.com/subject/1390008/
: G* M' g7 x) i/ a7 {4 N& y4 Y◎片  长 101 分钟4 E( H- V! v9 p1 x8 l8 D
◎导  演 孙仲
& ~, r( L& E& [5 N◎编  剧 倪匡
! r, j  p0 H8 `' m◎主  演 狄龙
+ I' y3 ~1 z/ f; p7 Y       傅声
: H* d; b0 c4 |) p9 S  ~       谷峰
8 i! X. j0 u/ B       施思( L- R2 c+ o- o" f
       李丽丽
6 }2 [+ o( ]0 ^+ G" k0 c1 A# q, j$ K2 x) z1 P- O1 I' b$ O

  U9 H4 a) \9 f2 F/ P3 v! p7 _◎标  签 邵氏 | 狄龙 | 香港 | 傅声 | 武侠 | 孙仲 | 香港电影 | 谷峰' N$ L0 u& A+ y/ J2 A& E+ l3 v, z

& Z' x7 C" b/ H◎简  介  
, I% J; c- g2 u1 V/ f) L* ~) l/ Q: L
5 |% }6 H7 G* N! {2 g  《風流斷劍小小刀》由張徹的愛將狄龍、傅聲攜手合作,集合了當时兩大武俠巨星,延續兩人俠骨仁風的硬朗形象。故事描寫大俠段長青(狄龍)在一小鎮得遇名妓柳銀絮(施思),柳懇求段殺死現以「神醫」為名的黑道高手郭天勝(谷峰),為其未婚夫報仇。段聯同鎮內賭坊護衛高門(傅聲)殺入郭家,正邪兩派惡鬥連場。此片有別於一般武俠故事,並非只以武鬥場面為中心,末段還加插了柳銀絮情歸何處,淡然帶出英雄舔血生涯的情感一面……
  1. Video
    : M% O- @1 @1 q' H
  2. ID : 1; Z9 }) V  t5 e+ B; r5 m# R3 ~  U
  3. Format : AVC3 w' o6 v( v! _$ q
  4. Format/Info : Advanced Video Codec& ~. A+ [& T& a; Z
  5. Format profile : High@L4% C* w8 d9 s( H  f
  6. Format settings : CABAC / 4 Ref Frames8 G1 [* p0 f8 ]; g
  7. Format settings, CABAC : Yes
    % k4 i/ M8 R3 c2 c" [: }
  8. Format settings, Reference frames : 4 frames9 A3 o+ J) p3 }
  9. Codec ID : V_MPEG4/ISO/AVC5 i1 M0 d$ ]5 \: G- H0 w7 X8 [& _
  10. Duration : 1 h 41 min
      d# P3 K, ?7 D2 H  J. ]/ m
  11. Bit rate mode : Constant9 U- r( e/ k8 @+ Z
  12. Bit rate : 7 883 kb/s& {# ?. _( A' b
  13. Nominal bit rate : 10 000 kb/s
    1 e& }* R6 J. Z2 {; L
  14. Width : 1 920 pixels
    ( A& Q, r# t6 M- z$ X* Z5 G$ x
  15. Height : 816 pixels
    . |+ ^# y1 J4 W& ~+ Z. V
  16. Display aspect ratio : 2.35:16 ~! L4 _+ G! k" D5 c! f
  17. Frame rate mode : Constant" n  ?; D* H' P# L+ }9 p, \
  18. Frame rate : 25.000 FPS
    + Q+ v7 k2 \% Z5 i4 Y  |! H& q
  19. Color space : YUV1 P  t! {# o5 o. T! E) k
  20. Chroma subsampling : 4:2:0
    7 i( M0 X" `9 e" I1 `; C
  21. Bit depth : 8 bits
    7 |. A( I- {8 q: j9 V
  22. Scan type : Progressive$ U& N6 w) \6 o0 |6 O$ M- u3 O
  23. Bits/(Pixel*Frame) : 0.201
    2 c* d0 h! x6 d5 i
  24. Stream size : 5.58 GiB (97%)
    6 {5 \1 e; j5 T
  25. Default : Yes" d/ H. g1 h# F- Q8 U2 _7 m$ b, ?
  26. Forced : No
    ' Q8 @& H. b, Z8 @  A
  27. Color range : Limited
    ! A9 C, u( b; U7 Z& ^$ `
  28. Color primaries : BT.7093 a3 N3 i) T' h4 D$ I2 q7 p
  29. Transfer characteristics : BT.709
    , M- l# A( g5 a
  30. Matrix coefficients : BT.709' I8 y2 C, C) I# D- s& z  f# L$ S

  31. $ |3 z  I2 X+ \& o* c3 O
  32. Audio
    0 W$ G: q9 J# s& H) Q* P" S
  33. ID : 2# X$ L. e$ e* Z: G9 c' g2 Z7 T- n
  34. Format : E-AC-3; E; G8 S, ?# h9 `! C+ Z) ?* s; k. X
  35. Format/Info : Enhanced AC-37 s! g$ j2 L$ e$ q$ c
  36. Commercial name : Dolby Digital Plus
    5 B; q' s4 N1 J: L5 j$ S6 U
  37. Codec ID : A_EAC3
    3 H7 x: q/ \* m& [
  38. Duration : 1 h 41 min/ C8 F7 J9 q7 c/ {2 `2 {
  39. Bit rate mode : Constant$ X; Y, g0 f( \% ~
  40. Bit rate : 224 kb/s
    & l" n& E: h; I9 U+ ], N
  41. Channel(s) : 2 channels. i" ?8 w/ K; p- Y
  42. Channel layout : L R
    7 M. s" @5 [1 m3 r3 L
  43. Sampling rate : 48.0 kHz) A' G( e+ d9 r9 Z$ e
  44. Frame rate : 31.250 FPS (1536 SPF)
    % y) K1 T* v8 j: `8 \
  45. Compression mode : Lossy
    8 J) d$ H- A* y$ j; \3 V* m) S( w
  46. Stream size : 162 MiB (3%)! ]! k2 o* G: m& i4 Q* X7 `' }& D
  47. Language : Chinese/ B/ d1 S: a# j$ b- O" d. u
  48. Service kind : Complete Main
    - X& f3 d% e; s! q: q
  49. Default : Yes8 [) ]/ b) }6 [; A! U
  50. Forced : No5 J6 b! c2 R  H) b- m
  51. ' j$ c" W9 Y1 H, f/ W6 U4 a# U/ v
  52. Text. Z- g: P2 n0 Z3 h
  53. ID : 3& W, H* i; a9 ?
  54. Format : UTF-8
    . n) y' A: t, w+ Z: c
  55. Codec ID : S_TEXT/UTF8
    * \1 k' U( R! \5 F
  56. Codec ID/Info : UTF-8 Plain Text
    1 }9 r* L( F* |9 c  p0 I! x. r+ ]
  57. Duration : 1 h 40 min
    $ {( ^  l# @0 ]8 N
  58. Bit rate : 40 b/s
    % b1 n* k6 t% g/ N+ W
  59. Count of elements : 1215
    $ n8 k. m/ m" O. l5 L9 b
  60. Stream size : 30.0 KiB (0%)' B  C& g: L- y, J
  61. Title : SDH
    / y1 y2 S! A7 w. j2 s3 a
  62. Language : English
    9 @2 \3 X8 ?( Q, v) {( ]+ R
  63. Default : No
    & j- ^% V& S( a7 \
  64. Forced : No
复制代码
: i% T* g! T$ B$ Q1 m; x6 H7 R

% s; v) c" }! T+ B6 \. y, x- v' H5 v* g7 `3 Z. w

6 d3 H! `3 ^4 x# h. t& {( d
4 r. \3 L/ K. s; ?9 e/ O9 d# ?7 c- v5 X& s* B1 F3 |' H5 A5 G
游客,如果您要查看本帖隐藏内容请回复  VIP可免回复查看隐藏内容 详情请点击
发表于 2019-10-25 15:15:39 | 显示全部楼层
港产老电影支持下了
发表于 2019-10-25 15:39:01 | 显示全部楼层
主演阵容强大,下载收藏了。
发表于 2019-10-25 15:59:30 | 显示全部楼层
还是那个年代的武侠电影比较纯粹
发表于 2019-10-25 16:58:55 | 显示全部楼层
邵氏经典,谢谢分享
发表于 2019-10-25 18:19:14 | 显示全部楼层
还是老片好看啊
发表于 2019-10-27 05:57:38 | 显示全部楼层
谢谢楼主分享资源。
发表于 2019-10-27 09:48:55 | 显示全部楼层
邵氏的老武侠片,支持
发表于 2019-10-30 20:13:39 | 显示全部楼层
谢谢楼主分享资源。
发表于 2019-11-13 02:50:57 | 显示全部楼层
老武侠才有真正的武侠味道。不需要什么特技
您需要登录后才可以回帖 登录 | 立即注册

本版积分规则

QQ|封号公示|手机版|有问题发邮件到admin#(换成@)hd1tj.org|微博|免责申明|HD一条街

GMT+8, 2020-6-6 10:01

快速回复 返回顶部 返回列表