HD一条街

 找回密码
 立即注册
搜索
查看: 315|回复: 20

[1080p] 柔道龙虎榜[4K修复版版][粤语 英文字幕]Throw.Down.2004.REMASTERED.CHINESE.1080p.BluRay.x264.DTS-FGT 8.69G

[复制链接]
发表于 2019-10-2 20:07:04 | 显示全部楼层 |阅读模式

马上注册,结交更多好友,享用更多功能,让你轻松玩转社区。

您需要 登录 才可以下载或查看,没有帐号?立即注册

x

% p- ~8 Q. L* {$ v: }% z3 T. A                               
登录/注册后可看大图
# {$ A* ?; d& Y

+ V+ V; D9 K5 a* I  V$ s- K◎译  名 Throw Down9 k4 B5 R# y: n# l
◎片  名 柔道龙虎榜
2 f) Q& O* r4 `- V" f◎年  代 2004
( i# @2 q& l- t7 y◎产  地 中国香港
- u9 W: s1 t' y7 s; t7 {◎类  别 剧情 / 动作
. }3 P8 @! g" g  r( Y$ l0 _◎语  言 粤语
4 e0 _/ A2 F: M◎上映日期 2004-07-08(中国香港), z( S- ~. n4 E7 F
◎IMDb评分  6.9/10 from 1278 users
7 v5 `+ S* p0 f3 x) T◎IMDb链接  http://www.imdb.com/title/tt0415380
; t3 x3 g. X  Y◎豆瓣评分 7.5/10 from 21323 users4 G. S. {7 p) O* b+ q$ S% V+ N
◎豆瓣链接 https://movie.douban.com/subject/1308796/2 F9 ]& w3 U" a% {6 U$ _3 N  f
◎片  长 95 分钟
1 s) W! x  p8 ~4 X) @6 K◎导  演 杜琪峰 Johnnie To* G  w5 y9 T0 H5 F2 R% \
◎编  剧 欧健儿 Kin-Yee Au / 游乃海 Nai-Hoi Yau / 叶天成 Tin-Shing Yip, u2 M1 n8 C: n0 `& A
◎主  演 古天乐 Louis Koo
  T/ z, C: w* r; U- y; p: O       郭富城 Aaron Kwok
8 O& @3 C0 V4 j* H* h       应采儿 Cherrie Ying- `0 c, ~5 _& u# }/ k
       梁家辉 Tony Leung Ka Fai* D5 l2 g" E7 Q# L+ t
       陈小春 Jordan Chan9 Z1 N- F' L  x( g
       张兆辉 Siu-Fai Cheung
; M) G* N) U' N& J  W* i       蔡一智 Calvin Choi
7 W" y9 F# P7 R6 Q/ z' M6 `' _: C       卢海鹏 Hoi-Pang Lo
( D& h7 a3 Y1 N. U1 b6 y* C6 G       高捷 Jack Kao5 E# {% N# S" N$ k
       黄华和 Wan Woo Wong
0 u1 k1 j  ]. v2 ^$ l: _2 |       元彬 Bun Yuen
$ ?# @: K/ Q  A; I8 g- ?
/ D3 F0 w9 m2 p8 t1 a% Z! ^7 ~
3 b2 h+ h4 `1 |% H- b◎标  签 杜琪峰 | 香港 | 银河映像 | 古天乐 | 香港电影 | 动作 | 郭富城 | 梁家辉2 y% o( f- F5 s6 u( b4 }
3 X0 Y8 E# |+ {; O0 d5 Z' E. y
◎简  介  
! N' U/ I  b3 O" q3 R1 z6 n6 ]
7 A5 m+ ^/ o/ r& S! C( `  曾经号称“柔道小金刚”的司徒宝(古天乐饰),曾是一名高手,如今放弃了柔道,已沦落成债务缠身、嗜赌酗酒的堕落混混。: j2 m5 h: j8 z# `, C: e0 H+ i2 f$ b
  新一届的柔道冠军Tony(郭富城饰)慕名而来,直指司徒宝挑战,试图一较高下。宿敌辣手李阿刚(梁家辉饰)又因当年一场未完的比赛,也找上门来要和司徒宝决一雌雄。
4 _" n' V$ I* x; ~  结果Tony和司徒宝成为好友,台湾来的靓女小梦(应采儿饰)一心想当歌星,却险遭暗算,为实现理想屡吃尽苦头的也希望司徒宝能重燃斗志,但真正令其发愤的却是年迈师傅(卢海鹏饰)的战死。6 C& i1 b& ?0 }' r; V/ c
  到底是有什么隐痛让司徒宝自甘沉沦?重寻对柔道信心和热爱的他,是否能够打败对手?0 z7 Y" e* Z5 K1 {0 x& r

; P% u' N2 ^# X# B◎获奖情况  3 i$ _2 k( \+ l+ {- e! S  s

( a; n/ n0 r  B  A" E7 |4 y. |  第41届台北金马影展(2004)3 t+ Y) W, y+ s6 o! E7 [9 v$ V
  金马奖 最佳男配角(提名) 张兆辉) X- S8 M& c( Q
  金马奖 最佳原著剧本 欧健儿 / 游乃海 / 叶天成
0 F1 }8 V+ X. d2 N) f( f
) X8 B2 x* C! M7 T" L$ D" t  第24届香港电影金像奖(2005)
" M% s0 l4 n% q% f- i3 g0 u  最佳动作设计(提名) 元彬
2 k" T7 K; j% C, l. w8 G: B/ B# t
0 t0 B* o1 |5 `7 b. q  第5届华语电影传媒大奖(2005)
6 m) E7 Q- l4 B' b1 ~! c4 b  最佳电影(提名)
; W2 b$ S0 |0 [: S  最佳导演(提名) 杜琪峰
& l2 L, p/ I. R' G# m6 i3 }  最佳男配角 张兆辉) Q) j- @6 M. O0 _
  最佳男配角(提名) 梁家辉
  1. Video9 y- z  S3 N4 ?& A
  2. ID : 1- d+ \! r6 q8 S( D+ c
  3. Format : AVC
    ( T: o0 `9 N* {8 b! }! V: v
  4. Format/Info : Advanced Video Codec
    8 g1 x( Y/ a& l0 `
  5. Format profile : High@L4.1' m; C- z# t% u4 t2 N
  6. Format settings : CABAC / 4 Ref Frames. u% ^! {; X1 P5 l, z! o
  7. Format settings, CABAC : Yes
    9 L9 x1 ]! p' U& L$ B( U
  8. Format settings, Reference frames : 4 frames) `5 X  l' ?( Z% q4 g% M
  9. Codec ID : V_MPEG4/ISO/AVC
    + O* f2 \5 ?6 i% ?. o
  10. Duration : 1 h 35 min2 [& n; f$ |$ f' T! g" b& ~2 V
  11. Bit rate : 11.5 Mb/s
    ! {$ m$ {2 Q  F9 k; H
  12. Width : 1 920 pixels4 K5 B8 x# V: z9 u7 i8 J
  13. Height : 816 pixels
    % G9 R2 b9 c, ^  ]6 L$ K
  14. Display aspect ratio : 2.35:1
    , N, b' H1 E7 U( W  C# F# t, u
  15. Frame rate mode : Constant' l8 n4 g, j- K
  16. Frame rate : 24.000 FPS% w7 Z0 Y# \* n! j1 o. ~
  17. Color space : YUV5 P+ g1 o0 k0 }2 `' z
  18. Chroma subsampling : 4:2:0
    1 z$ p: c2 U0 ]& h
  19. Bit depth : 8 bits! T" d$ k2 c3 l4 A% N% l6 s
  20. Scan type : Progressive
    # q5 ^2 V# P9 c" h
  21. Bits/(Pixel*Frame) : 0.306( I6 `( U+ t' r" |4 v& y1 b
  22. Stream size : 7.68 GiB (88%)9 V, _7 \. z) }, E8 Y7 v) {
  23. Title : Throw.Down.2004.REMASTERED.CHINESE.1080p.BluRay.x264.DTS-FGT
    ; g; `$ b. M' v6 D& q
  24. Writing library : x264 core 148 r2795M aaa9aa8) }. o8 U7 u% J' a' c
  25. Encoding settings : cabac=1 / ref=4 / deblock=1:-2:-2 / analyse=0x3:0x113 / me=umh / subme=9 / psy=1 / psy_rd=1.00:0.15 / mixed_ref=1 / me_range=16 / chroma_me=1 / trellis=2 / 8x8dct=1 / cqm=0 / deadzone=21,11 / fast_pskip=1 / chroma_qp_offset=-3 / threads=24 / lookahead_threads=3 / sliced_threads=0 / nr=0 / decimate=1 / interlaced=0 / bluray_compat=0 / constrained_intra=0 / bframes=3 / b_pyramid=2 / b_adapt=1 / b_bias=0 / direct=3 / weightb=1 / open_gop=0 / weightp=2 / keyint=250 / keyint_min=25 / scenecut=40 / intra_refresh=0 / rc_lookahead=50 / rc=2pass / mbtree=1 / bitrate=11500 / ratetol=1.0 / qcomp=0.60 / qpmin=0 / qpmax=69 / qpstep=4 / cplxblur=20.0 / qblur=0.5 / vbv_maxrate=31250 / vbv_bufsize=31250 / nal_hrd=none / filler=0 / ip_ratio=1.40 / aq=1:1.00# M0 ~4 \" p2 B
  26. Language : Chinese+ w7 t- p$ A% f4 \& V
  27. Default : Yes
    - G' x/ f5 y: Z
  28. Forced : No" S+ L8 I1 q* C) W
  29. / N# L8 J. Q$ W5 c; ?
  30. Audio* I( \, r7 K: d% m+ I: K, u
  31. ID : 25 p! b. _/ j( \* y4 X0 `
  32. Format : DTS
    ) O5 G1 p/ h6 i3 }
  33. Format/Info : Digital Theater Systems, x; s6 }: C' |6 e5 {
  34. Codec ID : A_DTS
    % Q. t. U4 Z: F0 p
  35. Duration : 1 h 35 min
    , W, n3 E" k1 p, Z$ Q
  36. Bit rate mode : Constant
    - z% O7 l5 b7 J' T2 l
  37. Bit rate : 1 509 kb/s% S3 ~) W9 G! t  A/ Y; E1 K
  38. Channel(s) : 6 channels* I! a0 ^$ ?( C8 }5 W
  39. Channel layout : C L R Ls Rs LFE* L4 d  F; |. c0 z$ d4 U) M) q
  40. Sampling rate : 48.0 kHz: ~% @: F# v0 e) a; V! \: t: P) b8 a
  41. Frame rate : 93.750 FPS (512 SPF)! v9 x1 |! y. q% b
  42. Bit depth : 16 bits
    ' F* n8 p" m( ^& P0 n) M$ T7 }
  43. Compression mode : Lossy9 ~( d9 N6 b- e# v2 M. T3 U
  44. Stream size : 1.01 GiB (12%)* l* r4 U# ^2 h# O. D, L* V
  45. Title : Throw.Down.2004.REMASTERED.CHINESE.1080p.BluRay.x264.DTS-FGT7 i2 y0 p- L! r/ s8 C! U
  46. Language : Chinese
    $ o, w5 A& J- A9 z) E
  47. Default : Yes  w1 x- M$ ?/ s" n
  48. Forced : No$ F9 I) G" G* Q  k- g2 r; e+ i+ b0 N
  49. 8 u- V/ n! {. }& o( U
  50. Text
    ! u+ |1 v( n0 e6 [% c7 T
  51. ID : 3
    ; O% A* ]' E9 B4 M# R+ y' e
  52. Format : UTF-8; W1 I, I$ j/ Y* [! k6 M5 P) B9 r+ K4 K! ^
  53. Codec ID : S_TEXT/UTF8+ P4 V0 F, s& |$ `
  54. Codec ID/Info : UTF-8 Plain Text
    # I/ C0 C: B0 {( f9 W+ L( e' L
  55. Duration : 1 h 27 min+ ^+ c' i, {2 x4 u
  56. Bit rate : 18 b/s, h/ k- t+ R0 v; r9 ~9 s
  57. Count of elements : 525& l1 d6 j+ W1 j7 O( _+ ?2 i7 a
  58. Stream size : 11.7 KiB (0%)
    8 E; p% h1 ]0 c7 c3 M3 k
  59. Language : English6 h; D4 h% ?# x9 F) g; b
  60. Default : Yes8 M, A. a8 Y, e0 H+ `4 F5 Z
  61. Forced : No% d+ c& o6 K% U0 X
  62. $ b9 |; s6 Q4 R! i! d0 z  R# q
  63. Menu% k% i2 Y- L5 }  Q+ {/ f
  64. 00:00:00.000 : en:Chapter 01
    3 e& \# ]: ?2 a; S" m8 [1 l
  65. 00:03:55.000 : en:Chapter 02% i) u) p  Y. e. r3 g3 s3 K
  66. 00:08:06.750 : en:Chapter 030 B" m# c5 \8 t/ h
  67. 00:11:12.792 : en:Chapter 04
    4 @  i0 D/ z5 K6 }
  68. 00:17:12.792 : en:Chapter 05/ v2 V( A6 Q# |' ~8 Z+ N
  69. 00:23:59.625 : en:Chapter 06: Y- m. n" f& D0 _+ u+ j! B% s
  70. 00:29:01.500 : en:Chapter 07
    % o  u2 v2 {9 S& E% q" ~7 |' _
  71. 00:36:34.792 : en:Chapter 08$ s: X. y8 h% W& D1 {; D* o
  72. 00:42:52.333 : en:Chapter 090 u# f& S/ I! Z3 P5 L$ @! w
  73. 00:47:41.542 : en:Chapter 10
    5 R+ \9 K0 W7 z. Y2 E3 o. Z, U
  74. 00:50:41.292 : en:Chapter 11  ?: \4 v" p6 ]
  75. 00:56:29.208 : en:Chapter 12
    6 c, r. }5 _) C
  76. 00:59:48.708 : en:Chapter 13
    3 r1 i3 _1 h% i4 L
  77. 01:05:38.250 : en:Chapter 14/ C! }" E& y& f* `( Z  X9 B# k
  78. 01:09:05.292 : en:Chapter 15
    9 |  ]3 K3 h' J- b, ?! V
  79. 01:13:27.083 : en:Chapter 16
    4 P4 B$ U) C/ k0 m  m3 d2 K- r
  80. 01:16:36.708 : en:Chapter 17
    0 j# W  e- o0 Z( @
  81. 01:20:49.708 : en:Chapter 18
    1 o7 F+ y: j/ x7 q. t
  82. 01:25:56.083 : en:Chapter 19
    , ~0 `/ X; ]7 g
  83. 01:32:20.625 : en:Chapter 20
复制代码
, ^) w+ c. H8 _. W4 G  A
+ O) l; K* E4 ^% ~% M' f, {. h5 Z
# \+ g5 P6 h  ~5 _
/ i- [3 O4 V3 h& {1 e: G9 \

* ~( r9 {& s! A* @! f& C
& r$ S8 b$ Q; [
游客,如果您要查看本帖隐藏内容请回复  VIP可免回复查看隐藏内容 详情请点击
发表于 2019-10-3 09:09:23 | 显示全部楼层
不错的电影,感谢版主提供资源
发表于 2019-10-3 15:30:04 | 显示全部楼层
多谢分享了!
发表于 2019-10-4 07:53:36 | 显示全部楼层
一部非常不错的电影
发表于 2019-10-6 16:41:29 | 显示全部楼层
等了好久终于有大容量的版本了
发表于 2019-10-8 17:10:13 | 显示全部楼层
杜琪峰很喜欢,但除了应采儿之外,其余个人感觉还行吧--
发表于 2019-10-9 09:30:29 | 显示全部楼层
应采儿还是不错的,呵呵
发表于 2019-10-10 17:21:06 | 显示全部楼层
棒棒的电影,感谢版主提供资源
发表于 2019-10-13 18:38:00 | 显示全部楼层
应采儿被房东赶出来吃泡面的样子正到爆啊
您需要登录后才可以回帖 登录 | 立即注册

本版积分规则

QQ|封号公示|手机版|有问题发邮件到admin#(换成@)hd1tj.org|微博|免责申明|HD一条街

GMT+8, 2020-6-5 16:36

快速回复 返回顶部 返回列表