HD一条街

 找回密码
 立即注册
搜索
查看: 78|回复: 4

[1080i] 韩剧:喜欢的话请响铃 全集[韩语 自带中文字幕]Love.Alarm.S01.KOREAN.1080p.NF.WEBRip.DDP5.1.x264-ASiANA 15.53G

[复制链接]
发表于 2019-8-31 00:36:31 | 显示全部楼层 |阅读模式

马上注册,结交更多好友,享用更多功能,让你轻松玩转社区。

您需要 登录 才可以下载或查看,没有帐号?立即注册

x

6 J( e* n* u2 J  X                               
登录/注册后可看大图

1 m) r* V) N, P' J5 m# E/ {1 X5 q6 Z) ?0 u6 i+ t" ^9 H8 X
导演: 李娜静
$ ^* S- }1 E& E8 B! i% c. x编剧: 李雅言 / 徐宝拉+ R% n, D# b& Y  V! R% q# y
主演: 金所泫 / 郑家蓝 / 宋江 / 高敏诗 / 池赫拉 / 更多...( W9 _) K9 r: I: V7 B9 E
类型: 爱情 / 科幻4 h% J& b! D3 X+ `  T
制片国家/地区: 韩国, J& a! d6 ?1 f6 }7 i  l
语言: 韩语
3 ~" N* k7 `1 f2 E/ [+ M  h% b首播: 2019-08-22(韩国)
+ ]1 h! e0 a# ^0 H# ^季数: 1
) k+ R/ g6 V# A5 v( e( t集数: 8* V0 U9 B( A& {% X& s' ~9 K- B
单集片长: 55分钟
( B7 ^! r. u. a' e0 ~* w又名: 恋爱铃 / 爱情警报 / 有喜欢的人就会响 / 喜欢你就会响 / Love Alarm
& c2 p. K6 o) L1 V: _IMDb链接: tt9145880% N& J8 ]3 w+ _: W
7 K6 }  k! ~$ u
喜欢的话请响铃的剧情简介 · · · · · ·
# h5 a3 t; p; r( T  c  [# C2 D$ ^  改编自同名漫画《恋爱铃》,描述一位软体开发工程师打造出一套应用程式,能在使用者周遭有人对他们滋生浪漫情愫时给予提醒。
  1. Video( N1 A; s: N% p2 Y. N6 e) Z
  2. ID : 19 ]8 V( E2 w: ~) |
  3. Format : AVC! N9 G, [1 O* N; ?) G
  4. Format/Info : Advanced Video Codec: y2 h% {4 Y( b5 [& }9 r; K/ o
  5. Format profile : High@L4.1# ~. ]  s! ]. W9 @7 `4 x
  6. Format settings : CABAC / 4 Ref Frames
    : K: M0 w/ M" V/ w0 z
  7. Format settings, CABAC : Yes
    ' b2 V' x( C3 l9 V, r8 X; U: b$ p4 T; u
  8. Format settings, Reference frames : 4 frames  r+ `3 y, \4 W; k, ~
  9. Codec ID : V_MPEG4/ISO/AVC
    & r0 y9 U' b" `1 G. V. S
  10. Duration : 55 min 39 s% w0 |: N9 |' |4 A$ D" u* Z
  11. Bit rate : 4 601 kb/s9 S5 b0 y7 I% A  s7 @
  12. Width : 1 920 pixels
    ; m3 s- e! e; e. v( F: ^  u9 ]
  13. Height : 960 pixels
    4 H! L. i: Y& b! ]6 A9 R4 ?5 L
  14. Display aspect ratio : 2.000
    : P9 \9 l+ s2 t6 L- z. Q- F' W
  15. Frame rate mode : Constant
    1 [7 i/ U/ w8 K* I* L$ a9 i0 E
  16. Frame rate : 23.976 (24000/1001) FPS" V0 q* }; D0 L4 Y: g
  17. Color space : YUV
    ! c3 v" Z* Z5 G* [  I4 F- H
  18. Chroma subsampling : 4:2:06 \3 d# l! \7 K8 R) a0 @& e) t! E' |
  19. Bit depth : 8 bits1 C3 }0 M' h( _9 q! R$ m5 q( J
  20. Scan type : Progressive
      ^* k& N5 `3 b% C3 O0 b
  21. Bits/(Pixel*Frame) : 0.104
    % `, D9 J; P7 l8 a5 O( t. ?
  22. Stream size : 1.79 GiB (88%)/ O" c. t- f: B$ o1 x' _6 G3 r( |
  23. Writing library : x264 core 157 r2969 d4099dd  k: e3 c: B! M' h6 s
  24. Encoding settings : cabac=1 / ref=4 / deblock=1:-3:-3 / analyse=0x3:0x113 / me=hex / subme=8 / psy=1 / psy_rd=1.00:0.00 / mixed_ref=1 / me_range=16 / chroma_me=1 / trellis=2 / 8x8dct=1 / cqm=0 / deadzone=21,11 / fast_pskip=1 / chroma_qp_offset=-2 / threads=12 / lookahead_threads=2 / sliced_threads=0 / nr=0 / decimate=1 / interlaced=0 / bluray_compat=0 / constrained_intra=0 / bframes=3 / b_pyramid=2 / b_adapt=1 / b_bias=0 / direct=3 / weightb=1 / open_gop=0 / weightp=2 / keyint=250 / keyint_min=23 / scenecut=40 / intra_refresh=0 / rc_lookahead=50 / rc=crf / mbtree=1 / crf=17.6 / qcomp=0.60 / qpmin=0 / qpmax=69 / qpstep=4 / ip_ratio=1.40 / aq=1:1.00$ d( y2 n& |" {) Z
  25. Language : English& j: ?! r' Y+ e+ c
  26. Default : Yes- S5 [( M1 H; S& S: P: y2 L7 t
  27. Forced : No
    ; S3 }& B) v& K# h5 i
  28. + c1 ^8 R: F7 i$ ~1 f) J
  29. Audio0 S" F+ f% m/ P+ _& D
  30. ID : 2
    ' N2 D2 J5 |$ c
  31. Format : E-AC-3. k' p% ?" r* I. s- b* P
  32. Format/Info : Enhanced AC-3& x; _* \$ N2 [* s% P& Y
  33. Commercial name : Dolby Digital Plus
    % l0 l# A, Z& x# X
  34. Codec ID : A_EAC3* ^, r3 T9 }: b( ?: G- w
  35. Duration : 55 min 40 s. B3 L( I- m8 o+ E2 a" y" W
  36. Bit rate mode : Constant8 |* H0 _4 S2 D; \3 g! \+ A
  37. Bit rate : 640 kb/s
    0 k! G' Z+ H# C5 z5 B  s
  38. Channel(s) : 6 channels8 a, ?) D4 P. |$ \4 s1 ^0 r) x9 S
  39. Channel layout : L R C LFE Ls Rs
    ! J- ]9 Y' [; L8 ^- _4 n, |4 K
  40. Sampling rate : 48.0 kHz- S: u* s" j8 [5 P7 W* B
  41. Frame rate : 31.250 FPS (1536 SPF)0 ~7 G9 G0 W! w! c9 F
  42. Compression mode : Lossy
    - k* q. @; M& ~  F
  43. Stream size : 255 MiB (12%)
    ; |- ?# f- s( |5 p2 h" M; ?& B- b, B
  44. Title : Korean
    0 x7 x* z3 w+ F7 Q% R5 X% S* N
  45. Language : Korean' j/ _. a! z# g) S% a4 u. _
  46. Service kind : Complete Main7 v! ]( m8 @4 Z% S) u% [
  47. Default : Yes; F1 u5 }( F0 T9 h  M
  48. Forced : No" r( O4 X8 i. ?  H! Z1 C
  49. 6 Q8 p. Z/ o; n  ^' O8 u6 Q8 P
  50. Text #1" N  x- i% @  u$ j
  51. ID : 39 W; d, }. k5 d- _* M
  52. Format : UTF-8$ D( g( f* ^- T% t: j5 B5 Q- ~% E3 X
  53. Codec ID : S_TEXT/UTF8
    ) z: j+ t- b. N/ |; E# |0 }
  54. Codec ID/Info : UTF-8 Plain Text
    4 A; @& Q1 e8 w$ S$ ~! W
  55. Duration : 54 min 18 s% d9 |5 o$ l2 s4 B5 `) X7 L! T
  56. Bit rate : 46 b/s2 ~6 X9 B& Y9 e3 W
  57. Count of elements : 612( m0 H9 q3 Q9 f6 Z6 r0 c* o; \
  58. Stream size : 18.5 KiB (0%)% `0 s9 H0 g7 S) X) D3 l: m' S! d+ E
  59. Title : English
    8 N6 [" h$ F9 z5 L5 m4 i
  60. Language : English
    " I! ]- d4 r" B( p( A! o; k
  61. Default : Yes/ x1 I7 b6 d2 P  f. V/ _, h$ u
  62. Forced : No% s" {1 u! f  s: V3 F! {% F  h; c
  63. ( w9 L( {5 E) m) d9 t/ _
  64. Text #29 E8 M4 K' b! N# R9 D# [5 M
  65. ID : 45 Y. y& t% e) h# I* G1 f$ s6 h
  66. Format : UTF-85 p4 \/ M/ ]; W+ V' V
  67. Codec ID : S_TEXT/UTF8: D2 d/ y0 n7 ]8 o. T& d: {9 n& ]+ b
  68. Codec ID/Info : UTF-8 Plain Text. U3 c6 i% E) @0 C" g1 [# F  Y0 }
  69. Duration : 54 min 29 s
    . k$ ?9 V/ n1 Q/ T
  70. Bit rate : 62 b/s
    - q! g+ l, B$ Z; k
  71. Count of elements : 689; e9 n0 e' \5 z6 U; W& f+ p
  72. Stream size : 24.9 KiB (0%)
    2 m& {) ?% K5 I0 h  q
  73. Title : Korean (SDH)( K! i* W# k2 c4 b, D% `
  74. Language : Korean
    0 J6 O8 Z3 {0 T( G1 s
  75. Default : No
    ) M* `5 S6 c7 R& }% T  @: s
  76. Forced : No
    . Y% `/ \! A& |# y' k) g9 b, v
  77. 8 \+ I8 ~5 i5 @; k6 }7 j
  78. Text #38 Q: W% f; v( B" d1 D6 j7 v
  79. ID : 5
    $ f; J9 a. c0 X5 o
  80. Format : UTF-8
    ( e. v) t! b2 U. i- k7 k
  81. Codec ID : S_TEXT/UTF8
    $ f9 ]+ s1 r1 \1 y- e5 D0 s; c4 F' ]  E
  82. Codec ID/Info : UTF-8 Plain Text' N! b, N, `8 a+ R! s, C. r5 ^
  83. Duration : 54 min 27 s
    1 x! b! ]; \# M  z: U* Y
  84. Bit rate : 79 b/s7 v; ~# J; n# ^/ g/ r
  85. Count of elements : 615
    # d& f4 @1 A6 `( r. X
  86. Stream size : 31.8 KiB (0%)
    - \* d2 x+ B5 c' g3 D8 ~
  87. Title : Arabic2 D+ g' k# j  ?. z; t
  88. Language : Arabic
    ( o* U+ H( l9 f3 c& j
  89. Default : No* X/ C5 g; q: S! I$ E; a
  90. Forced : No2 n# R8 O6 J, z

  91. 2 c6 m- s: X( `+ @" n( s- ^
  92. Text #4
    ; r: T5 n/ \. \6 q4 n
  93. ID : 63 I8 b: m0 B7 d2 p# L3 Y8 M+ S2 _
  94. Format : UTF-8
    * P$ c% R5 P. ~% K
  95. Codec ID : S_TEXT/UTF8
    9 D! j) g* w! s- U+ b1 g) E) V" t
  96. Codec ID/Info : UTF-8 Plain Text( f. O* s& A. p5 O% x5 L6 `0 x, ?
  97. Duration : 54 min 27 s' ~( f# O7 P& ]* q
  98. Bit rate : 48 b/s5 K- \4 f1 X  h( ^
  99. Count of elements : 6196 n" e+ W6 n& b% j2 s  P$ F; _
  100. Stream size : 19.5 KiB (0%)& s# g. X) T7 T
  101. Title : Chinese (Simplified)
    + L$ s0 r3 |. z: _0 |7 P2 P
  102. Language : Chinese
      V, Q7 i8 g0 B+ @
  103. Default : No2 I2 P7 p6 \) h; h  q, \7 z
  104. Forced : No
    . {/ ?$ C) y) u8 h/ e( D) g

  105. 8 n9 D% d) i2 C( n
  106. Text #5& L( Y. m9 `, C7 B& T; W" ^
  107. ID : 7
    $ L5 k' V3 `2 L- J0 B  h
  108. Format : UTF-8
    : Y# G% `4 E$ d/ a9 {3 w6 u, C
  109. Codec ID : S_TEXT/UTF8
      C$ j6 _4 H' h
  110. Codec ID/Info : UTF-8 Plain Text$ a8 ?/ X" c. w# k% l
  111. Duration : 54 min 30 s
    5 ~1 L5 ?/ K. s( ]% U
  112. Bit rate : 47 b/s
    8 L7 _: n' ^( g! Z: E
  113. Count of elements : 6155 |7 c. S3 d  G" R
  114. Stream size : 18.9 KiB (0%)
    9 A* n4 B6 N3 N. j
  115. Title : Chinese (Traditional)
    $ v3 l% U& J0 h; O% ~1 G% n8 w7 l* R
  116. Language : Chinese/ @$ L7 f& M7 m) g/ E
  117. Default : No  s( N5 q) r+ m, k3 `: O
  118. Forced : No
    2 z$ A4 [9 T. W9 d3 A! l( Q) V2 \
  119. % z* e: y, G& r* A
  120. Text #6
    2 \, a7 Y) P4 F: `
  121. ID : 8$ j/ S$ J* q3 I0 k$ I
  122. Format : UTF-8
    $ t/ S) ]3 I9 k, u- W
  123. Codec ID : S_TEXT/UTF8
    0 k) u# O/ _, V9 U! r" D& @
  124. Codec ID/Info : UTF-8 Plain Text
    # G3 U7 v# p! j' h0 }( O$ I9 n: M+ v
  125. Duration : 54 min 31 s
    6 ]! g$ }9 J# |7 C/ d$ o
  126. Bit rate : 37 b/s
    4 K/ p! e$ g5 z6 g1 s
  127. Count of elements : 605
      I0 G6 R+ D3 A& S5 u
  128. Stream size : 14.9 KiB (0%)
    - Y/ [. A) J4 S6 e
  129. Title : Czech
    8 e) h- L" W" i. a
  130. Language : Czech
    4 G/ u" H( G. }% i
  131. Default : No0 X( _2 u7 j  \! G% n
  132. Forced : No
    3 m0 [( v6 l' I5 F: N+ ~& J: |
  133. 4 v9 F# i$ @( R. q, E. k' @% \
  134. Text #7
    2 Z( Z: r, q; y7 Z5 j' L
  135. ID : 9) ?4 @: Y; z$ h4 O) K5 S: Z' k1 {
  136. Format : UTF-81 W( D/ a6 E) `
  137. Codec ID : S_TEXT/UTF8
    + x* I5 x, B( _' I5 i, B
  138. Codec ID/Info : UTF-8 Plain Text$ Y% }" L/ Y# F5 k
  139. Duration : 54 min 30 s
    ' C, E3 c* x2 E0 C* `
  140. Bit rate : 39 b/s! y2 u, h' y/ Z0 m
  141. Count of elements : 567) G) P- r9 z7 e% e  R0 ?2 Y8 s. E* N
  142. Stream size : 15.6 KiB (0%), v+ j% j0 [/ E" ^5 z* J
  143. Title : Danish" n# B0 ]) @9 h& o* S5 D
  144. Language : Danish6 C3 I* z# J- d
  145. Default : No( s. i) y8 U2 B; a+ K, q% S
  146. Forced : No
    3 V1 }) G% c* F, t2 v

  147. 9 V; V) J: l# i8 ~* b
  148. Text #8
    ( U( K  |( G/ N/ N# C
  149. ID : 10$ w% j: ]& z  L) I  u
  150. Format : UTF-8" p/ b9 {: d& h& ?  t" o& \
  151. Codec ID : S_TEXT/UTF8
    : ]  h" e: f" _; y
  152. Codec ID/Info : UTF-8 Plain Text
      z4 V1 [3 g  X+ Q$ e/ a! O
  153. Duration : 54 min 24 s
    $ a6 Y2 Y. o& r, C
  154. Bit rate : 38 b/s
    0 j5 p& H- g2 j2 w7 Z- Y+ v
  155. Count of elements : 581
    7 x& @3 [$ w: P+ r) M* l2 P
  156. Stream size : 15.3 KiB (0%)$ L4 a  @( H5 {, u
  157. Title : Dutch
      \" n6 P/ j& ^  K+ U, a
  158. Language : Dutch, x  Y% S! U1 M" B: L- R3 X' B
  159. Default : No$ l* U! E" Q3 z. Z. X; M; @
  160. Forced : No
    6 n# C1 f7 r6 B" A# O) t8 l$ v

  161. 0 n& e& _* y7 @4 p+ ^. L/ Q; o# b
  162. Text #98 g" E% y8 i9 t. w0 H5 w
  163. ID : 112 `4 }# K% |$ s2 c5 ]/ s
  164. Format : UTF-8; {. `. G- ^" q; g6 H
  165. Codec ID : S_TEXT/UTF8
    5 v/ `8 [' Q) H: f1 [
  166. Codec ID/Info : UTF-8 Plain Text
    6 s$ ~: w) `4 b( m
  167. Duration : 54 min 24 s( f/ B8 n% P) H: m' X
  168. Bit rate : 37 b/s) m+ n/ e, ~, o0 P0 o  m) L
  169. Count of elements : 468- k  l4 v! o$ d. @# ~5 e* |
  170. Stream size : 15.0 KiB (0%)' Y, B& g0 a8 q; }) \2 m
  171. Title : Finnish! v6 A; Z. ]4 V* E
  172. Language : Finnish
      P5 o& y7 i* _4 v7 p/ E8 h* e
  173. Default : No
      H' t) O/ g3 i
  174. Forced : No
    : j3 R7 @5 r3 N0 H  f- F, H( A5 L
  175. 9 P' n- f4 X% u) P3 x$ E
  176. Text #10
    / b3 Y1 ^3 p5 G8 q2 D
  177. ID : 12
      n, r& a6 J; }
  178. Format : UTF-8/ f: M6 q' e0 l& P  d4 }) k0 t
  179. Codec ID : S_TEXT/UTF8
    ; T, c* \# n: N9 L
  180. Codec ID/Info : UTF-8 Plain Text6 Z; K, W! J% @8 Q7 ^0 H
  181. Duration : 54 min 30 s8 H4 x% p- z( S
  182. Bit rate : 41 b/s
    4 _- i: x6 j# S4 _) ^  l
  183. Count of elements : 615* S! T/ y% W/ t1 Z8 }0 f3 D
  184. Stream size : 16.6 KiB (0%)
    ) t9 B: r7 _8 |) h+ \
  185. Title : French1 s7 Z$ I; v$ T. c: J$ E& _! j
  186. Language : French' R1 [  z' M8 s* Z$ u4 i
  187. Default : No5 w9 {6 G! a; p
  188. Forced : No
    1 Q) ]' G8 ?( _/ ~( D
  189. ' Y! f- {% m% [1 m
  190. Text #11
    8 _- |* D. A# {, A6 X8 c
  191. ID : 13# O4 i% \: L& K  P' d% _8 P. e) u
  192. Format : UTF-8$ K% ^! O0 L" K6 j, K2 u: p
  193. Codec ID : S_TEXT/UTF8: J' Q5 b7 G7 I
  194. Codec ID/Info : UTF-8 Plain Text" ^  S) K; s& Z& v% O
  195. Duration : 54 min 27 s( r6 X+ @6 i; @
  196. Bit rate : 43 b/s  @  `4 p1 Z3 Q+ p" D) [& R2 A& s
  197. Count of elements : 533
    ' X# Z% A  F9 ]4 f
  198. Stream size : 17.3 KiB (0%)0 b$ j4 U6 |7 u; i1 ]' r1 }1 e
  199. Title : German
    0 M) Z3 j. ?' J
  200. Language : German2 `6 _: d! f( }5 s
  201. Default : No
    # n4 j2 B9 r3 P1 O: m
  202. Forced : No
    3 C  i. A( R- @% S' H+ J
  203.   ~1 r* d2 s( c# Q$ o) ~
  204. Text #12
    5 s9 G6 H' H! s/ |- {
  205. ID : 14
    # `5 o$ @1 j( r6 m& O* |4 S
  206. Format : UTF-8
    ! K$ [4 O+ y4 q1 O
  207. Codec ID : S_TEXT/UTF8
    ; s. V  O! E$ C" ~
  208. Codec ID/Info : UTF-8 Plain Text5 \8 ?( k& B7 A5 {1 A2 U
  209. Duration : 54 min 30 s7 L! r! r5 \2 `6 r* P. Z
  210. Bit rate : 60 b/s: `6 O5 h& Z6 x
  211. Count of elements : 614
    2 Z" p. e- _% F& j! ]2 H
  212. Stream size : 24.2 KiB (0%)* [6 F, T1 E9 C% ~5 l1 {( z$ U
  213. Title : Greek* U0 ]2 y' V9 q) I$ A: @( o0 y/ K
  214. Language : Greek0 X3 }0 ~  |+ o) d: P  F
  215. Default : No( Q' y4 s% e. w
  216. Forced : No
    ' T1 o) H; h( ?) p2 j# ^" U

  217. + b9 Z) u, z# m0 S- j
  218. Text #137 s3 V# l: K1 H( v. V( G
  219. ID : 15
    6 I' P# o- [  R! ]# d
  220. Format : UTF-8
    5 `0 F, f8 j. W8 e3 [* e% J- b
  221. Codec ID : S_TEXT/UTF8
    $ t) P' l* t$ y$ a! {* t# ^+ V) |) G
  222. Codec ID/Info : UTF-8 Plain Text- y" N5 {! Q8 N: @+ f: [
  223. Duration : 54 min 30 s" C! m% O% U8 e6 K$ ]
  224. Bit rate : 72 b/s
    3 \% j6 V( e# [; ^
  225. Count of elements : 615% `' a! r5 A2 z2 T8 @2 ~
  226. Stream size : 29.1 KiB (0%)3 N0 z$ _) c* A  m
  227. Title : Hebrew5 n% Z- D% i7 P2 N" X( z6 s
  228. Language : Hebrew
    : e- B' _" O; V
  229. Default : No4 @7 F9 d) C9 D& P. f
  230. Forced : No
    4 f2 |7 s, V+ ~5 ?$ p$ z5 ^& d! q/ P

  231.   a2 \) i9 x; p9 z
  232. Text #14& J* L2 y& c: P$ D
  233. ID : 16
    * i8 J8 d1 m: ^2 u
  234. Format : UTF-8
    9 M& [( e4 V8 C% y% @8 v
  235. Codec ID : S_TEXT/UTF8
    7 X. `, X0 y1 |! J
  236. Codec ID/Info : UTF-8 Plain Text
    4 r. w! k, g: V. U
  237. Duration : 54 min 30 s
    # u# c9 E5 ]) J9 r. j6 b; t
  238. Bit rate : 42 b/s. Q5 [  w, K! ?- O6 |( z  U& |
  239. Count of elements : 615
    ( D6 R$ X+ L+ e8 H6 w% V
  240. Stream size : 17.1 KiB (0%), `4 v6 ]$ |! I2 D
  241. Title : Hungarian
    # z. ~7 v5 a" q! l
  242. Language : Hungarian
    % K9 ]: q& d! ?
  243. Default : No
    . E7 _* D1 t9 L; K+ s7 f  j
  244. Forced : No
    # m+ m/ h4 r% h( P6 M# J1 X" `

  245. 3 }* [' d) D% d* g' p
  246. Text #15
    ; k# L6 S7 a! G9 R6 w. Y" C; @
  247. ID : 173 _6 _* `: V# [0 V2 t2 s; `
  248. Format : UTF-8
    " `/ a9 |+ R  O, O* {. u% |
  249. Codec ID : S_TEXT/UTF8: f, W! B: F; c% c( b' `
  250. Codec ID/Info : UTF-8 Plain Text
    - s8 j, c; z$ n. O- _# P+ l
  251. Duration : 54 min 30 s
    # e9 F1 s2 |. y  e5 D0 R2 i2 L; S+ \
  252. Bit rate : 39 b/s
    + M6 n6 S% |! @
  253. Count of elements : 611
    / T* w# |* J/ M. u
  254. Stream size : 15.7 KiB (0%)
    ) K: K- q$ M4 F
  255. Title : Indonesian
    7 F1 H9 j& i9 N; Y& s
  256. Language : Indonesian
    . d/ W$ ~1 }6 j! P  M; V
  257. Default : No6 s( `) I8 y0 G* l8 ^' U9 \: _( f+ V
  258. Forced : No1 I1 Q2 i* K2 A) ~4 c7 d& l

  259. ; {# }' ?# X, n5 ^7 P
  260. Text #161 g4 o. I) g; r3 s
  261. ID : 18
    % t! w2 m& n8 @$ x
  262. Format : UTF-85 h" o) W1 K* m% n! f1 V
  263. Codec ID : S_TEXT/UTF8
    9 g* n5 |* M; }# D5 M7 r: A+ ~
  264. Codec ID/Info : UTF-8 Plain Text) b$ E* d7 P" |! ~: J/ T" i
  265. Duration : 54 min 30 s5 _9 T0 c( c' }8 }
  266. Bit rate : 38 b/s
    $ M' B4 g3 p! i$ t* l
  267. Count of elements : 606# q" l7 q2 n, t: j7 j
  268. Stream size : 15.6 KiB (0%)' X) b9 F" r' |8 s, e
  269. Title : Italian
    ( L8 {  B/ L9 W( V8 q
  270. Language : Italian- g% {  Q' Y# d5 E2 }
  271. Default : No
    5 h9 T; U* n1 ]$ L9 P; j* I
  272. Forced : No
    . `# r; c1 Z9 ?7 P3 n' U5 o: m
  273. 2 D, a+ M  T" U
  274. Text #17
    ; m+ I3 X8 G4 V5 K' v# j# s( q
  275. ID : 19
    * `1 B  b* s& N2 e( G
  276. Format : UTF-8: R+ n, U* Z0 P) d
  277. Codec ID : S_TEXT/UTF8
    ; @( h. i$ l) P! m
  278. Codec ID/Info : UTF-8 Plain Text0 v& W! S  k7 [% e2 i  j
  279. Duration : 54 min 29 s
    ) U3 a" S& v4 g  P  D6 m, y  [5 o
  280. Bit rate : 34 b/s% V2 Z0 j0 r3 L
  281. Count of elements : 5352 `6 j6 Q9 J2 h" f) H  Q* W/ G
  282. Stream size : 13.9 KiB (0%)- M2 g6 z. {) x2 o
  283. Title : Japanese6 {- v9 a5 |5 W  e3 s/ X
  284. Language : Japanese% ?' k4 w7 n1 h9 i1 H
  285. Default : No
    7 t- S0 j5 ?) p  t! ^" \0 n" J
  286. Forced : No, g1 ^/ P: c  f  b: w; b' B% _
  287. 4 }& q9 E/ Q- a, M" C2 z
  288. Text #18
    ; f0 k- S/ P% X/ P9 N+ i0 K3 w
  289. ID : 20
    ) X) ^+ ^' y8 ]6 m5 A
  290. Format : UTF-8
    ! L/ z, K: K6 s% u
  291. Codec ID : S_TEXT/UTF8
    ' k: {6 w" e* \
  292. Codec ID/Info : UTF-8 Plain Text" J, m$ X3 {" h
  293. Duration : 54 min 30 s6 v5 O) D. I" k. {( j
  294. Bit rate : 40 b/s# l. |* ~# q( x7 {( w' |7 e# \
  295. Count of elements : 5889 a& m6 I& ^& D3 q7 |5 |: i
  296. Stream size : 16.2 KiB (0%)
    . O% q: }9 W2 k% R5 N% e
  297. Title : Norwegian (Bokmal)- j: `6 N  `) `9 E; u! Q& X7 G+ V1 d
  298. Language : Norwegian Bokmal
    : }5 a/ K9 N# v, M* d& p( R. T
  299. Default : No
    . G. f: A5 k: T1 v+ I' S
  300. Forced : No
    ; F2 u& p/ g# \
  301. : w3 L4 ]+ H- j& D2 [5 o
  302. Text #19
    + S- z( u1 _+ J7 W+ ?- R
  303. ID : 21& ^8 S$ v) N4 I# U
  304. Format : UTF-8
    . M; p# [) {4 ~$ j
  305. Codec ID : S_TEXT/UTF83 I' t) G# `( @
  306. Codec ID/Info : UTF-8 Plain Text* B/ \, |5 q0 g9 C; b9 ~) J- [
  307. Duration : 54 min 30 s* G, x4 R  H3 m7 @7 p1 {
  308. Bit rate : 40 b/s
    # O6 {. v; K8 M, d
  309. Count of elements : 6139 B& Z. t8 B% ], x2 T9 z) e9 j
  310. Stream size : 16.1 KiB (0%)
    4 J7 x4 R, b$ N2 o
  311. Title : Polish$ P$ L( I& y' A
  312. Language : Polish
    ! Z; q2 Z* ^2 o$ o* u
  313. Default : No
    2 t1 M; n3 p+ k  h  U" u! s* J+ e  q
  314. Forced : No0 u) t/ y( G. t  T3 O0 [$ ~4 F! y2 D

  315. - S! l* |9 }* x
  316. Text #208 A8 v8 C( G4 S" g: f
  317. ID : 22. C1 h+ w! z" Z- h
  318. Format : UTF-8
    : j" ^7 L% U$ p! Q& D
  319. Codec ID : S_TEXT/UTF86 U3 \6 {, S0 B$ E' }, z6 x, N
  320. Codec ID/Info : UTF-8 Plain Text4 R3 }4 t8 m, [; ?4 }
  321. Duration : 54 min 30 s
    5 Y! O, d! ]1 Y8 w0 b
  322. Bit rate : 43 b/s
    ! Q8 ~( K( t0 g" z; F& S8 L5 P
  323. Count of elements : 613
    # |: V9 |& h8 u' l
  324. Stream size : 17.2 KiB (0%)
    5 c# i9 e' j! r: k1 z
  325. Title : Portuguese2 o6 n: R5 d: D8 N
  326. Language : Portuguese
    ) S8 {" Y) \9 y& b
  327. Default : No
    $ u* a8 c) w/ \/ U
  328. Forced : No
      X& s) [) |% O! n# V3 R& f

  329. 0 V9 t2 J! o8 o$ T: R5 }' \( q
  330. Text #21
    6 }4 D* C( s3 r/ X
  331. ID : 23/ N6 t1 u: Z" r0 P
  332. Format : UTF-8
    8 Y- C- d' ^: K
  333. Codec ID : S_TEXT/UTF8
    6 k+ {, l2 v5 `/ h; X
  334. Codec ID/Info : UTF-8 Plain Text
    7 n& n  [0 E6 S- X: K; f# E; k
  335. Duration : 54 min 30 s# n. C4 |. J# m# b' O% F/ \
  336. Bit rate : 41 b/s  }1 e1 s6 u( X0 k/ X% h0 ?3 [
  337. Count of elements : 608
    2 R4 M, T% R- R/ X5 a0 v5 }9 l6 z* J
  338. Stream size : 16.7 KiB (0%)
    ! [2 b8 F  \3 q
  339. Title : Portuguese (Brazilian)
    * O% ?4 q- V# v1 F7 d
  340. Language : Portuguese; Y% {( V# A/ s0 c& b& ]0 ?% ^1 y
  341. Default : No2 ^' K! e2 Z" Q' o& X2 x( X/ p1 F) h5 M
  342. Forced : No
    " X& i& E& ?' Y( [
  343. - g6 W; j1 Q& B1 c; D
  344. Text #22
    & S$ P7 o% `/ ~* P- B
  345. ID : 248 n" j4 s% T* e2 J# r6 u
  346. Format : UTF-89 K" |! a: w4 h- B% a. S
  347. Codec ID : S_TEXT/UTF83 I2 i7 c8 ]0 w5 A, E1 c
  348. Codec ID/Info : UTF-8 Plain Text
    : d5 y: T+ A' N; {
  349. Duration : 54 min 29 s
    " W+ ^; D# U& u  u3 N" ?% }
  350. Bit rate : 47 b/s( Q, E" f% B7 v' n! M, T
  351. Count of elements : 614; ^& O; u6 G% o/ h
  352. Stream size : 18.9 KiB (0%)) T7 X  p' }6 R1 w9 Z0 i0 X& R
  353. Title : Romanian: ^1 H9 {: t. R3 r
  354. Language : Romanian" o8 |8 S$ n+ j' \" U2 g" R
  355. Default : No0 x; ?# I; ]4 b; ]. r' \
  356. Forced : No
    ' w4 z9 j% Z, a0 h
  357. 7 Z) `0 V  y1 \) k
  358. Text #238 s/ c8 X' q! M" r- I
  359. ID : 25* k. G2 A( k. W9 Z" M+ v
  360. Format : UTF-8, n  c1 v$ s- @+ R) E" T. m/ |
  361. Codec ID : S_TEXT/UTF8( e- s- [  {% N/ k
  362. Codec ID/Info : UTF-8 Plain Text
    & n( p4 T% e. j. V! `
  363. Duration : 54 min 30 s9 g5 G% ~  @- ^  Z; B4 ^6 u1 R% E; m
  364. Bit rate : 64 b/s+ |2 C, b  P0 e5 o* Y
  365. Count of elements : 615; r& ?3 S9 A* u2 H& }( N
  366. Stream size : 25.8 KiB (0%)
      V( Y: g8 Q, V1 u
  367. Title : Russian
      i# G6 ]9 U5 X3 K8 W; g7 P
  368. Language : Russian: z) v" Q! J6 Y$ g- k: ^
  369. Default : No2 R5 ]8 D5 t; \: ]; J
  370. Forced : No
    , n0 g( ~( A, Y& s0 H% _+ V/ K, H

  371. / m: \% e# R1 O4 {0 E0 e
  372. Text #24$ S1 Q, H( e# g, e5 O% X9 r7 I
  373. ID : 26
    ; p! W. O" o, f  V9 L
  374. Format : UTF-8% Y. k0 N) u+ q3 ~: u
  375. Codec ID : S_TEXT/UTF8
    ' k7 Q' t7 X4 e0 e. S
  376. Codec ID/Info : UTF-8 Plain Text3 v/ i4 h  u# Q  L. A) b/ q4 ^
  377. Duration : 54 min 30 s" G7 i; P* V6 P& A  q2 T
  378. Bit rate : 42 b/s
    0 Y* u: w4 F) e: w# E5 p8 V
  379. Count of elements : 614# r5 Y/ @* {* S: u( Q
  380. Stream size : 16.9 KiB (0%)' U( ^. @$ [+ P% f4 b( K' r: [2 Z. U
  381. Title : Spanish7 _' _) U* c, r4 L& C
  382. Language : Spanish$ x/ Q; s1 j4 _' v  z
  383. Default : No, \" ]7 i7 e# g  r* f7 k/ o8 Z
  384. Forced : No
    / z' z4 Q/ F) U! g( `

  385. 1 P+ `& Z  h2 H6 y6 Q) O
  386. Text #259 G7 F2 Z# A7 E- i+ G: j
  387. ID : 27
    3 p8 c% c' l: |4 _
  388. Format : UTF-8
    3 E# \! Q: s, W  I
  389. Codec ID : S_TEXT/UTF8. s3 y1 b& \& A
  390. Codec ID/Info : UTF-8 Plain Text) _' r% ]" t5 m; a4 Z8 z
  391. Duration : 54 min 30 s
    4 _2 K; ^0 o, i( f9 q
  392. Bit rate : 39 b/s8 i. z( g- K; z" Z  j- P1 ]
  393. Count of elements : 607; j+ o( m: f" _6 |
  394. Stream size : 15.7 KiB (0%)
    ( n0 h7 b) F' p+ S$ s7 S/ `
  395. Title : Spanish (European)
    6 h8 M' u2 R1 {2 t. T& F. A4 c8 ?
  396. Language : Spanish
    $ I3 y! N. d- v# j1 X4 `
  397. Default : No2 Q& `: X1 ~7 g- y- ]4 [3 `/ M( e
  398. Forced : No5 i& W' z- C  u9 _0 Z$ f
  399. / O* A6 T) L  x4 w/ _7 H3 `# M
  400. Text #266 |/ D8 Y( o3 w: \- @) p, a* ^# F
  401. ID : 28. {0 S8 U+ o7 ]* X, M( x
  402. Format : UTF-88 v3 u  j4 n! M1 K
  403. Codec ID : S_TEXT/UTF8
    - j* L* M. u& r& }. z6 _6 X
  404. Codec ID/Info : UTF-8 Plain Text
    ' U- y6 ]' X2 c" V4 v: O
  405. Duration : 54 min 30 s
    ! S+ N' b! |5 N; g  Z
  406. Bit rate : 42 b/s1 o$ P1 D: I- {% e' _
  407. Count of elements : 4895 J# l$ Z' e5 L- G/ u
  408. Stream size : 17.0 KiB (0%)
    ! E$ }" m' f. p7 a) k
  409. Title : Swedish3 G3 Q( d7 Z) T" q: W( Q1 V
  410. Language : Swedish
    . Y% l: [5 D0 ]% V2 z  A
  411. Default : No8 N' E0 r) k3 w. D
  412. Forced : No
    1 H+ Q3 i& t3 L. I
  413. 9 M) F) h9 t% }& }
  414. Text #27, T0 u1 N1 Z4 }3 |/ O4 r
  415. ID : 29* F. {! r; S% ?" R) B+ U1 I
  416. Format : UTF-8
    ; u" J2 Q# H( c( z& }3 j" A6 V
  417. Codec ID : S_TEXT/UTF8
    1 C9 H4 Q5 \5 |$ u$ Y: \2 S
  418. Codec ID/Info : UTF-8 Plain Text+ d' N2 F) B! @5 C0 w1 ^6 T/ Y
  419. Duration : 54 min 30 s
    % i0 J( |2 B3 k% X( ?9 o
  420. Bit rate : 104 b/s1 E) L# @" ]$ X9 J" ]6 M
  421. Count of elements : 615
    , T4 H1 T9 y( ]* r: a3 l
  422. Stream size : 41.6 KiB (0%)1 M, {0 x  m. X: y1 z
  423. Title : Thai! d$ Y. H/ x9 ~. q4 ?: q- ?
  424. Language : Thai6 d" G6 d7 |% h9 k; n# ^
  425. Default : No
    9 ~0 d- r5 L  Z& L1 k- k+ n
  426. Forced : No
    2 J% g( {7 }7 H" S/ g5 K

  427. : a& w2 h, m$ A# p" j
  428. Text #28
    " ]5 ^3 K$ U! j5 j
  429. ID : 30
    2 [7 c& {4 Z. @3 W  c
  430. Format : UTF-8
    % y; s* c! g( l; _3 Q, u, C
  431. Codec ID : S_TEXT/UTF8
    ! G8 ?, A5 B" j" u* q1 o5 o
  432. Codec ID/Info : UTF-8 Plain Text% k9 o' H9 T7 @; W' b! f
  433. Duration : 54 min 30 s6 k& P/ D( d  z/ T  a5 l2 B% _
  434. Bit rate : 41 b/s7 I# M9 m" D  R0 \: |2 w3 A: j; E
  435. Count of elements : 615
    : \, \; C7 I1 u$ f& |0 x
  436. Stream size : 16.8 KiB (0%)
    5 _; \- }3 W% f' h& u
  437. Title : Turkish; j8 }- L' L, @$ k
  438. Language : Turkish
    3 z7 p2 L% E! b5 `+ _0 g; K, ?
  439. Default : No
    7 }* l5 r7 s+ W  U) Q
  440. Forced : No
    ) I# K4 c7 U; s, o3 `& C1 B4 `
  441. " G* ^' E4 Q* X' `, x- J, f7 j
  442. Text #29
    2 w; e" q( Y1 `% @2 _* S2 Q) M% _
  443. ID : 313 x/ o, |+ I1 B* V9 N" b9 x
  444. Format : UTF-8* |* a" H/ @9 l9 ~6 b7 W
  445. Codec ID : S_TEXT/UTF8
    " ]6 x- t" r% b; t# f0 p/ F" Z, {5 P1 Y
  446. Codec ID/Info : UTF-8 Plain Text" F. D; p3 ?( k6 y/ D; y% O
  447. Duration : 54 min 31 s
    $ |& f  [  @' P5 j6 u4 U$ X# C. t
  448. Bit rate : 63 b/s
    8 R( T! A% U, P& y4 ~
  449. Count of elements : 6129 ?! N* D/ J1 c8 y& t% N
  450. Stream size : 25.2 KiB (0%)
    8 w! z5 S# [  c3 V
  451. Title : Vietnamese5 z' f: ]1 i0 s1 G, E; h3 [9 t' K
  452. Language : Vietnamese6 h2 _. r6 @2 E! M( @$ h8 u+ a
  453. Default : No
    ; G! i' i' g0 @
  454. Forced : No
复制代码
# P8 S& f% T) T  V2 {

% [4 k. \/ v4 l6 ?/ p  ?+ B9 Q5 \

- x9 N9 |& R% |9 A2 s1 v( A' q" a4 m+ N7 w$ Q% d

" j" `  X2 J0 L: n
, i* X# s0 Y- U3 U' {7 @% m/ C
游客,如果您要查看本帖隐藏内容请回复  VIP可免回复查看隐藏内容 详情请点击
发表于 2019-9-1 04:16:29 | 显示全部楼层
谢谢楼主发帖
发表于 2019-9-1 09:18:03 | 显示全部楼层
good sharing
发表于 2019-9-1 10:42:29 | 显示全部楼层
嘻嘻 我很喜欢
发表于 2019-11-7 14:30:29 | 显示全部楼层
来支持一下嗷
您需要登录后才可以回帖 登录 | 立即注册

本版积分规则

QQ|封号公示|手机版|有问题发邮件到admin#(换成@)hd1tj.org|微博|免责申明|HD一条街

GMT+8, 2020-2-29 09:29

快速回复 返回顶部 返回列表