HD一条街

 找回密码
 立即注册
搜索
查看: 72|回复: 13

[欧美] 风驰电掣: 极速障碍赛[自带中文字幕]Hyperdrive.S01.1080p.NF.WEBRip.DDP5.1.x264-ASCENDANC 26.44G

[复制链接]
发表于 2019-8-22 22:45:41 | 显示全部楼层 |阅读模式

马上注册,结交更多好友,享用更多功能,让你轻松玩转社区。

您需要 登录 才可以下载或查看,没有帐号?立即注册

x

* I# p" V! K# z2 B5 H4 ]                               
登录/注册后可看大图

, L4 S; z1 c3 p; [4 n9 v. n: r6 K. v; j' |; s' q6 e" F$ I  f
◎译  名 风驰电掣: 极速障碍赛/劲爆车王障碍赛(港)/超狂车王:终极障碍赛(台)
% B3 J0 [1 n8 t7 @- o& b◎片  名 Hyperdrive
8 m3 `" C7 t* L2 r  ]◎年  代 2019( ?: h) H' j$ {2 U1 k
◎产  地 美国6 U" R: h2 j) U7 ?; Q6 [* R& O
◎类  别 真人秀
% D' v' i8 L# F( U( w' c◎语  言 英语
1 p8 n7 w& w0 ?+ i◎上映日期 2019-08-21(美国)
3 Q; S" k+ u, t$ s  a4 ]: r1 h' w◎豆瓣评分 0/10 from 0 users
" w2 E4 e6 q, W& D& X◎豆瓣链接 https://movie.douban.com/subject/33394698/
; Y- t9 j9 M/ g& W- f/ L' D' {◎集  数 10
8 |# \4 v7 ?; c; Q◎主  演 迈克尔·比斯平 Michael Bisping' f) h% f8 A2 t' }$ `

+ {+ A5 i& |. h  o' b5 ]◎标  签 4 ?; P8 ^. T% d2 Q

# W4 M, c, `5 w' P% ?◎简  介
+ b2 a$ z9 |7 n6 `' P- Q3 {$ j1 z, p9 T; z0 R
  来自世界各地的街头赛车高手驾驶着增压改装车,在有史以来最大、最险的汽车障碍赛道上挑战自我极限。
  1. Video
    3 @7 P6 D, [' i; L
  2. ID : 1
    ( b) l0 I& }0 J
  3. Format : AVC! R6 v# a* }+ w  F( I( y$ Z
  4. Format/Info : Advanced Video Codec
    / z) f6 ]% v1 D1 l2 j* M. X
  5. Format profile : [email protected]0 I& F/ S6 d6 L8 z6 Z' O3 ]  D
  6. Format settings : CABAC / 3 Ref Frames1 t) O: A$ f6 p
  7. Format settings, CABAC : Yes+ S+ q' Y- ?% f+ y8 f: u* ?/ W
  8. Format settings, Reference frames : 3 frames" `6 _7 ]  Z+ ]. f6 {& F4 b
  9. Codec ID : V_MPEG4/ISO/AVC  j! g( F% {$ _; D3 h% c
  10. Duration : 48 min 9 s
    ! \; M: U) T6 p/ A, a( M, @7 L/ H
  11. Bit rate mode : Variable
    $ _6 d" }( Q. i8 F" H/ K! \
  12. Bit rate : 7 500 kb/s& [/ W* C- \# R" m/ Y
  13. Maximum bit rate : 11.2 Mb/s
    4 n1 L4 Q; k* ~. p$ j
  14. Width : 1 920 pixels  r/ ^% z$ e2 T. l8 }5 h3 ^
  15. Height : 1 080 pixels
    ; L4 I: F1 o7 \
  16. Display aspect ratio : 16:9. Z% [+ [9 [( D% Q, c
  17. Frame rate mode : Constant& U$ B! N- b) e: G
  18. Frame rate : 29.970 (30000/1001) FPS
    0 s; j7 r1 ^; H8 M* U: F
  19. Color space : YUV! Y' c7 d' p2 @2 i+ U3 r% c
  20. Chroma subsampling : 4:2:00 n9 [+ L' u# L& w& Q& u
  21. Bit depth : 8 bits
    7 u' B3 x: a1 K) i* x2 y! `9 }9 i  i% w
  22. Scan type : Progressive& M& u% J# [6 j& }2 T6 \/ k$ c7 n9 x
  23. Bits/(Pixel*Frame) : 0.121
    - e- d6 U" |+ D. r- O8 v
  24. Stream size : 2.47 GiB (92%)
    # F' C, F( h4 {0 d: q0 n2 j
  25. Writing library : x264 core 148 r2715 7e75228/ [4 a% x& o- T
  26. Encoding settings : cabac=1 / ref=3 / deblock=1:0:0 / analyse=0x1:0x111 / me=umh / subme=10 / psy=1 / psy_rd=1.00:0.00 / mixed_ref=1 / me_range=24 / chroma_me=1 / trellis=2 / 8x8dct=0 / cqm=0 / deadzone=21,11 / fast_pskip=1 / chroma_qp_offset=-2 / threads=6 / lookahead_threads=1 / sliced_threads=0 / nr=0 / decimate=1 / interlaced=0 / bluray_compat=0 / stitchable=1 / constrained_intra=0 / bframes=2 / b_pyramid=0 / b_adapt=2 / b_bias=0 / direct=3 / weightb=1 / open_gop=0 / weightp=2 / keyint=250 / keyint_min=25 / scenecut=0 / intra_refresh=0 / rc_lookahead=60 / rc=2pass / mbtree=1 / bitrate=7500 / ratetol=1.0 / qcomp=0.50 / qpmin=6 / qpmax=51 / qpstep=4 / cplxblur=20.0 / qblur=0.5 / vbv_maxrate=11250 / vbv_bufsize=15000 / nal_hrd=vbr / filler=0 / ip_ratio=1.40 / aq=1:1.00
    7 X5 ?/ q) l$ D
  27. Default : Yes; n' p5 d. C, E0 \0 Y* ^
  28. Forced : No
    2 a. W0 B8 `, i& y

  29. , F6 T7 A* Z/ I7 e& o
  30. Audio2 A5 ]  L+ Q1 A/ A. U* l" {
  31. ID : 2
    5 z. H8 L! b( I$ ^; V
  32. Format : E-AC-3" [) g% J0 n) w( m! r! R3 v
  33. Format/Info : Enhanced AC-3
    . P8 O9 V0 J1 S( g# t. [
  34. Commercial name : Dolby Digital Plus
    4 J' G, \! p% i4 C' p; u3 s
  35. Codec ID : A_EAC39 n  C) l9 ?" E0 C: k
  36. Duration : 48 min 9 s+ h4 I% J' F. f, i$ k/ K$ L8 b
  37. Bit rate mode : Constant
    % }& V5 ]' ~2 i& f, q9 K& y
  38. Bit rate : 640 kb/s8 g2 Y$ c5 z, h2 W  p: L
  39. Channel(s) : 6 channels
    $ x5 k! d1 U+ }
  40. Channel layout : L R C LFE Ls Rs3 S: ^) w& ~: v, }
  41. Sampling rate : 48.0 kHz- i" L) I" }+ J3 M
  42. Frame rate : 31.250 FPS (1536 SPF)
    : T* b# S  ?4 w+ H5 t# j+ ~
  43. Compression mode : Lossy+ F) K& V- ?; ]0 p$ C$ c
  44. Stream size : 220 MiB (8%)/ @) P4 f! {3 S6 G
  45. Title : English& v* |, h5 y8 s, ^( Y. `
  46. Language : English
    4 N' E% q: t1 M# {; }' l; L
  47. Service kind : Complete Main
    1 A; N1 t# n1 q3 q6 A
  48. Default : Yes
    5 S- g1 r. q- e' Z
  49. Forced : No& V  L$ E3 f5 ]3 s' u$ l% e' U

  50. & G8 {8 d; q/ d: D8 X; Q  d" H1 s
  51. Text #1* l8 o* M/ |% o) c
  52. ID : 3
    & Z2 H& V+ U7 }4 u( {' j6 {
  53. Format : UTF-84 Z3 ?/ d, Z+ \9 E" C% W
  54. Codec ID : S_TEXT/UTF8
    $ s: }! a( r) e- }6 W
  55. Codec ID/Info : UTF-8 Plain Text
    5 e5 q* ~: o- R" E) ]; Q
  56. Duration : 46 min 10 s* _4 `  S$ |3 m$ V( J( v' R
  57. Bit rate : 111 b/s
    + Q( w! P% @8 Q- ^3 d
  58. Count of elements : 894
    6 m' O4 ^) \9 Y  [
  59. Stream size : 37.6 KiB (0%)+ w7 g; S) |& b, ?
  60. Title : English [SDH]) v& [7 D' R& _+ a8 i
  61. Language : English
    . N6 q2 {1 ^, Z2 f& D
  62. Default : No
    $ y9 H# R2 M) l) r) S; |2 G
  63. Forced : No. d& A2 I# X8 r0 e

  64. ( D. r5 _1 h6 i  X0 k
  65. Text #2
    . q& P! i; W$ R7 H0 |
  66. ID : 4
    9 p* C4 _6 t& }( S. }
  67. Format : UTF-8& c3 M' `' Q% w6 v& ?- O
  68. Codec ID : S_TEXT/UTF8& B6 y- ]5 R9 {1 f7 _# u
  69. Codec ID/Info : UTF-8 Plain Text
    7 ?! V! n6 }/ N% Z6 E( _: I
  70. Duration : 45 min 58 s3 _% _# Y2 q, J& V6 y2 L+ ~
  71. Bit rate : 102 b/s
    , s+ r, E( A9 f. i
  72. Count of elements : 9169 n+ k% |' E1 k+ y
  73. Stream size : 34.5 KiB (0%)3 I, r+ r: f5 J! u# c
  74. Title : Spanish [Full]6 M% y$ p( M2 ~; C" h
  75. Language : Spanish( t" B3 o! @1 J2 \% [; i
  76. Default : No
    + m7 V6 P6 j# p
  77. Forced : No& {0 Y" v+ {2 y# Q# o# H, b' C
  78. ; B. N6 F9 T( g/ P
  79. Text #3
    9 `# V% b$ j! K7 l2 ^
  80. ID : 50 @! @, G5 J; \: u# `
  81. Format : UTF-8
    6 B9 A6 i5 e; ^8 ]
  82. Codec ID : S_TEXT/UTF8
    4 D1 T+ [1 k1 r& M+ u
  83. Codec ID/Info : UTF-8 Plain Text
    3 d! C- p% A  t- ?4 M0 J# l
  84. Duration : 46 min 50 s1 X7 U! o4 [8 {( v
  85. Bit rate : 102 b/s4 _8 E( b3 m( Y0 J. f5 j
  86. Count of elements : 8742 S6 ?" w$ i2 v7 d1 A
  87. Stream size : 35.3 KiB (0%)( Q) {5 J6 ?5 E0 E2 T- i
  88. Title : French [Full]  A, f& n2 r8 O) u( v
  89. Language : French
    : I4 _1 X) X3 W% O
  90. Default : No
    " M, Z& ^+ M9 O( G  y  ~, ]
  91. Forced : No% Z+ e/ w1 w4 @! Q  S7 R! X  |

  92. % [+ Z! W& |: [+ I3 i7 P' A
  93. Text #4
    # i0 l$ q6 z6 y6 v) @, \( c: @
  94. ID : 64 }+ u. S, f! L, t6 a0 W+ e8 g
  95. Format : UTF-8) G0 W+ Y/ S3 p2 t4 n
  96. Codec ID : S_TEXT/UTF83 A0 W% `  l, C! K. R9 {, ?) c; ^
  97. Codec ID/Info : UTF-8 Plain Text4 M/ e+ z  N, S8 J: z
  98. Duration : 45 min 58 s. q) C+ \8 r6 Q3 G
  99. Bit rate : 94 b/s
    ) e  U* y- Z$ |! a# e2 D: E
  100. Count of elements : 881
    / ?/ I: D1 S0 n9 [' w9 }9 U& P
  101. Stream size : 31.7 KiB (0%)
    1 \! d, O! D' g! I
  102. Title : German [Full]
    ; [7 x8 E; c4 r6 S' H4 |# L
  103. Language : German
    2 [& {/ }/ W$ R& v& n5 @$ W! D7 k
  104. Default : No9 m0 Z+ [5 n  L- w+ `
  105. Forced : No
    ) e7 q4 C: T+ g# a6 k

  106. - j9 O- T: f3 i- G$ H) D4 g; L
  107. Text #5
    " z# A, n8 w* M& C- H3 P. Q
  108. ID : 7) N& g$ o! C  D4 `: m; o
  109. Format : UTF-8+ h% b: b2 d  k
  110. Codec ID : S_TEXT/UTF8
    & F$ L7 @* x2 a$ R7 \
  111. Codec ID/Info : UTF-8 Plain Text( ]+ t& @. z9 X* {
  112. Duration : 46 min 50 s
    * y' O) Q$ I3 q7 P% _
  113. Bit rate : 101 b/s: O3 W# C5 J. X2 K7 d- ]* r
  114. Count of elements : 874
    ; z- q% A! D  A$ ], A) l8 {
  115. Stream size : 34.7 KiB (0%)
    ; }2 r6 L9 {( J$ q$ f; b
  116. Title : Italian [Full]4 E' n3 j, r" E6 I
  117. Language : Italian
    3 e# a' f/ f( b% P
  118. Default : No
    : i2 D, w# T: o& _2 L* _
  119. Forced : No3 F; C" h  B! {- ]2 i" H. d
  120. . g; b) z+ s  F* ~+ I/ [+ K8 b
  121. Text #6
    5 R4 Q/ i% Q4 ^9 T/ ]4 D7 R) u
  122. ID : 8
    2 I; Q3 ~! t7 j5 |  {* l2 v& `2 A
  123. Format : UTF-8
    4 |' |0 A; L' [& M: Y$ ~6 }$ S
  124. Codec ID : S_TEXT/UTF8
    ) C0 s! p* F6 V2 M' x
  125. Codec ID/Info : UTF-8 Plain Text) I/ e) U# H5 a! Q* _6 z
  126. Duration : 45 min 58 s( y* F1 }. Y1 C% K$ L9 h
  127. Bit rate : 95 b/s
    : D4 e: _. Z' _* a# f
  128. Count of elements : 879* b3 f: w* ?. I' N' Y$ m% [6 p
  129. Stream size : 32.1 KiB (0%)
    . \$ d/ s2 o# C4 \  A/ z% e
  130. Title : Portuguese [Full]
    , d# e4 a8 k7 k! W' r6 A8 n# I5 i
  131. Language : Portuguese
    * c* b7 o7 v: U2 U8 V5 y- g; ^
  132. Default : No
      Y1 u1 p$ W' z6 E, o# r5 x
  133. Forced : No/ R% M+ T2 P5 V' Y% C4 Q
  134. $ d# N2 L% _+ g7 G. N8 k5 z+ }
  135. Text #76 Y; F! m, K8 ?% B: V6 K
  136. ID : 9
    % b' R6 }: ~- y, k* ~8 a6 M
  137. Format : UTF-8
    0 w& w+ X$ e/ c$ f3 o# ^
  138. Codec ID : S_TEXT/UTF8  a7 X+ C: {- e# U( i
  139. Codec ID/Info : UTF-8 Plain Text: u0 c& N! Q) c6 z5 L! n
  140. Duration : 45 min 59 s2 c* q" [/ ~+ @. a" U
  141. Bit rate : 87 b/s
    ) X3 }8 u3 d  N8 P
  142. Count of elements : 900
    . E. }1 s6 K/ q
  143. Stream size : 29.3 KiB (0%)# w* C; |) }# V- q2 B& m
  144. Title : Brazilian Portuguese [Full]0 O0 q4 L* @# M4 U- n8 ]
  145. Language : Portuguese( E% _4 v! N& h0 |# j
  146. Default : No
    2 t. f8 _; ^& \; J: C. `
  147. Forced : No+ F. v' W9 r! f; z  t0 f7 @( a
  148. 2 D% K- d8 F5 H. L* }1 _
  149. Text #88 P) S: U% C4 u% h# Q8 N- _. ~
  150. ID : 10
    - [% F) _+ j$ M5 L& w, Z0 a
  151. Format : UTF-8
    ' H3 _1 N) b; z( L; t. u
  152. Codec ID : S_TEXT/UTF8
    1 V# A4 |' B) d0 L4 Y9 R9 Q. k
  153. Codec ID/Info : UTF-8 Plain Text& X* d( u! m8 j% L( f
  154. Duration : 45 min 58 s' F1 b. r# Q! b2 l9 r
  155. Bit rate : 102 b/s
    # e$ T5 w$ x% \" m
  156. Count of elements : 912$ a' S5 ?# T; Z6 Z; z1 m
  157. Stream size : 34.5 KiB (0%)5 d2 k% q, |5 I# _2 i
  158. Title : Polish [Full]
    : \3 C6 k9 a1 L- ]! r3 ^7 x& Q- A
  159. Language : Polish
    % g4 v% F: w( I) |+ b) h
  160. Default : No- B2 {& U! }  i; q+ S
  161. Forced : No
    ; J2 }# t2 X. _7 g& K
  162. 7 P6 s) O4 f/ D3 b! H
  163. Text #9; D3 }- O* ^! Z8 c2 ~. {( e4 T
  164. ID : 117 r2 m+ l* g5 L. b# g  K$ z
  165. Format : UTF-8
    + x& W7 A( @" _$ y/ N: t1 p. y
  166. Codec ID : S_TEXT/UTF8
    . f% ~! O) s3 v- X+ Q
  167. Codec ID/Info : UTF-8 Plain Text
    0 o" c3 `0 U1 g6 |2 x0 `
  168. Duration : 45 min 58 s0 E  K8 W1 n/ ]* `7 N6 }
  169. Bit rate : 91 b/s( \# i! W/ L- Y3 `* x9 g2 v9 ^
  170. Count of elements : 9056 n# L# ~! ^0 U- P
  171. Stream size : 30.7 KiB (0%)/ x5 h2 G' K1 q8 G3 T
  172. Title : Turkish [Full]
    1 z5 c# M2 e/ W- s
  173. Language : Turkish) B* T* {5 U" P# T; l& j% U- q
  174. Default : No. f6 ~. J2 }9 g" {* F: U
  175. Forced : No! p: j* R' ~5 ~1 G0 h/ T6 J2 }) x/ K
  176. % G0 H4 Y; M& N, x# t* J& Y! z
  177. Text #10& x) T( ]1 h3 x
  178. ID : 12
    0 h8 N9 b/ n; l) ^
  179. Format : UTF-8
    9 z- b1 F- n; C! N; r$ j0 Q
  180. Codec ID : S_TEXT/UTF8( M5 E1 e; I: `5 r8 H8 e" R  d6 E: r
  181. Codec ID/Info : UTF-8 Plain Text6 c  }5 w$ ^, v8 p0 h
  182. Duration : 46 min 5 s% A; ~4 w2 M9 h; [9 z: b$ Q+ L
  183. Bit rate : 119 b/s
    ; s- w8 ?4 m5 |6 ~/ y/ A: W; W! I
  184. Count of elements : 907! }1 i0 `6 @+ `( E
  185. Stream size : 40.5 KiB (0%)
    7 G( l$ d6 G( S  f2 u5 p9 l' _' j
  186. Title : Swedish [Full]# H1 j- p6 G2 f$ @
  187. Language : Swedish* y& x/ s) A: O3 v
  188. Default : No
    9 `5 P% \+ B  g. d5 W
  189. Forced : No
    8 Y/ [4 I8 z' y! e' ^5 |9 x: w% D$ G

  190. 0 H/ g# M+ I1 }4 y
  191. Text #11* F! B- f+ ?4 P* |6 T  M
  192. ID : 13" B- ~1 t2 l$ t3 Q3 O1 ?
  193. Format : UTF-8% E! J6 @! _* q0 r2 d" W6 K
  194. Codec ID : S_TEXT/UTF8
    ' Z2 c/ j; A+ R, r' h
  195. Codec ID/Info : UTF-8 Plain Text
    1 e: c$ K5 A3 X" r$ h) F& x
  196. Duration : 45 min 58 s
    - m  M7 B1 R: D) v5 Z  L! B% Q
  197. Bit rate : 87 b/s  `/ P: n6 q  I- }0 m) R( V
  198. Count of elements : 869, O, M8 a3 L4 g# t& f) `
  199. Stream size : 29.4 KiB (0%)+ I+ S& \, _. n0 [, h% |0 C
  200. Title : Danish [Full]! U; q% R# C% g# U# C
  201. Language : Danish
    7 c. a$ p1 Z7 B; E6 r
  202. Default : No
    0 a0 e: C; }3 m" f$ Q
  203. Forced : No- z! U3 ^0 M6 N3 {6 O
  204. ! k7 v. v5 k& v. W1 q; o$ S- \
  205. Text #12
      M, |9 v$ @  ]! R& t$ }2 d
  206. ID : 14
    3 l  F4 e# [/ u& n' \( W
  207. Format : UTF-8' _1 m: \1 S6 T$ Y
  208. Codec ID : S_TEXT/UTF8, {# e& A) Z2 g- U3 u3 S
  209. Codec ID/Info : UTF-8 Plain Text
    % k- `8 E9 m( Q4 u2 w( r2 Z* x$ n
  210. Duration : 45 min 58 s
    " A: V; u4 L+ m/ W7 n" g  E
  211. Bit rate : 83 b/s
    6 {) X. [0 `6 x9 q1 y8 @
  212. Count of elements : 881. ^2 s! R6 B' P
  213. Stream size : 28.0 KiB (0%)! l  G) N3 M( ]3 k/ z
  214. Title : Finnish [Full]( A' J, ^" s. \, w- s
  215. Language : Finnish
    # j3 E5 _# G8 M
  216. Default : No
    , H, f! f* T2 j1 H3 ]
  217. Forced : No2 i' v' ^3 [9 p' f1 `* [' B7 G  D( E
  218. : P6 z. r) b7 E9 k" e$ N/ z  M, h
  219. Text #13
    # H: n4 o' R2 |4 }+ v; T
  220. ID : 15
    " x5 \  R. g3 E' Z
  221. Format : UTF-8% m3 P6 ^+ g# y2 O+ h; S8 S
  222. Codec ID : S_TEXT/UTF8
      _% t3 l+ y, U  G* j
  223. Codec ID/Info : UTF-8 Plain Text# n& w* ~) b- @2 E# X# b4 {! E- [8 i7 G! i
  224. Duration : 46 min 56 s
    % p' B/ i/ ?( m9 ?
  225. Bit rate : 87 b/s: g4 t" F/ s3 C, l7 ^2 v( e+ l
  226. Count of elements : 7779 J4 I/ F" x7 i4 Q
  227. Stream size : 30.1 KiB (0%)5 k) i; g- c$ O+ G: m4 _: H. c
  228. Title : Dutch [Full]
    ! E! d4 b- B% X6 o8 F. P
  229. Language : Dutch
    1 o* Z+ r. X* A/ p
  230. Default : No8 D: T4 O6 u* E  X- G8 f9 O
  231. Forced : No
    2 q( {7 \8 U" v
  232. 9 `5 t) U! K; y9 C$ P7 o
  233. Text #14; k' j% Z* s% J9 |) n2 z
  234. ID : 16/ J) j. \+ d" d& |" q# |
  235. Format : UTF-8; G( ~9 r. E. h+ S+ u& p
  236. Codec ID : S_TEXT/UTF8
    5 k$ b: U$ v- c/ u2 A: i' [
  237. Codec ID/Info : UTF-8 Plain Text6 w, W! ?1 `/ F( \
  238. Duration : 45 min 58 s6 t+ Y$ S: e7 \, [7 J* I) {
  239. Bit rate : 81 b/s& H- M% I% N& c
  240. Count of elements : 819
    & _9 N6 @( T3 Q9 m$ k
  241. Stream size : 27.6 KiB (0%)- {4 \. L% S% c) C2 ~
  242. Title : Norwegian [Full]
    % f0 O* a% @8 B% Z; t: v% u# Q
  243. Language : Norwegian0 D9 f- j  X. R3 Z5 N
  244. Default : No
    6 y8 o) r& V1 ^0 {2 Y1 Z" q
  245. Forced : No
    + f% A3 ^5 c6 I5 i/ X

  246. 2 {1 V; [! z  `8 f; i) Z
  247. Text #15
    $ o- h: q. g1 w! Y" s: N
  248. ID : 177 o: ?% Y. [+ }+ t* M3 g6 ~
  249. Format : UTF-82 k6 _/ y  o0 @4 u( b; \
  250. Codec ID : S_TEXT/UTF8
    $ W7 M! a( H4 I% N
  251. Codec ID/Info : UTF-8 Plain Text
    % I4 `6 E- [4 j; @7 W& e% s
  252. Duration : 46 min 50 s
    : |) q+ k0 _  b8 M7 D/ `
  253. Bit rate : 148 b/s
    ; d  d. i" F! Z/ j0 b
  254. Count of elements : 9029 C* T+ H. E' ^, U
  255. Stream size : 51.1 KiB (0%)
    ; g  u2 W' g' j2 c; e" Y8 f3 |
  256. Title : Russian [Full]7 o$ b8 J  {/ ]2 p
  257. Language : Russian
    7 S( p1 r" @. E
  258. Default : No0 S. ~; R( a9 v# ?
  259. Forced : No9 _& g' A( h; d. Z+ o" V5 @

  260. " U! E) H2 h4 c! P' E8 o3 ]
  261. Text #16
    + F$ `1 P+ q$ g
  262. ID : 18+ w/ x; I( j" L: I4 m; m& l# ~! D6 M
  263. Format : UTF-85 O: Y& v, o3 h9 M2 K( t
  264. Codec ID : S_TEXT/UTF8* d( H6 Y+ W7 @! q; E" v
  265. Codec ID/Info : UTF-8 Plain Text% ~( v+ s. x7 ]/ [; {* j- G3 J* K4 g
  266. Duration : 45 min 58 s
    # s, e5 n+ ]$ N: i* Q
  267. Bit rate : 96 b/s0 F$ y7 z4 K% }+ _9 F( f
  268. Count of elements : 919) \% Z: U# J( h, F
  269. Stream size : 32.6 KiB (0%). n% ~3 K3 O" }+ k9 t! g! G
  270. Title : Hungarian [Full]% x2 k4 P. S6 ?
  271. Language : Hungarian
    : }# ?1 m( ]2 l7 i, U" l
  272. Default : No  ?8 i$ `- T2 T' b4 R. h- _
  273. Forced : No
    5 P. N) B( f' d% c0 M; g0 F: Q

  274. 1 s1 f' B9 s; `' L
  275. Text #179 Q- K5 `3 R$ G0 K" S
  276. ID : 19  z/ X- {1 C8 A; _, J1 P
  277. Format : UTF-8
    6 @$ W: }: @* v' h5 A0 o7 `
  278. Codec ID : S_TEXT/UTF8
    % A' f0 S6 |0 t0 X( ^+ K+ F
  279. Codec ID/Info : UTF-8 Plain Text
    7 M  W; r: m8 P) @" d
  280. Duration : 46 min 50 s, U6 [8 D! H% y0 m/ {% ]
  281. Bit rate : 164 b/s8 x: J7 O- S' q, ]* k, T- x' G8 ?
  282. Count of elements : 8755 p; e" D# {0 Z8 `. g9 m! J1 z8 p4 q% C
  283. Stream size : 56.3 KiB (0%)  [' \( k( m* C+ c
  284. Title : Greek [Full]
    - }/ x' C/ T1 ?
  285. Language : Greek& S9 _: T0 J1 B8 i3 ~0 S
  286. Default : No
    ! @* F+ S/ S9 i, r+ ~
  287. Forced : No
    0 h* c$ B; M& _2 g3 N3 `, C* I+ [

  288. : g4 j8 |% ]7 ~; a
  289. Text #186 c8 f- m; z% Z; U; V
  290. ID : 20
    ( K. \  [9 Y; S" ~5 c; c
  291. Format : UTF-84 H2 n6 H# T* D# `7 q- y
  292. Codec ID : S_TEXT/UTF8
    1 n: e) {/ m" o* e; O& _
  293. Codec ID/Info : UTF-8 Plain Text# G- l% `" P# r5 k  y1 f& ]
  294. Duration : 45 min 58 s
    / |1 Z3 }0 f. H0 k6 f/ S- a' A: c
  295. Bit rate : 147 b/s$ |3 Q- Q/ h0 f. [$ O
  296. Count of elements : 884
    ' Z" @% m" e, f4 d
  297. Stream size : 49.8 KiB (0%)( _* Q$ W3 b9 S3 o; ]
  298. Title : Hebrew [Full]8 b: Y, ^8 @0 t9 Y! i
  299. Language : Hebrew
    $ W% p9 |% h3 j9 r8 m
  300. Default : No  J/ j- K9 ?. x& V
  301. Forced : No
    ) N7 U$ ^$ o- U7 x8 W; s
  302. 5 v! i, z$ A- j; [
  303. Text #19
    5 D2 I; Y1 k' F/ `; P" B& @
  304. ID : 21/ N6 H- V( a4 J8 E/ e( L" w
  305. Format : UTF-8
    ' \7 z* h+ n6 [$ P6 O  L, ~
  306. Codec ID : S_TEXT/UTF89 }9 _. G+ M$ M# Y& Q3 W" P+ V
  307. Codec ID/Info : UTF-8 Plain Text
    / ?: E* U( \' V
  308. Duration : 46 min 50 s
    ; ^% }& W' M/ ?4 [: r
  309. Bit rate : 164 b/s7 S4 {9 f+ R. D* \2 I
  310. Count of elements : 804( ?9 \$ r5 M0 k- `% @8 c
  311. Stream size : 56.5 KiB (0%)
    3 P2 J0 d2 _& c5 X/ o' W, I9 h4 {
  312. Title : Arabic [Full]# j. f4 y3 G. G# }$ L# }3 F
  313. Language : Arabic- t) g( u& `: u+ F
  314. Default : No
    ( A6 N: @. {: e
  315. Forced : No2 x1 T0 e; t  I2 G1 h+ B9 G

  316. ) r, d8 t7 f- K8 e
  317. Text #20
    7 t1 C& v) y: ]1 e
  318. ID : 22
    ' A2 `  V1 J4 w4 B+ b; d3 |& b& r! W, G
  319. Format : UTF-8) a' P+ A! T8 y8 {/ b* V
  320. Codec ID : S_TEXT/UTF8
    8 @4 n" Z) G# O' ]
  321. Codec ID/Info : UTF-8 Plain Text
    ) x0 P% `* E- H8 m/ E/ F
  322. Duration : 46 min 51 s
    & V3 I, Y) t- \- k* [2 R
  323. Bit rate : 109 b/s! }' {* G, G- l
  324. Count of elements : 912
    9 l! W- B" x5 N
  325. Stream size : 37.6 KiB (0%)4 _5 X$ v' b9 X1 E; e
  326. Title : Romanian [Full]3 v% r7 q: J$ L( o; W; [
  327. Language : Romanian
    / `- ~. c  d2 _1 L$ p
  328. Default : No
    1 O5 b5 D# J. F. m/ O/ Z/ ]) a& i
  329. Forced : No
    % K7 H" X& @% d7 l- s3 `3 R

  330. - Y) {% W% T6 u
  331. Text #21- K, u7 a) w0 y+ j. `
  332. ID : 23) q3 t7 y6 w5 V9 S$ ~
  333. Format : UTF-86 q9 _3 K. v; u4 F" u: s- `* v
  334. Codec ID : S_TEXT/UTF8; d- e  U/ O1 N( T4 y+ E+ ^
  335. Codec ID/Info : UTF-8 Plain Text8 M5 g8 d$ @3 L5 o0 S& y& V
  336. Duration : 45 min 55 s
    0 Q; y, H* L- q+ z+ T' ?5 V
  337. Bit rate : 88 b/s
    & F+ I) P7 A8 a  g& n% h7 N
  338. Count of elements : 823* f8 P/ o) N& c& p
  339. Stream size : 29.6 KiB (0%): g" U" G6 v9 B& w: V
  340. Title : Czech [Full]6 N, {) ?# b% ]; @2 w
  341. Language : Czech
    7 ^& e+ r6 I% R2 |7 {9 p
  342. Default : No3 ~3 O! D- _$ k6 H8 Y% @% l/ a
  343. Forced : No
    - s1 n' N; b, d) u. \
  344. , j7 {' ^' O% |3 S. m$ ?
  345. Text #22
    # _' v" t7 Q# q0 p! `
  346. ID : 24
    # S) A% B' t; E; m2 C& p: @
  347. Format : UTF-8
    3 p& s) |' r1 b; n  N1 X
  348. Codec ID : S_TEXT/UTF8, P0 S* Q( u$ |, f* B1 ~3 Q0 e
  349. Codec ID/Info : UTF-8 Plain Text. |- h# a; x+ p+ W( M7 K
  350. Duration : 46 min 51 s7 u5 Y; \0 F) S2 z
  351. Bit rate : 88 b/s% ^; e! q8 L& g' R& a* K
  352. Count of elements : 903
    0 x5 Y9 c; j1 }# w% t$ \' L1 i- `
  353. Stream size : 30.4 KiB (0%)
    3 G7 h8 @/ g4 l! P) b7 `! f, v
  354. Title : Indonesian [Full]
    2 Q; f( j& B) p* `
  355. Language : Indonesian
    : Z& L4 l( o- m9 m1 A& w' c! \+ M
  356. Default : No
    2 @- ~- D( _5 [- |
  357. Forced : No
    ( _+ |  s' q( V

  358. 5 y3 ?6 ]0 b1 ?3 A7 }
  359. Text #23
    # e" @2 j% D) G. r" j  G# _
  360. ID : 25
    6 ~# E+ I+ v9 }$ s  S
  361. Format : UTF-8
    3 n: y+ B& z5 R
  362. Codec ID : S_TEXT/UTF80 d8 A# E6 d4 a+ R* a
  363. Codec ID/Info : UTF-8 Plain Text7 c+ s7 P) Q! v7 l6 g) M
  364. Duration : 45 min 58 s, A' E5 M4 `; L
  365. Bit rate : 132 b/s
    $ i9 v, Q& T- C* i9 v6 c  U
  366. Count of elements : 9183 v1 ~$ U* w9 Q+ u/ ~
  367. Stream size : 44.6 KiB (0%)
    ) R0 l, p7 U$ x; ~' q. d
  368. Title : Vietnamese [Full]; E- [3 r5 K) ~/ N0 j# E0 G
  369. Language : Vietnamese5 D1 M- f" c  q  {
  370. Default : No
    " V9 N8 |9 Y/ K. X7 K) N
  371. Forced : No
    $ |- t8 a: k- @& K8 B' V. c/ I7 i

  372. 6 u4 H! ~: n, H% G4 H
  373. Text #24
    9 A  c% N9 m9 e& i/ g  o0 a
  374. ID : 26( x% p0 J' S  d# r0 l1 ?; w
  375. Format : UTF-88 x8 p- I' Z0 F, A% _
  376. Codec ID : S_TEXT/UTF8% y/ S7 c# _) V0 y  t; t
  377. Codec ID/Info : UTF-8 Plain Text
    8 y" z: ^% Z4 t2 T) J8 T. M
  378. Duration : 45 min 58 s; W1 Y/ `4 `, q
  379. Bit rate : 247 b/s
    - X+ F& i8 L0 y- j: J6 ?' x0 [
  380. Count of elements : 918
    6 G2 e& |2 p0 @. `" j. W; C
  381. Stream size : 83.4 KiB (0%)
    / Z! \& i5 P  D+ Y& m+ Z
  382. Title : Thai [Full]
    3 ]9 l# ^, \# N( b# M& p
  383. Language : Thai
    4 d; X, D& q& I6 C
  384. Default : No& k. V) }2 E5 v
  385. Forced : No: e4 p$ M0 D" Q5 o7 s" d( E
  386. ( y: f/ i( q6 m$ S3 o
  387. Text #25) x4 K; Z- `: H6 E+ V) ?8 \1 k
  388. ID : 279 f" T) C  O- J8 ?( q* r. J( s
  389. Format : UTF-83 P. E# x( d$ V
  390. Codec ID : S_TEXT/UTF8
    " c8 A$ h9 M( N4 O
  391. Codec ID/Info : UTF-8 Plain Text
    # E0 d3 }+ k3 }/ l) r. V/ h- p5 G5 g* z1 D: K
  392. Duration : 46 min 50 s
    ( P6 P, x, L% i& x" G: R6 t5 O
  393. Bit rate : 121 b/s
    : |1 T: V! D2 {+ j  K' o
  394. Count of elements : 932
    8 f' _3 |. d9 h8 p. c4 l) g
  395. Stream size : 41.7 KiB (0%)& L* r" f  p$ }3 R7 j" ~) a
  396. Title : Korean [Full]; u( E) n2 m- j; c+ M! f, F
  397. Language : Korean4 Z# t9 ^. N/ @# Z
  398. Default : No
    0 A3 E# L/ s& W) M9 C: V
  399. Forced : No
    & H; H8 j  r. I9 ]& T9 q

  400. $ o) S1 ~9 |6 C% G5 D# E
  401. Text #26# m+ d- D8 ^- V) {0 x
  402. ID : 281 D' n$ K7 H' Z
  403. Format : UTF-8& s0 @7 l! r: ^" M
  404. Codec ID : S_TEXT/UTF8
    8 T0 e/ K* W& G( Q6 ?% b
  405. Codec ID/Info : UTF-8 Plain Text' \$ a! E5 S3 Z  o+ c
  406. Duration : 45 min 58 s+ R( U# r$ B( G+ V$ `$ d
  407. Bit rate : 91 b/s. S6 K! w% e( l% m" b( y
  408. Count of elements : 899; r% X# p- J3 h
  409. Stream size : 30.9 KiB (0%)
    * V+ _0 ^' v6 I& c  h
  410. Title : Chinese (Simplified) [Full]# _2 Z/ l( p8 i- A' A7 |" \+ E, s
  411. Language : Chinese
    9 R8 j* b0 ~; @) G- w: O, u" d6 `
  412. Default : No, F# G6 O, Z) H# i7 n
  413. Forced : No) x3 Q: C+ n% g2 e4 ~

  414. 1 Y4 T4 F; W! g/ j$ c
  415. Text #27. J& [" [0 U9 D7 B
  416. ID : 29( e& S% ]- X2 ~% b& {
  417. Format : UTF-84 r& U1 o' e9 H
  418. Codec ID : S_TEXT/UTF8
    7 s# ~, p0 L9 i' H* c  e' l( ~# Y2 C
  419. Codec ID/Info : UTF-8 Plain Text
    3 l; o- Q/ }. y4 x, q6 U
  420. Duration : 45 min 58 s
    6 R6 V0 g+ u7 A# ^2 @) O
  421. Bit rate : 92 b/s
    * j9 c, J& O; m* c0 m4 e# I; k8 T
  422. Count of elements : 911
    ( \# |( N7 Z9 V  I$ ?, ?0 Q
  423. Stream size : 31.3 KiB (0%)/ @4 [* O0 e4 ~7 M; h, v
  424. Title : Chinese (Traditional) [Full]
    , H& q/ }. A: u* s4 ?* T5 ?" H
  425. Language : Chinese% x+ t" R2 J" V, e
  426. Default : No) q" P1 _5 N6 X, o0 Q8 [, ?. Z
  427. Forced : No2 I& ^7 R1 S3 ]

  428. : v' ~4 w% s& X' P( |' A
  429. Text #28
    " _' q6 p1 j) ~' s
  430. ID : 30
    0 W; T" p0 `% G6 U
  431. Format : UTF-8
    : q/ \9 ^4 ?6 F: E# X
  432. Codec ID : S_TEXT/UTF8
    7 C  E" E. Z; O8 }9 L+ ^
  433. Codec ID/Info : UTF-8 Plain Text: r0 A7 v% F& E' R, F. t
  434. Duration : 45 min 59 s; _: Z, Y1 E; s" h
  435. Bit rate : 122 b/s% V+ g) p" n4 k" H' @
  436. Count of elements : 977
    ! K4 Q  ^# q2 N# N5 T+ C
  437. Stream size : 41.3 KiB (0%)
    $ w0 m) B1 ~( Q2 G
  438. Title : Japanese [Full]+ v" x# o7 d  o: P/ O
  439. Language : Japanese
    4 F5 Y4 V+ B* ~6 h. w- R
  440. Default : No* S; |9 S! O* o2 \6 M0 i1 |
  441. Forced : No
复制代码

/ g0 X: l1 z8 `4 M7 f
- H2 k$ d# P; [* f! W5 J. ^. N: s3 c: |/ m; X) k
1 n( u: z3 u2 D) |# b  Z6 O
. J  ~" R5 \" J! R: X7 e! l5 z$ X  c

; u0 [, B+ b" j+ a$ r
游客,如果您要查看本帖隐藏内容请回复  VIP可免回复查看隐藏内容 详情请点击
发表于 2019-8-22 23:13:48 | 显示全部楼层
这是《死亡飞车》的和谐版
发表于 2019-8-23 00:20:41 | 显示全部楼层
飙车玩命一族,支持支持
发表于 2019-8-23 04:58:41 | 显示全部楼层
谢谢楼主分享
发表于 2019-8-23 10:38:52 | 显示全部楼层
真人秀这个猛
发表于 2019-8-23 12:11:49 | 显示全部楼层
支持支持,先看看第一集
发表于 2019-8-23 15:20:17 | 显示全部楼层
下载看看,谢谢分享
发表于 2019-8-23 23:10:53 | 显示全部楼层
最喜欢看这类型记录片
发表于 2019-8-26 00:47:42 | 显示全部楼层
感谢版主分享,画质应该完美
您需要登录后才可以回帖 登录 | 立即注册

本版积分规则

QQ|封号公示|手机版|有问题发邮件到admin#(换成@)hd1tj.org|微博|免责申明|HD一条街

GMT+8, 2020-1-19 17:02

快速回复 返回顶部 返回列表