HD一条街

 找回密码
 立即注册
搜索
查看: 509|回复: 21

[1080i] 日剧:全裸导演/全裸监督(港)[自带中文字幕]The.Naked.Director.S01.JAPANESE.1080p.NF.WEBRip.DDP5.1.x264-NG 18.89G

[复制链接]
发表于 2019-8-10 10:27:16 | 显示全部楼层 |阅读模式

马上注册,结交更多好友,享用更多功能,让你轻松玩转社区。

您需要 登录 才可以下载或查看,没有帐号?立即注册

x
本帖最后由 让心灵去旅行 于 2019-8-10 12:50 编辑 0 b: V4 D( x0 Q

* S+ O: N: I4 F) {* L) F
7 N7 B: b- k5 M! o" g# Z, u
                               
登录/注册后可看大图
: X0 ^  X* P2 M6 n, Q

( m7 @1 h6 b8 E$ h◎译  名 全裸导演/The Naked Director/全裸监督(港); l; K/ h$ {: o: r. x- v  T7 |8 n9 @
◎片  名 全裸監督
2 Z. l9 Q' S6 a. z8 y4 I◎年  代 2019* M7 `/ \; \7 ^8 F( R7 ~
◎产  地 日本
' r0 j' a6 g$ ~0 H0 b◎类  别 剧情
/ B; ], u) ]! k5 H2 U. Y7 d: z◎语  言 日语. e8 H# E! ]# w: Z
◎上映日期 2019-08-08(日本)
. j4 R! l  F- D0 [% q◎IMDb评分  8.2/10 from 129 users
2 v( W! l: W4 Z* y, E7 v4 Z◎IMDb链接  https://www.imdb.com/title/tt10477528/
6 i3 n- ^  y2 p. S- z  }# ^◎豆瓣评分 8.3/10 from 2,386 users5 X% @: R0 t5 `3 j$ u
◎豆瓣链接 https://movie.douban.com/subject/30360724/1 D( v4 q- t4 b( M; x- M
◎集  数 8
" Y. d$ j% ]7 i8 k" W8 @◎导  演 武正晴 Masaharu Take / 河合勇人 Hayato Kawai / 内田英治 Eiji Uchida
/ G& f. C( c: I0 R, W% a$ q) L, \  ]◎编  剧 本桥信宏 Nobuhiro Motohashi
- ~5 o% P, E  X6 j◎主  演 山田孝之 Yamada Takayuki
0 B4 C/ m6 M0 y1 O* Z- J6 \       满岛真之介 Shin'nosuke Mitsushima
3 k9 u5 @3 v8 U! U2 o# |       玉山铁二 Tetsuji Tamayama( Y& {4 q! W% O4 u6 h8 n& F# f
       柄本时生 Tokio Emoto
: ]( }4 J* d  K# Q7 K& m# [       伊藤沙莉 Sairi Itô
+ L# L" v/ ?- j0 S4 f8 P; u       富手麻妙 Ami Tomite
6 H7 ?3 ?, a2 N& I9 N       后藤刚范 Takenori Gotô
/ `: f* b) A! I- ]4 g8 S       吉田钢太郎 Kôtarô Yoshida6 E0 q0 C/ @1 K7 B
       板尾创路 Itsuji Itao4 q( N' w3 v: I* @( ~
       余贵美子 Kimiko Yo
$ ^- z* l  e* m& ]" p, R# q) o* S       小雪 Koyuki
; m3 f8 ]; w: s. @       中川雅也 Lily Franky' W" b% N5 f9 O
       国村隼 Jun Kunimura
8 d6 L$ b/ _6 t2 m       石桥凌 Ryo Ishibashi
% g! d/ Q6 r9 ^5 W0 b- f7 k
5 @' }% V1 t9 A4 H, c( }% S5 }& Y◎标  签 Netflix | 日剧 | 山田孝之 | 日本 | 2019 | AV | 真实改编 | 电视剧
0 ?( M9 H& i6 U/ s+ o+ f
- [( {" d3 r9 B) w1 H* L◎简  介
9 r5 O+ ~$ c6 }, y1 [  {" P1 M) C
4 @2 Z0 E. F% f' z" R  剧集根据纪实小说《全裸导演 村西透传》改编,聚焦有“成人片帝王”之称的传奇人物村西透的人生,以及开创成人片业界的人们的故事。山田孝之饰演村西透,满岛真之介饰演他的搭档荒井,玉山铁二饰演给村西创造飞黄腾达机遇的出版社社长川田,森田望智饰演成人片界的新星黒木香。
  1. Video
    0 S2 K) T* q4 L) p9 u. _; I2 ]. @
  2. ID : 1" ~' N9 ?; ], e: W
  3. Format : AVC& Z5 q" A3 y; P+ |& a& l' K& @  X& R
  4. Format/Info : Advanced Video Codec. u7 r( @1 r& }
  5. Format profile : [email protected]% x) D' D/ R3 U. ~2 N! f
  6. Format settings : CABAC / 3 Ref Frames
    5 V9 A, F/ f8 Y- B2 [/ M6 c0 y
  7. Format settings, CABAC : Yes# r* g/ d" o) ^2 b
  8. Format settings, Reference frames : 3 frames
    ' V: I6 h5 p& B
  9. Codec ID : V_MPEG4/ISO/AVC. F+ Q! `" a+ M5 X" h6 F
  10. Duration : 47 min 24 s
    1 z" X6 w( K' z, _: X) X
  11. Bit rate mode : Variable" Q; v" i. o4 I  O6 w) v- E
  12. Bit rate : 6 441 kb/s
    / \+ A& D) ]' Q0 s( p
  13. Nominal bit rate : 6 810 kb/s0 y  Q) X) ~/ ~
  14. Maximum bit rate : 10.2 Mb/s  x% \% N, b% Q  ^
  15. Width : 1 920 pixels
    9 C- u* P( v) L& L; F1 f
  16. Height : 1 080 pixels! {  v2 k! A( r& i. }
  17. Display aspect ratio : 16:9: A) {" U4 Y) b
  18. Frame rate mode : Constant
    1 L. d* }% a  _) ^# s: M* U6 m6 z
  19. Frame rate : 24.000 FPS9 Z: O, A1 S# C$ ~& Y, f
  20. Color space : YUV+ c$ J. t( _# W
  21. Chroma subsampling : 4:2:0- P6 b: ?' m  f8 Y6 S
  22. Bit depth : 8 bits
    % t& g  ~+ O$ r# o/ M4 g9 |: [
  23. Scan type : Progressive
    + i- G! l* q; P! f- |9 W
  24. Bits/(Pixel*Frame) : 0.129' {* S+ K9 e; z3 p/ f5 R
  25. Stream size : 2.13 GiB (83%)
    0 B0 o0 a# {+ J, j
  26. Writing library : x264 core 148 r2715 7e75228
    * n3 o( T0 H: t, }$ F: ^& f
  27. Encoding settings : cabac=1 / ref=3 / deblock=1:0:0 / analyse=0x1:0x111 / me=umh / subme=10 / psy=1 / psy_rd=1.00:0.00 / mixed_ref=1 / me_range=24 / chroma_me=1 / trellis=2 / 8x8dct=0 / cqm=0 / deadzone=21,11 / fast_pskip=1 / chroma_qp_offset=-2 / threads=8 / lookahead_threads=1 / sliced_threads=0 / nr=0 / decimate=1 / interlaced=0 / bluray_compat=0 / stitchable=1 / constrained_intra=0 / bframes=2 / b_pyramid=0 / b_adapt=2 / b_bias=0 / direct=3 / weightb=1 / open_gop=0 / weightp=2 / keyint=250 / keyint_min=24 / scenecut=0 / intra_refresh=0 / rc_lookahead=48 / rc=2pass / mbtree=1 / bitrate=6810 / ratetol=1.0 / qcomp=0.50 / qpmin=6 / qpmax=51 / qpstep=4 / cplxblur=20.0 / qblur=0.5 / vbv_maxrate=10215 / vbv_bufsize=13620 / nal_hrd=vbr / filler=0 / ip_ratio=1.40 / aq=1:1.00
    * F  w* W0 F* O$ u& b, g
  28. Default : Yes' I: z5 _, G/ B
  29. Forced : No- k: j4 ]0 f% S$ P! f

  30. ; A# W6 `1 ^" p+ S+ u* _
  31. Audio #1
    $ i+ R0 v/ J; e
  32. ID : 2( c' ^. e  |' w, p( F: f
  33. Format : E-AC-3' i( y9 O: J# t+ G/ c
  34. Format/Info : Enhanced AC-3
    7 x, p* R1 d+ D2 t  s# L6 f! B* l4 A
  35. Commercial name : Dolby Digital Plus% s3 f  f/ I* S1 I! b
  36. Codec ID : A_EAC3  ]+ ~( C  x! p
  37. Duration : 47 min 24 s
    " r( M% I9 {0 b7 k, r# K9 P, c4 d+ k
  38. Bit rate mode : Constant2 ]4 M) `$ ~- ^4 U- h" Y; o
  39. Bit rate : 640 kb/s
    & H3 W# L9 n% Y* w6 V# z! \
  40. Channel(s) : 6 channels
    $ S  k) s9 \- A) a5 Y6 b! @' E
  41. Channel layout : L R C LFE Ls Rs
    ! [1 L, f2 N7 X( y' z; g/ P) b3 ?* A
  42. Sampling rate : 48.0 kHz3 F5 q+ }; N1 D2 D# S2 k
  43. Frame rate : 31.250 FPS (1536 SPF)
    ! N5 c  y2 K6 D5 R# `- @4 k
  44. Compression mode : Lossy
    ( Q6 I; a' N: I& [1 q, Y" ~
  45. Stream size : 217 MiB (8%)
    8 L' L) [/ U3 h7 U5 r
  46. Title : English/ O% l9 v2 w) L. e) m
  47. Language : English
    4 s7 a1 K) M0 b5 `
  48. Service kind : Complete Main1 }$ U( t/ B8 E( h6 V! K) H$ ~
  49. Default : No
    * O) n- e! E2 U8 h5 {  _
  50. Forced : No* D1 c0 E( U+ r- F5 B1 i. E

  51. 9 D' f; N4 t* Q, x
  52. Audio #2
    ( ?4 b4 N8 L3 d1 {: _7 F
  53. ID : 3
    - V& I5 Q! r% S8 o( X' W% Q0 b
  54. Format : E-AC-3* }$ n, w0 M* |6 r" W9 m
  55. Format/Info : Enhanced AC-3
    / G. W% H# \5 G* I! B3 K, m
  56. Commercial name : Dolby Digital Plus0 @+ C- r+ J* K
  57. Codec ID : A_EAC34 Y/ z& U0 h* `. y0 h, n
  58. Duration : 47 min 24 s
    2 e+ l$ w% y. Y1 V2 x3 x9 N
  59. Bit rate mode : Constant
      e# f! m/ J9 H, m+ K
  60. Bit rate : 640 kb/s+ U: o& I7 w) D/ I, g
  61. Channel(s) : 6 channels
    $ y$ r+ d1 W8 [3 r" E
  62. Channel layout : L R C LFE Ls Rs7 |* s$ N1 V  G/ @4 s1 [; t
  63. Sampling rate : 48.0 kHz) o* c" L  x2 w
  64. Frame rate : 31.250 FPS (1536 SPF)
    2 k/ T7 E1 d3 @- r! U  Y- G' c* R
  65. Compression mode : Lossy
    ! l6 V! w* R2 {
  66. Stream size : 217 MiB (8%)
    : g1 w% Z) F% u# F- @
  67. Title : Japanese
    ) ]3 E& Q9 P& _; {' f" I2 g
  68. Language : Japanese& W& y" ]# i: j3 M$ x
  69. Service kind : Complete Main
    + y8 d" T+ g2 n3 j9 L% `% l7 {, k4 U" a
  70. Default : Yes6 R+ I3 k) \, r/ h5 q
  71. Forced : No
    : M9 Q* ?& ?, |$ z# b$ R

  72. , R- @& G: M9 Z: d& ^- {$ E+ k* K9 w% ]
  73. Text #1; {, `3 d1 O# @; U, t2 g; b
  74. ID : 4
    / P1 c2 h( J4 Z
  75. Format : UTF-85 P+ c9 l$ v" H5 o/ F6 A
  76. Codec ID : S_TEXT/UTF84 I: N9 n, B) B
  77. Codec ID/Info : UTF-8 Plain Text
    3 g, f, _: N/ e1 m( ?* J0 w; g+ v
  78. Duration : 42 min 50 s
    # d! X9 T, F( k
  79. Bit rate : 46 b/s
    2 S" e- t" L2 C8 \& q
  80. Count of elements : 505' I/ M4 M- i. V) v
  81. Stream size : 14.7 KiB (0%)1 I+ K& p$ H8 s
  82. Title : English* l/ K& G% o1 i) i: G' k* x
  83. Language : English
    % O' R) `, R9 G! S) e" ]1 f, e
  84. Default : Yes; I7 K* O; k' I
  85. Forced : No
    # S9 _/ @& x: i, z; R

  86. ) G- C( x' t$ x! ~( B
  87. Text #2
    - E/ F" S; B3 B4 c
  88. ID : 5, m  m: ?9 o4 c
  89. Format : UTF-8+ J1 p7 @2 V% _% i
  90. Codec ID : S_TEXT/UTF8
    # T) N/ m3 M$ j5 @9 ~0 w9 y
  91. Codec ID/Info : UTF-8 Plain Text
    7 S) Z8 S, D7 y
  92. Duration : 43 min 11 s: M- f& V2 Z" d. B' J" F
  93. Bit rate : 59 b/s
    / X8 T& Q4 f' {; ?+ e4 F
  94. Count of elements : 699# P1 [9 W$ [- F7 Y% A* z
  95. Stream size : 18.9 KiB (0%)
    / H0 F' b9 h7 I( R7 h% @! f
  96. Title : English [SDH]
      \  S# \  U7 E- U: U! Z/ L( }
  97. Language : English
    , Y! D- z9 p  ^5 u; R: h
  98. Default : No
    : s' D- |/ n  y" X/ z
  99. Forced : No5 t: F% F7 E% c- A$ {
  100. 1 g, @$ o; f  u6 T! @
  101. Text #32 x* C6 [2 U9 h/ k  r/ ?
  102. ID : 6
    % g7 W; Y; a' [9 Q3 g
  103. Format : UTF-8
    / H' I' u8 N) f
  104. Codec ID : S_TEXT/UTF8) E  K. Y( ^) X
  105. Codec ID/Info : UTF-8 Plain Text
    9 T. d* S6 U" ^5 w; r" y
  106. Duration : 46 min 44 s  y: z' y8 ^+ K5 |  h7 Y
  107. Bit rate : 44 b/s
    * f; l0 t* U* a6 C, }, ^
  108. Count of elements : 5268 H; d! D5 I- `
  109. Stream size : 15.3 KiB (0%)& D: T2 J8 k( M, t+ m
  110. Title : Castilian& E1 ]1 I1 r- i* D- y# R
  111. Language : Spanish
    & q3 r; z( m& Z6 h" c) @
  112. Default : No
    + Q# O& @6 i. ~4 p- \
  113. Forced : No
    ; C# v% @) w3 ]3 N# q9 w2 E1 t  I

  114. 4 h, u7 C+ H; l3 L7 z/ Z  H
  115. Text #4
    , y1 J: S  m2 T2 Z1 C" V
  116. ID : 7* _8 n  D, j) ^3 H; ]
  117. Format : UTF-8
    9 q8 [. j! `3 ~; T" }' I4 a8 x# [% w
  118. Codec ID : S_TEXT/UTF80 H% }3 o5 }" [! q5 {4 c8 U
  119. Codec ID/Info : UTF-8 Plain Text, G5 c, a' u+ S7 k5 b+ q
  120. Duration : 46 min 44 s
    % p; d  Q" m6 ]1 X) L% E9 V
  121. Bit rate : 43 b/s
    / y8 O% u1 p  n  }8 S; h
  122. Count of elements : 525* b& a- b- a4 }  N6 e8 A
  123. Stream size : 14.8 KiB (0%)( m& z5 M$ M1 o- r, `7 t2 _2 u
  124. Title : Spanish9 `! a9 ^# ?1 ]4 ?( w0 ?
  125. Language : Spanish
    0 ~/ ]4 K+ i8 p  I* }$ P) [
  126. Default : No5 j; A; R9 x8 ?! s3 W
  127. Forced : No: ?4 p1 ?, F+ p2 i$ }# ?, Z/ l

  128. " y1 f' Q5 W3 p$ G
  129. Text #5
    ! s! \- K4 K* e8 {& \# H. o5 \
  130. ID : 84 P7 y5 {! ]2 g  N
  131. Format : UTF-85 @7 p( s5 `. f' Z! ]6 i. r% J
  132. Codec ID : S_TEXT/UTF8
    * v7 D3 I& Z- @. @
  133. Codec ID/Info : UTF-8 Plain Text; I1 I/ o/ F2 F0 W
  134. Duration : 46 min 44 s
    / p: K( Q3 {( l- z
  135. Bit rate : 46 b/s
    / j$ G: N* L! G; ]8 ~6 Z9 Y0 G5 n
  136. Count of elements : 523
    9 L; t9 o$ R+ Y1 e
  137. Stream size : 16.0 KiB (0%)
    2 g  b3 Z" s$ y
  138. Title : French" T: M  i: `! i4 n
  139. Language : French
    + V5 j8 b  w1 A: i
  140. Default : No
    # ^8 v; U0 n, U( j3 }8 ?+ T- |
  141. Forced : No5 Z% B' H" L4 |' Y1 w& I3 \

  142. 3 \$ w) w" X" g% T; O3 T9 Z
  143. Text #6: \3 V% c( ~7 n) _7 W" K
  144. ID : 9
    : o0 m: T) D9 C
  145. Format : UTF-8
    ( y" d1 r% ]& b0 I0 A/ o
  146. Codec ID : S_TEXT/UTF8
    & P* X/ w& N1 N/ e6 N* u# d0 l6 L# G
  147. Codec ID/Info : UTF-8 Plain Text
    * J4 i) A* S! \( ]
  148. Duration : 46 min 44 s
    , h$ L! k( K  T- G7 z% L
  149. Bit rate : 46 b/s: o: c0 I7 v  E8 X
  150. Count of elements : 520
    2 G2 P* S* M$ [' a1 h( y3 W! ^# z/ ~7 O/ p
  151. Stream size : 15.8 KiB (0%), C/ J% y: B: G' n: y
  152. Title : German0 U# J& i, F: x, Y0 @9 r
  153. Language : German& i- P+ F, V  f+ e5 M$ U
  154. Default : No6 f9 U, A0 l  b8 }
  155. Forced : No
    ( q1 P2 X3 b2 u+ Y& \. P

  156. $ _4 @/ Z0 p( Y$ g- L. ]( k- R3 C- U* U
  157. Text #7) T- |! b7 Y9 s2 i  u  y
  158. ID : 10# M# z1 J5 L1 c9 W0 b9 B* V2 j7 n
  159. Format : UTF-8
    $ _) y, u4 r) `; ^! l
  160. Codec ID : S_TEXT/UTF8
    9 C/ S1 e3 m5 x7 f) K5 s. }
  161. Codec ID/Info : UTF-8 Plain Text
    0 ?, N0 g7 `" z
  162. Duration : 46 min 39 s8 p+ \0 s! H5 Y) `* e/ W
  163. Bit rate : 46 b/s
    0 |; _) x9 N( P1 H- l4 ^
  164. Count of elements : 518) O- J, r2 n* F+ g
  165. Stream size : 15.7 KiB (0%)
    8 u; L. t) A+ G9 @
  166. Title : Italian9 r% w* O0 e' m) n
  167. Language : Italian
    / d6 A: a# G' J/ f. s6 _( L
  168. Default : No
    ! ~$ @. t( k. f
  169. Forced : No
    * t: E" k) B) s8 p
  170. - P8 I0 W- s4 d" s
  171. Text #8# ~9 t3 Y' h& _0 T- x
  172. ID : 11; l) @  ]7 V  M/ }3 o" @* h9 z
  173. Format : UTF-8$ D  q0 Y8 {6 K* j3 v6 R
  174. Codec ID : S_TEXT/UTF8
    " b8 M$ F$ E% i# q7 M
  175. Codec ID/Info : UTF-8 Plain Text* g" {: i* q/ _6 ?+ Y! n7 j. H
  176. Duration : 46 min 44 s
    / d) M+ |% d# `' U6 e
  177. Bit rate : 43 b/s8 |( @* b* T7 I% U3 z. ^# p
  178. Count of elements : 5253 |1 r3 q5 q4 n' q, K0 i8 i; }
  179. Stream size : 14.9 KiB (0%)
    ! i' |  m3 K. Q) C; [2 h, m
  180. Title : Portuguese
    * y/ b$ a5 ]( H6 I! J+ t7 F
  181. Language : Portuguese
    / C, f# z. c# N0 m: r
  182. Default : No
    3 L* L& ~# ?% h9 u+ E% D5 J
  183. Forced : No& C' r  S6 [$ C
  184. : r6 d9 p7 t% `; I
  185. Text #9! I) L3 n% ~: c( t/ E; j' s
  186. ID : 12
    / ?/ @( m; z6 A8 p# V
  187. Format : UTF-8# v# M' t' e! w3 Y
  188. Codec ID : S_TEXT/UTF8
    & u1 X7 K* I% c4 U) ?
  189. Codec ID/Info : UTF-8 Plain Text
    . o. D! t. w8 n1 B
  190. Duration : 46 min 44 s$ w- y' [4 K1 W* @$ _/ m" E
  191. Bit rate : 42 b/s- z* E2 F- a; `" ]$ _1 v: G
  192. Count of elements : 521
    * Y( A% g2 l" `6 T/ x
  193. Stream size : 14.6 KiB (0%)# o# n7 Y  ?5 r) D! n3 g& l% t! z
  194. Title : Brazilian Portuguese( [( p/ ?+ t# f9 m+ i4 E0 a
  195. Language : Portuguese
    3 x! E) B" _$ h* m
  196. Default : No
    - n" i) l' t/ E. r8 j8 G
  197. Forced : No: ~# ?/ I& `2 {4 a4 C
  198. % O% d8 O+ S. D* c; H5 g( z: @# P6 x
  199. Text #10
    1 \0 E' W' Q' X9 S+ t  Z( ^- T
  200. ID : 139 x% c4 x' I0 I& S$ y
  201. Format : UTF-8
    ( z" e6 M- _2 O7 R8 ~' \( n
  202. Codec ID : S_TEXT/UTF8' G1 l! V, S2 l* t
  203. Codec ID/Info : UTF-8 Plain Text- x" H3 J$ X8 F- V. K& d% u! l
  204. Duration : 46 min 44 s
    - ~2 u$ u$ K1 K1 \
  205. Bit rate : 38 b/s
    + X  Y+ z) r. D; C" k/ O# e$ L
  206. Count of elements : 522
      H5 f7 z# j- D) ^
  207. Stream size : 13.3 KiB (0%)# D# [4 U, }) s7 d- E/ _5 s
  208. Title : Polish
    , H# d9 A. s3 Z/ s9 M0 [
  209. Language : Polish2 ^, p  A' ?4 i
  210. Default : No
    ! i* p7 Q( O# t" }  K( G0 V
  211. Forced : No
    ! X4 [7 ^5 B9 [

  212. ) j) Z1 W, t/ D2 g% u; P8 j! F
  213. Text #11
    $ u$ A' \- s: M: `/ u, y# W3 X
  214. ID : 14) ^$ ^, G8 ~! J% Y7 x# J; G
  215. Format : UTF-8
    $ S' B0 h" p6 X7 `5 J: F$ j! g( Q
  216. Codec ID : S_TEXT/UTF8
    2 I9 |6 ~1 _$ M$ g
  217. Codec ID/Info : UTF-8 Plain Text" V; {: P) [1 s9 l; Z+ i
  218. Duration : 46 min 44 s
      t: U8 g: j$ B/ \' y' q
  219. Bit rate : 46 b/s) m! O# q% d& e; I
  220. Count of elements : 527
    % T' t. n7 X5 N' `4 y4 J
  221. Stream size : 15.9 KiB (0%)" Y4 a& Z! P' O5 V7 Y
  222. Title : Turkish9 t% U1 T$ x! ~: Y
  223. Language : Turkish  b' T6 T. A* |7 _
  224. Default : No
    , T' w) [2 M: W+ J& J, k' Q
  225. Forced : No
    7 k( n: Z# ?* a6 x/ z4 W! M

  226. , s- n9 N8 d! b) n3 _2 k0 V
  227. Text #12
    : ^' D* {  |( Z3 ?2 t
  228. ID : 15, {$ Z% U1 j# X. A' O9 [
  229. Format : UTF-80 ]+ e) `0 m! H% u/ H; g) N& A
  230. Codec ID : S_TEXT/UTF8
    $ _8 Z3 q# _, X* g4 j1 y
  231. Codec ID/Info : UTF-8 Plain Text1 N, }6 W: M2 `6 [
  232. Duration : 46 min 44 s- i( p, N' k# O9 J/ E  m. H- }
  233. Bit rate : 44 b/s. n7 s8 V! H" g4 C
  234. Count of elements : 525
    ( h, C8 @$ t% P7 C, M
  235. Stream size : 15.3 KiB (0%). c  W1 u! }; W) ?: _
  236. Title : Swedish  d: P% L# K$ J0 ~/ E
  237. Language : Swedish
    $ G4 L$ l3 Y0 N+ `
  238. Default : No) K3 d6 c+ x6 e0 ?1 F. I
  239. Forced : No
    ) r6 \* g4 S! D2 _8 E2 k0 V

  240. ; ?+ m+ E4 P$ x! Q. o& `5 C* f
  241. Text #13
    ; g. a0 ~. Q: K) h& L& U# a! a
  242. ID : 168 G" h7 a8 Y- d6 U
  243. Format : UTF-8/ c3 ]- R5 T7 A7 J
  244. Codec ID : S_TEXT/UTF89 {: f, z5 o9 y( o
  245. Codec ID/Info : UTF-8 Plain Text
    5 H0 N" i" T- g+ p' R# }
  246. Duration : 46 min 44 s
    8 l5 ?- ?3 r4 ~5 n. f" t9 j- a$ o
  247. Bit rate : 44 b/s' k, e5 P0 a0 f8 n
  248. Count of elements : 532/ z/ `. E4 F; m9 N- k
  249. Stream size : 15.3 KiB (0%)" A+ l4 o3 A/ b
  250. Title : Danish
    3 m! W8 h  O; D% P
  251. Language : Danish, {5 X( d' y0 Y4 U/ B
  252. Default : No
    2 u9 e0 B; o9 v/ ^/ V* G
  253. Forced : No
    + t1 b0 w* h' Q

  254. : I; [9 k' C0 q$ w
  255. Text #14
    / N7 x0 L2 \1 l& E
  256. ID : 17" O+ Z  G( `% G% {* J+ F  J
  257. Format : UTF-8* R9 n1 W6 I% {- t' b  O
  258. Codec ID : S_TEXT/UTF8  E3 P4 c' R% y& W
  259. Codec ID/Info : UTF-8 Plain Text
      P% [8 U# q' x$ P# b+ ~4 j, {% W  K
  260. Duration : 46 min 41 s
    4 j. Y" ~! i! c. Q3 W; P" @
  261. Bit rate : 44 b/s
      r$ i- k8 P% U
  262. Count of elements : 5012 w7 p6 ~( g. o$ ]5 \
  263. Stream size : 15.2 KiB (0%)
    ' i4 r+ d- r! u, U' b
  264. Title : Finnish7 N& k. X/ o$ Q2 J( }7 {' N3 O4 B- p
  265. Language : Finnish' @# W+ \9 F6 Y& \
  266. Default : No
    ( c' [5 T$ Z4 P8 e) n
  267. Forced : No
    ' J, y& a! w3 m9 t- X( E

  268. 8 W- A: G7 n) r% l# e( j( U/ U
  269. Text #15
    9 M( J% [) x5 o
  270. ID : 18
    5 c  F  p* P' W9 E
  271. Format : UTF-8
    ! W& X9 g9 @' [
  272. Codec ID : S_TEXT/UTF8
    # ^. s9 u, \, |, [; r8 Q/ A9 C
  273. Codec ID/Info : UTF-8 Plain Text
    . h$ M) s# ~# {$ X; _
  274. Duration : 46 min 43 s8 V3 j+ q) n- ]1 F( j. V
  275. Bit rate : 43 b/s* n# K# y/ a( y9 L
  276. Count of elements : 510
    8 F+ c2 d. m6 {# K% {
  277. Stream size : 15.0 KiB (0%)
    % O3 d- h- J; `% Y# I
  278. Title : Dutch
    . |/ e5 r+ Y; H# X5 b# M
  279. Language : Dutch
    * M% T( a2 L/ {" t( H$ v# p1 ]. s
  280. Default : No
    # |! d4 X$ A3 `8 i7 P) q; w  v5 U
  281. Forced : No
    : K  {# ^/ u5 m; `/ T$ R; F: O
  282. 0 O/ P( e5 s  _0 X' W' q' X
  283. Text #16
    $ E  s; f8 l5 p5 f) T
  284. ID : 19  l! p( X- D7 x" P6 v# v5 i- U
  285. Format : UTF-8% E& y/ x2 f+ f$ Z6 B
  286. Codec ID : S_TEXT/UTF8
    % t* u5 Z' I' g" A% x) W1 T/ `2 m
  287. Codec ID/Info : UTF-8 Plain Text
    - M+ A. v6 P6 ?1 H3 r5 ^, |
  288. Duration : 46 min 44 s
    . U% a, K8 l- h) _: A
  289. Bit rate : 44 b/s
    " T/ b( R, n" ]" X: k
  290. Count of elements : 526
    " S: ]( I4 d7 b& I0 X' O
  291. Stream size : 15.2 KiB (0%)7 x, j2 I$ _+ d% y) P; g
  292. Title : Norwegian
    ; Z& Q4 r8 b8 Z( O8 O, Z! ?! o4 D
  293. Language : Norwegian9 ^$ o( a" e7 j+ N# s" {/ K, t  ^
  294. Default : No( w9 Y( x& }( o- N5 G- D
  295. Forced : No7 ]' E1 R- p* t# H7 Z

  296. + W7 j/ [+ _& p& ^# e7 r* O
  297. Text #174 F8 ?, M7 H+ e4 w4 B8 Q+ V
  298. ID : 20* B5 {1 F0 I9 `2 n* B  k/ L: S
  299. Format : UTF-8
    7 ~% i9 G6 h6 t/ t9 s+ n$ G! ^. F
  300. Codec ID : S_TEXT/UTF8% b2 Y  l; K! b" ?2 V
  301. Codec ID/Info : UTF-8 Plain Text
    3 n  L, l8 m& ]/ g: F3 Z) r: v; Z
  302. Duration : 46 min 44 s2 s% I" K, q1 _8 X" k: d: U
  303. Bit rate : 69 b/s# X) ~% U8 M% {, [. B$ G; S. q) G& _
  304. Count of elements : 5243 i+ G1 ~) u3 R$ n
  305. Stream size : 23.9 KiB (0%)
    ( b2 Q5 t  F) H. F$ J% e& X+ s
  306. Title : Russian
    % x" Q4 u# \0 q* l  r
  307. Language : Russian; `; C; \, }, }; i  |2 P. C
  308. Default : No
    4 H; u. m+ ^$ M
  309. Forced : No
    . L2 x; ]4 X/ i
  310. + V7 ~: a* D' V, S3 s& E
  311. Text #18
    & X$ W1 C5 e6 s( Y
  312. ID : 21) n. r+ n8 h- U' L: k
  313. Format : UTF-89 `; a+ q- x) k9 V" l
  314. Codec ID : S_TEXT/UTF8
    + h# Y9 W9 ]* G0 K- L
  315. Codec ID/Info : UTF-8 Plain Text
    2 P9 P- m& x' H( I& E% ]
  316. Duration : 46 min 44 s
    3 [* u" |; @' Y( M. b1 T$ C
  317. Bit rate : 45 b/s3 ^7 X% l( W" \  f/ @% c
  318. Count of elements : 538
    ( ^& E' _+ h; i* z
  319. Stream size : 15.4 KiB (0%)
    # |* }" T& y2 W
  320. Title : Hungarian& ~' J& h9 }% ~9 T. w) y$ y* m
  321. Language : Hungarian& Y# p# t+ g% G% i+ F, {
  322. Default : No' R2 ]' {; W( _. a; z# \
  323. Forced : No6 ^( R7 _9 A  A9 G* B9 h& N
  324. ' I5 R/ V- p$ b& v; B. F; V
  325. Text #197 v( t; D, V1 d" h7 q4 G2 T
  326. ID : 22
    & \/ J, T- O. _, h9 z- q; k
  327. Format : UTF-8
    - y+ E4 O; G8 F' z7 N$ V
  328. Codec ID : S_TEXT/UTF8
    : q3 ~& f0 k) ~, D, Y% \
  329. Codec ID/Info : UTF-8 Plain Text
    % F, I; G* v2 {  P
  330. Duration : 46 min 44 s/ w. D7 O; p4 _. K/ a
  331. Bit rate : 74 b/s
    , H, s, `5 G) g4 w2 {* q4 I
  332. Count of elements : 525
    7 s" [7 s- H! [: H
  333. Stream size : 25.6 KiB (0%)
    : y7 T" q/ K) V7 g- B
  334. Title : Greek- s; @( m8 O! U& w/ E3 j, ]
  335. Language : Greek
    ) k8 T3 U: {/ [* R) h
  336. Default : No! J7 k, ?7 W3 e' y' e2 I/ |; K
  337. Forced : No9 x2 q% x) z$ ~( F2 v+ [, j
  338. 8 D1 e1 \- \" A& S2 s% R
  339. Text #20/ y9 m: v: F3 x! O
  340. ID : 23
    ' d' G1 r2 }) y' W' F' W
  341. Format : UTF-8+ `) ?. y! Y4 Z0 i
  342. Codec ID : S_TEXT/UTF8
    ( }3 m  W( t0 |0 b) q+ |" }
  343. Codec ID/Info : UTF-8 Plain Text$ ?9 d$ n$ L) M" u
  344. Duration : 42 min 51 s, I& |7 m  Z" c' ?; S4 H
  345. Bit rate : 75 b/s
      i7 m& G& ]: f' n9 D
  346. Count of elements : 5503 Z6 X4 x2 M$ Q7 x( ~
  347. Stream size : 23.8 KiB (0%); i+ }. r$ i* k
  348. Title : Hebrew$ ?$ }! U3 G7 B" G1 V; L: A; j
  349. Language : Hebrew4 h5 u0 y0 G, L7 H' z+ U- ?
  350. Default : No  g! ~5 `1 |8 Q8 f
  351. Forced : No  Y7 i$ h6 p, c4 m

  352. 1 v8 p! u% E* M1 f; q
  353. Text #21
    : C% l' l  p( N
  354. ID : 24, X( N* T/ ]. |! s# q
  355. Format : UTF-8: _! I9 @1 U; }' R
  356. Codec ID : S_TEXT/UTF8
    0 i0 l+ L. X2 ]$ E0 t: K
  357. Codec ID/Info : UTF-8 Plain Text4 [8 w- u' o6 p7 F( M! k4 K2 f
  358. Duration : 42 min 51 s& @4 y  k# I' G9 ^
  359. Bit rate : 88 b/s: r8 w+ {; K. v( ]
  360. Count of elements : 5251 r1 z$ g. q: k; B
  361. Stream size : 27.7 KiB (0%)
    , Z* w5 \" o9 ?: C- k8 P
  362. Title : Arabic) J- y1 f) E/ A3 z1 l
  363. Language : Arabic
    4 [2 i5 L9 c6 S, @8 d5 M
  364. Default : No
    0 O$ E4 }5 T# c7 p+ v# u
  365. Forced : No
    % r7 A. E! F4 M: S7 v" b) b' S
  366. , I) |0 h7 s! ?
  367. Text #22+ H3 I( u$ S1 H! h8 m. R; q
  368. ID : 25
    - U0 }* \# {" L7 T5 j. b
  369. Format : UTF-8
    0 ^, v4 o' f, M
  370. Codec ID : S_TEXT/UTF83 `5 E: M0 d6 B* K; q) G: ]
  371. Codec ID/Info : UTF-8 Plain Text1 L, l, U  L1 d# Y3 k8 m
  372. Duration : 42 min 51 s4 V! c+ S4 k8 ?/ c. B; i
  373. Bit rate : 56 b/s* r* c3 I8 ^. n
  374. Count of elements : 5256 D+ \& Q6 p  Q: \- y
  375. Stream size : 17.6 KiB (0%)6 o3 @0 m& |% I2 Z0 _$ O- K3 l) q. s! N& I
  376. Title : Romanian
    ; a) r# g+ n- L, b
  377. Language : Romanian
    5 x; J7 t/ v4 c# ?
  378. Default : No
    - h* v0 J& y3 W' x' F8 {2 b9 E6 I
  379. Forced : No) w. S' T4 N8 S) k( v3 x" C

  380. $ o% O6 ?. v; D2 X
  381. Text #23/ Q6 U  r1 I8 x
  382. ID : 267 g, y4 Y) ^: n3 b/ ~. @& g
  383. Format : UTF-85 H# n. R# z1 ^& t. P$ N* O/ I
  384. Codec ID : S_TEXT/UTF85 F7 ^+ E% Z/ K, p6 t: }& E3 l2 [' H
  385. Codec ID/Info : UTF-8 Plain Text
    ' `( G7 L( B( _7 d2 x9 v- E9 ]0 i
  386. Duration : 46 min 44 s* x7 x1 i5 M. c& B
  387. Bit rate : 46 b/s
    1 Q" N: c. {$ {7 y' E5 w
  388. Count of elements : 552* Q" Y" u, z  X* O+ X7 R) m2 I, A1 a
  389. Stream size : 16.1 KiB (0%)
    % z8 V; A5 c9 _# l  ]" C9 w2 M
  390. Title : Czech
    4 j$ I  {9 p8 a" b. H* |
  391. Language : Czech
    9 [% @9 c) K1 s/ G
  392. Default : No
    - j: h0 H( h8 r# J* O( ^. X
  393. Forced : No# C/ m5 k) J+ U5 J) C5 @
  394. 7 w" @( [3 M1 S
  395. Text #24
    ( O+ {9 Q0 k  C
  396. ID : 27
    2 p7 R3 z: N' B( {0 N
  397. Format : UTF-8
      r. M- @5 m( P8 \- X3 ~; b% c$ w) x
  398. Codec ID : S_TEXT/UTF8
    ) c5 x  N  H) |( [4 _! S7 u
  399. Codec ID/Info : UTF-8 Plain Text
    1 S3 D/ R) l: ?( `: d' H/ x9 o
  400. Duration : 46 min 44 s
    3 \+ U2 n6 s) C) _& B' U
  401. Bit rate : 43 b/s% {4 p* F0 t- l' A* e; C' [
  402. Count of elements : 525% T0 z' ?0 W& _9 N& T& O% d0 t
  403. Stream size : 15.0 KiB (0%)4 s  F. \# J$ u3 z- ]
  404. Title : Indonesian
    2 O; g, c- Z" S
  405. Language : Indonesian
    1 T6 C; Y( P  [" u! P1 H
  406. Default : No8 ?' K; Q9 t  O1 L+ n
  407. Forced : No
    9 `! H( Z2 ~, _" J) s2 H
  408. : J3 ]4 ?4 g- z9 L2 ?" E* T8 k
  409. Text #25
    . F# x* _# L: Y8 x( }( E; J" A
  410. ID : 28( F# W/ x. X- i" A9 o7 J
  411. Format : UTF-8
    8 |) e9 a0 s8 ~/ Y1 k: C
  412. Codec ID : S_TEXT/UTF81 v& N* O# v( s7 V
  413. Codec ID/Info : UTF-8 Plain Text
    / o4 [3 J( g7 ]1 }% d, I+ ?
  414. Duration : 42 min 51 s
    ; J4 V1 i# S- H1 n/ E
  415. Bit rate : 68 b/s- t5 f5 m) @7 s8 I4 C3 _
  416. Count of elements : 524# W! M" O& O4 B4 J
  417. Stream size : 21.7 KiB (0%)
    . D/ t% i$ P) D
  418. Title : Vietnamese
    4 `1 u0 I2 z- s
  419. Language : Vietnamese
    % D! o2 U# I/ I; h- t1 m, C4 w
  420. Default : No
    7 A/ w: R8 m% ~$ ]* m$ f5 X- |" w
  421. Forced : No
    * N% {  g( i' \8 H4 t# H$ d. \) }

  422. 1 A- D. A# @1 e; B& h! p
  423. Text #267 Z# C1 J+ S! N4 f4 t2 j, P
  424. ID : 29
    8 s+ k# E1 U1 l. y  l7 `1 W9 p
  425. Format : UTF-8
    0 M( s* I0 N  u" N
  426. Codec ID : S_TEXT/UTF8
    3 M0 ]$ w+ q4 H0 e6 N" g, B# a
  427. Codec ID/Info : UTF-8 Plain Text* n( q1 k' B/ V2 M
  428. Duration : 42 min 51 s
    9 G) S: f4 t; ]
  429. Bit rate : 142 b/s0 A* @0 x. E8 s5 T9 Y! |
  430. Count of elements : 567- N7 T' C# X6 i% Y0 a. X- Q
  431. Stream size : 44.8 KiB (0%)
    2 W0 h- I" D2 X( u! A$ L
  432. Title : Thai% g! J5 e2 r; \3 k2 p% x5 G8 `# G! ~
  433. Language : Thai
    ( k- I( A- @9 C! ?& c9 ?8 v
  434. Default : No
    ( q2 f$ O* g9 F) P% K2 r' L8 J. P
  435. Forced : No- H( b/ e3 e1 Y( k% h! d) i

  436. / O( o. H/ I7 n! g% c6 z/ G
  437. Text #27& B' p. ~9 f4 N3 i) H( m7 E
  438. ID : 302 g: V7 R1 @( A+ k* t# @
  439. Format : UTF-8
    , t. B3 w+ I$ K, l
  440. Codec ID : S_TEXT/UTF8
    ' C# z+ \! a9 `1 t; e  w5 b2 Z' ]
  441. Codec ID/Info : UTF-8 Plain Text
    7 I9 D1 p+ H$ n# q
  442. Duration : 44 min 46 s. O/ d. s( E6 e; D+ ?0 J
  443. Bit rate : 65 b/s6 M. K6 w3 n) N3 |5 v" k9 A
  444. Count of elements : 5562 s& ~; [* @/ a# p( P; p
  445. Stream size : 21.3 KiB (0%)' d- ^6 A( s9 t% V3 E5 C& a
  446. Title : Korean) w' G4 D3 |* t# d& w6 E1 i/ R1 M
  447. Language : Korean
    6 T  q6 B+ [. g
  448. Default : No9 }  M# Q/ D, Q
  449. Forced : No% b) `0 C6 l! \; n$ `; d

  450. ) ?+ g* u* X& f: P2 ^& F
  451. Text #28
    ; |" c1 i1 X3 M: `9 V! n5 z5 Z
  452. ID : 31+ ]  K% o4 o. U5 Q+ j$ m
  453. Format : UTF-81 N3 g; _) q5 O4 L: S$ X! n, }
  454. Codec ID : S_TEXT/UTF8
    ' ^( {, N" P2 Q7 Y7 U! S/ o
  455. Codec ID/Info : UTF-8 Plain Text
    1 u( W2 x9 f$ g4 b
  456. Duration : 42 min 51 s5 m# D! ], T& W" e
  457. Bit rate : 53 b/s. h' P) |" h# n' X# b7 J6 s, K
  458. Count of elements : 5669 P5 i9 Y0 B+ w8 l6 f( o+ z
  459. Stream size : 16.7 KiB (0%)
    - s& ]- m2 ~2 l! K1 n  |
  460. Title : Chinese (Simplified)
      l6 Y9 b, r( f
  461. Language : Chinese
    + B8 B5 e( y) H" e) k6 }
  462. Default : No
    ' B* U/ G2 I9 @7 ~" B1 W' t  K
  463. Forced : No
    1 l0 T; s( F  y' O
  464. . n5 Q0 h5 Y" a
  465. Text #29: y. Q6 I" E* X+ K9 w; I
  466. ID : 32
    : `# z# l0 X5 r5 v1 P" m* G* l
  467. Format : UTF-8
    3 `" a5 T0 }% F
  468. Codec ID : S_TEXT/UTF8. u- A( G6 v4 l! L. n/ J7 P
  469. Codec ID/Info : UTF-8 Plain Text/ W3 Q: i; y; ^8 D
  470. Duration : 42 min 51 s
    6 J- h7 J" P( m: M  D
  471. Bit rate : 52 b/s1 `$ V3 ?6 E  b: L. y
  472. Count of elements : 516
    & ^- c' F$ O- K; Q  e- ^
  473. Stream size : 16.5 KiB (0%), s0 ~# g" o9 x* ]- k) O! `, }
  474. Title : Chinese (Traditional)
    ; T3 a8 y9 l) w
  475. Language : Chinese
    2 W9 _7 c' D/ a  P5 t! ~
  476. Default : No
    . ~- t: Z, P6 E" R% ]: g
  477. Forced : No3 o6 }1 G. M% j) g' m5 K

  478. & j7 }& o9 H: Q* g
  479. Text #30+ e4 f. Y" I: z4 B8 a% n5 B' b
  480. ID : 33$ J! I$ Z' \6 ~) x" Q5 @# q  }
  481. Format : UTF-8' m, t# {. P. {) i. k. F5 J5 }, B) l
  482. Codec ID : S_TEXT/UTF8
    5 M% V, L: m, F+ l
  483. Codec ID/Info : UTF-8 Plain Text
    % l% T1 q# f& a# I: {4 h
  484. Duration : 46 min 38 s
    7 b. y6 m- @6 x+ i2 M
  485. Bit rate : 95 b/s7 n' P2 R& t7 _/ }: A7 i' I
  486. Count of elements : 721
    0 {8 R" Z  z  l( e# y- N$ m4 n
  487. Stream size : 32.6 KiB (0%)
    $ Z9 T  ]2 N! P6 x
  488. Title : Japanese [SDH]
    7 P7 b; h. n! {
  489. Language : Japanese
    1 a2 c9 G$ o) G1 @4 X- }6 \4 y
  490. Default : No2 Q5 a0 @6 r0 Q& D0 M
  491. Forced : No
复制代码

) O6 z4 h. {* l5 n7 A$ j! i4 u- C6 E. e+ B1 j7 q; O. O
7 g& O# o- x, u- ]# R

7 u* k) U0 x) f; i1 L- O7 u9 ]- z$ A/ {" `
游客,如果您要查看本帖隐藏内容请回复  VIP可免回复查看隐藏内容 详情请点击
发表于 2019-8-10 11:18:10 | 显示全部楼层
百兽之王芹泽多摩雄怎么不打架了
发表于 2019-8-12 17:30:55 | 显示全部楼层
感谢分享!据说国配版的也出来了!!
发表于 2019-8-12 22:42:22 | 显示全部楼层
谢谢楼主分享
* o+ k: W, z& ~
发表于 2019-8-13 16:42:26 | 显示全部楼层
標題很有吸引力,有助於了解日本的相關拍攝過程
发表于 2019-8-13 19:25:31 | 显示全部楼层
好想找一个35G的版本啊
发表于 2019-8-16 18:17:11 | 显示全部楼层
谢谢楼主提供分享,辛苦了
发表于 2019-8-25 11:42:08 | 显示全部楼层
谢谢楼主分享
发表于 2019-8-28 20:38:11 | 显示全部楼层
抱着学习的心态观摩
您需要登录后才可以回帖 登录 | 立即注册

本版积分规则

QQ|封号公示|手机版|有问题发邮件到admin#(换成@)hd1tj.org|微博|免责申明|HD一条街

GMT+8, 2020-1-28 03:16

快速回复 返回顶部 返回列表