HD一条街

 找回密码
 立即注册
搜索
查看: 65|回复: 3

[MV] [MV] GD & TOP - Knock Out (GomTV 1080p) 261M

[复制链接]
发表于 2019-6-29 22:43:51 | 显示全部楼层 |阅读模式

马上注册,结交更多好友,享用更多功能,让你轻松玩转社区。

您需要 登录 才可以下载或查看,没有帐号?立即注册

x

- f  y3 A3 q7 M; w( ^, k                               
登录/注册后可看大图
$ q# \; p" p7 J# k, ^2 O
% w9 s' X6 e; |9 D* u
                               
登录/注册后可看大图

, @8 y1 F: R. b
' v5 B6 h- V0 C' N7 d
                               
登录/注册后可看大图

! {. u. h! U* N( F- t4 d& |
7 M+ p9 F2 g! H. M
  1. General
    # _8 P' V( j- w3 D
  2. Format : AVI
    " N0 \' U/ P( Z: T- t! ~
  3. Format/Info : Audio Video Interleave+ R8 v. m1 H1 g: |  m+ T0 f3 i
  4. File size : 261 MiB
    ' E8 Y2 z  `" M) N4 m
  5. Duration : 3 min 32 s
    7 ^7 t7 g9 f- b# I" W7 B5 G
  6. Overall bit rate : 10.3 Mb/s" {2 T# N9 `  {" b9 v  h1 k
  7. Writing application : GOM ENCODER (GAviWriter 1.0)
    * D' W# w# j! r9 w3 f9 ~% i8 R6 ~

  8.   o- f. r  L& D/ P% V$ F- D
  9. Video, e9 L  {( w+ ]
  10. ID : 0
    6 l# \. h7 O( Z/ m
  11. Format : MPEG-4 Visual% [  c# q. j3 V5 R7 S# U2 d) Y
  12. Format profile : Simple@L1
    3 A! f& z$ M# {
  13. Format settings, BVOP : No/ L' b$ R! k" e- \, l0 b: ?. a
  14. Format settings, QPel : No
    5 v4 L" E6 m9 I+ B
  15. Format settings, GMC : No warppoints
    # D- V5 |" Y8 C( h9 h/ V3 ~
  16. Format settings, Matrix : Default (H.263)
    $ p* K5 i! F2 I4 P
  17. Codec ID : XVID' P$ W: |# W9 `, h  T0 F, O8 N
  18. Codec ID/Hint : XviD
    8 h- p; w( ^2 p1 z( ?! m3 g# y
  19. Duration : 3 min 31 s; T& |' J+ u' ^6 g9 B
  20. Bit rate : 10.0 Mb/s6 V7 G" h# V# `3 t' a# o/ W8 s# C
  21. Width : 1 920 pixels
    1 |' M0 z  m6 @% H! b6 i
  22. Height : 1 080 pixels7 E+ M7 Z# t/ P1 P# ]9 h0 b5 I/ I
  23. Display aspect ratio : 16:9: q8 i$ a# o4 H6 @( f
  24. Frame rate : 23.976 (24000/1001) FPS
    6 F$ _0 H  D7 c  ^0 |( O/ b% d6 Q* B
  25. Color space : YUV% k: i& Y5 I, k" M! a) g
  26. Chroma subsampling : 4:2:0( Y. {5 r" N) b
  27. Bit depth : 8 bits% Z) m: T; q/ z6 e  w! L9 Y) d
  28. Scan type : Progressive
    2 ^: {' ^1 o. l4 v  D8 I3 w3 B
  29. Compression mode : Lossy) n/ b2 A( V5 z( W1 ?7 e- L5 R
  30. Bits/(Pixel*Frame) : 0.201
    ) A' K# V% A0 f
  31. Stream size : 253 MiB (97%)% ~3 t  R( j. r
  32. Writing library : Lavc52.10.0: e1 O8 a5 x5 i- S3 [/ R- ~4 X7 {
  33. * H6 ^$ I! X) x+ [2 J* V# i
  34. Audio
    " s. e( l$ t; G$ i/ t2 C
  35. ID : 1) G+ q7 d% ~1 x2 F) E
  36. Format : MPEG Audio
    ! }6 H  K( Y' ?: @, u& a
  37. Format version : Version 15 @( I% N' p. Q5 I/ N2 R; d. n- w
  38. Format profile : Layer 39 d/ m- W. \- t6 _' S
  39. Format settings : Joint stereo / MS Stereo6 p  Q5 @! D! q* `2 U0 z# e
  40. Codec ID : 552 ?  G+ B3 {3 R7 k$ `* |( |
  41. Codec ID/Hint : MP3. J; |2 A3 D; F# S' O
  42. Duration : 3 min 32 s; R  L: u, z1 {4 L1 ^$ _
  43. Bit rate mode : Constant
    - m7 Z9 F! L, [0 ?; B
  44. Bit rate : 320 kb/s; w9 }, d) ^6 ^
  45. Channel(s) : 2 channels3 {, Z9 O' V' X9 h  R
  46. Sampling rate : 44.1 kHz
    . {$ K4 y* j# q' S( y* `/ R# M0 N
  47. Compression mode : Lossy
    ) n$ D8 v* x- T
  48. Stream size : 8.09 MiB (3%)
    3 P2 l- \9 D: V9 |' z' \% l
  49. Alignment : Aligned on interleaves$ Y; t/ |! C# {! D7 f* B
  50. Interleave, duration : 26 ms (0.63 video frame)
    " q5 B# e! a5 \- H& Q
  51. Interleave, preload duration : 52 ms
    : n- Y- y, i9 j
  52. Writing library : LAME3.97 (beta)
复制代码
  E% a8 B5 n% R* K

  R/ e- h8 e7 b$ |; N! `
郑重声明:
( M/ A6 t5 ?# Y" M本站提供的所有影视综艺作品均是在网上搜集,任何涉及商业盈利目的均不得使用,否则产生的一切后果将由您自己承担!本站将不对本站的任何内容负任何法律责任!该下载内容仅做宽带测试使用,请在下载后24小时内删除。请购买正版!
  f3 n+ v1 A: N2 V1 y2 n7 B: p
' p8 Y3 }6 \4 G
* W5 C- W/ Q6 U
百度网盘
% @3 w! W7 ^9 u$ z0 S3 i; t# W
- c6 s( g' f5 {- E& n. P* W8 t3 e
游客,如果您要查看本帖隐藏内容请回复  VIP可免回复查看隐藏内容 详情请点击
发表于 2019-6-30 07:55:18 | 显示全部楼层
还是老歌经典啊
发表于 2019-7-2 21:28:32 | 显示全部楼层
always good sharing
发表于 2019-10-15 02:32:07 | 显示全部楼层
thank for share
您需要登录后才可以回帖 登录 | 立即注册

本版积分规则

QQ|封号公示|手机版|有问题发邮件到admin#(换成@)hd1tj.org|微博|免责申明|HD一条街

GMT+8, 2020-7-4 12:23

快速回复 返回顶部 返回列表