HD一条街

 找回密码
 立即注册
搜索
查看: 59|回复: 2

[MV] [MV] Orange Caramel - Shanghai Romance (GomTV 1080p) 283M

[复制链接]
发表于 2019-6-29 22:21:16 | 显示全部楼层 |阅读模式

马上注册,结交更多好友,享用更多功能,让你轻松玩转社区。

您需要 登录 才可以下载或查看,没有帐号?立即注册

x

1 \' N0 I' {; S3 T/ s                               
登录/注册后可看大图
$ Y& J* S  B9 [

8 d" K, R" ^2 Z* C. ]7 g                               
登录/注册后可看大图
5 L5 e3 d# P% n" g  _4 H

& g$ `6 c! j3 B& w9 b( D" N                               
登录/注册后可看大图

& }: v; N' c1 ~" ?, y0 s$ s" D' e$ O* I5 Y
  1. General7 t( l- W: U  u+ q5 [: {
  2. Format : AVI7 ]1 o5 B1 w; ~) Z+ \6 o
  3. Format/Info : Audio Video Interleave
    2 n+ D* A! `* i9 }' X
  4. File size : 283 MiB  [/ V9 O. U* o. A* j5 f
  5. Duration : 3 min 48 s
    ) w3 r% o' ~' {) K
  6. Overall bit rate mode : Variable0 A, \7 A; v- K4 s3 `' d) S0 s
  7. Overall bit rate : 10.4 Mb/s+ M7 z7 J% ?3 J, I- [
  8. Writing application : GOM ENCODER (GAviWriter 1.0)
    ' c9 i# Q0 J" d6 E  J" _$ h$ @% r
  9. 6 o6 e5 j2 C( S
  10. Video
    " K( }4 u# Y3 H: k) b8 P1 |9 n
  11. ID : 0
    5 \& T- b) P' Q, A
  12. Format : AVC
    7 Q1 a7 n2 p% _. j: u5 X
  13. Format/Info : Advanced Video Codec
    " D6 Q5 d1 G: B! I( q" {: V
  14. Format profile : Main@L4.12 Z9 n8 \2 e  K0 Q! k# d
  15. Format settings : CABAC / 1 Ref Frames  [. P. E4 e& R6 G6 S6 E" }
  16. Format settings, CABAC : Yes  B" {3 I8 n2 F, x+ b
  17. Format settings, ReFrames : 1 frame; A$ D1 y( n" A2 s: v; X
  18. Codec ID : H2641 V. b4 t5 A5 P5 b4 ^& |
  19. Duration : 3 min 48 s! y7 k& h# |* G* q
  20. Bit rate : 10 000 kb/s
      \, g  k7 U4 I" D! y: |8 V
  21. Width : 1 920 pixels# b& v$ u/ c8 e9 }
  22. Height : 1 080 pixels
    ; x# i* h. ^  b$ e2 t/ _
  23. Display aspect ratio : 16:9: t( Y2 t& I+ h0 y
  24. Frame rate : 23.976 (24000/1001) FPS
    6 s4 @* N& I+ C  R9 [
  25. Original frame rate : 23.976 (23976/1000) FPS
    8 H, _3 ^) a8 O3 [
  26. Color space : YUV
    0 Q% b/ _& b: I6 J9 q
  27. Chroma subsampling : 4:2:0
    9 e  B3 I  s* ^& @
  28. Bit depth : 8 bits6 d4 H/ a% Q* [# e5 Z: e
  29. Scan type : Progressive6 V; x1 z+ T( W* f' ]2 B
  30. Bits/(Pixel*Frame) : 0.201; ?) t# a8 p& P* c3 ~) ^2 G) d
  31. Stream size : 275 MiB (97%)0 w( p% L9 X0 K. u
  32. Writing library : x264 core 1505078608 ?& l9 ~* a3 o. i" t
  33. Encoding settings : cabac=1 / ref=1 / deblock=1:0:0 / analyse=0x1:0x111 / me=hex / subme=5 / brdo=0 / mixed_ref=0 / me_range=16 / chroma_me=1 / trellis=0 / 8x8dct=0 / cqm=0 / deadzone=21,11 / chroma_qp_offset=0 / slices=4 / nr=0 / decimate=1 / mbaff=0 / bframes=0 / keyint=239 / keyint_min=1 / scenecut=40 / rc=abr / bitrate=10000 / ratetol=1.0 / rceq='blurCplx^(1-qComp)' / qcomp=0.50 / qpmin=10 / qpmax=40 / qpstep=4 / ip_ratio=1.40
    $ R$ X( K% c7 ^. y7 [" m

  34. * H& d. y$ _! X* s+ @* ^
  35. Audio
    3 C5 M0 ]* F! E% m
  36. ID : 1
    " @3 @1 ?" U/ p
  37. Format : MPEG Audio
    3 f1 }9 b; j5 y& p: Z( z: r3 h
  38. Format version : Version 1$ t9 p) }/ N8 y3 l8 R3 J# ^5 L# q
  39. Format profile : Layer 3: b5 J2 M& E5 D! a7 M
  40. Format settings : Joint stereo8 i0 E2 ?5 ~/ A5 K/ R# H
  41. Codec ID : 55
    ) D9 ^5 R2 X6 d% D9 J, J% B
  42. Codec ID/Hint : MP3
    : ]  N8 ?$ C' a' w2 l1 V
  43. Duration : 3 min 48 s* p5 R, h! {9 X$ A& L0 j
  44. Bit rate mode : Variable
    1 ?$ c7 x9 q% p+ o# x. l8 N" P
  45. Bit rate : 288 kb/s
    4 i, C/ A+ D- w8 a
  46. Channel(s) : 2 channels5 z( Q4 b* {; A: F3 {( V5 O
  47. Sampling rate : 44.1 kHz
    - U6 _( \$ z* M
  48. Compression mode : Lossy
    # G! \8 \, E, _$ x
  49. Stream size : 7.84 MiB (3%)( A2 O: w1 g7 E; A4 c
  50. Alignment : Aligned on interleaves# x, I2 z# ?5 U+ ?9 M8 V' n$ x5 J0 B
  51. Interleave, duration : 26 ms (0.63 video frame)
    # @% J$ |( M+ X6 Y  b- \) A! [
  52. Interleave, preload duration : 2 ms0 w6 c3 ~3 I8 p/ \' C" {! _' e
  53. Writing library : LAME3.98.4
复制代码
! L0 }* f6 }8 X4 o

7 |, L* q5 c, H( y6 m4 W% N( t# e7 K$ }5 W1 c
郑重声明:
5 e0 }; W/ H& Z, L5 Q! \; U本站提供的所有影视综艺作品均是在网上搜集,任何涉及商业盈利目的均不得使用,否则产生的一切后果将由您自己承担!本站将不对本站的任何内容负任何法律责任!该下载内容仅做宽带测试使用,请在下载后24小时内删除。请购买正版!
8 ~- H3 C( Y( H* O9 m9 Q

3 B& Y$ _' O7 J& [
3 I' F+ k- Q: X2 O  u百度网盘9 P( O6 d* A) n1 ?
6 h0 t! X. b! A# ?! B& h$ L! Z
游客,如果您要查看本帖隐藏内容请回复  VIP可免回复查看隐藏内容 详情请点击
发表于 2019-7-2 08:15:16 | 显示全部楼层
这个组合现在也解散了吧
发表于 2019-9-14 10:54:54 | 显示全部楼层
最喜欢看这类型节目
您需要登录后才可以回帖 登录 | 立即注册

本版积分规则

QQ|封号公示|手机版|有问题发邮件到admin#(换成@)hd1tj.org|微博|免责申明|HD一条街

GMT+8, 2020-7-13 06:34

快速回复 返回顶部 返回列表