HD一条街论坛

 找回密码
 限时注册
搜索
查看: 177|回复: 12

[欧美] 纪录片:王朝 全5集 Dynasties.UK.S01.1080p.BluRay.x264-SHORTBREHD 21.86G

[复制链接]
发表于 2018-12-3 13:41:51 | 显示全部楼层 |阅读模式

4 G  [, w2 T7 \4 \                               
登录/注册后可看大图
0 W, L) b, k% G. M9 B
" t) q0 ?% |7 u+ [1 R! b
◎译  名 王朝 / The Rise and Fall of Animal Families0 H7 r. Q8 Z5 T& ?
◎片  名 Dynasties7 J$ A% _, X9 k+ X- |* e* w+ e
◎年  代 2018
8 O$ c; T. A7 e' Q◎产  地 英国( G0 W' p. o& x) C
◎类  别 纪录片2 o& C" i6 G0 @
◎语  言 汉语普通话 / 英语, c  x- v8 Z- T
◎上映日期 2018-11-12(中国大陆)1 D- v  T$ V2 W$ J0 f) i5 i$ f
◎IMDb评分 9.6/10 from 593 users% I4 N0 J% l# b: t
◎IMDb链接 http://www.imdb.com/title/tt9130692
: m, H8 O- l/ h9 t" a◎豆瓣评分 9.7/10 from 4812 users
  S5 f" Z' _4 u) J; B/ S◎豆瓣链接 https://movie.douban.com/subject/27182707/$ G9 K, H+ ^* @8 P" ]
◎集  数 5
) a4 K0 c0 O7 n) z◎片  长 60分钟
8 }7 f6 ?# H) M7 q  H$ w! y! Q$ o9 l◎导  演 斯蒂芬·莫斯 Stephen Moss- v" y1 h! c' j
◎主  演 戴维·阿滕伯勒 David Attenborough  u& v5 h3 J3 |3 y7 t4 ~
- b( _2 S+ ^3 D

7 M3 E. b- K$ g% }! Y0 @; i: W◎标  签 BBC | 纪录片 | ✔纪录片 | 动物 | 自然 | 英国 | 动物社会 | 20183 @( H* r2 n' q" j) l8 @- c
0 r: X: q: X( U% F6 h
◎简  介  
9 g( X1 _% c! m+ Q+ M- ~. y$ q, G8 _. Q$ `
  王朝是一个新的具有里程碑意义的系列。这个系列将记录世界上最具标志性的动物的故事,在世界最知名的地点,他们为了维系自己的王朝而努力奋斗着。在每一集里面,他们每个个体的故事都会通过激烈的、引人入胜的戏剧情节展开。/ n% y3 }) L4 q% Q3 L: U
  1. Video
    & ?. p' t9 m8 `0 _, K
  2. ID : 18 U' r$ x' [. J% J( R) E3 p8 Z
  3. Format : AVC
    & D  ?- u! d' E1 e/ K  D! L
  4. Format/Info : Advanced Video Codec4 v7 Q1 b' f* r5 t1 R
  5. Format profile : [email protected]
    " A& j+ X& Q  \8 G% s
  6. Format settings : CABAC / 4 Ref Frames
    % i7 y! V+ H$ }' O
  7. Format settings, CABAC : Yes
    ; S# H- _( I  ]) f5 P' N2 {+ l" J
  8. Format settings, ReFrames : 4 frames" h' R: A/ A1 {- ^% K
  9. Codec ID : V_MPEG4/ISO/AVC4 S0 x5 b' d" B
  10. Duration : 59 min 2 s
    1 Y3 V# s  W8 Q. v
  11. Bit rate : 9 086 kb/s
    3 F' y2 |; f$ A9 F
  12. Width : 1 920 pixels
    # a$ ?$ r4 \; g; ]. G1 D  R4 B9 }
  13. Height : 1 080 pixels
    * L1 Q2 k+ |; ]: @& N$ R! d' D8 S
  14. Display aspect ratio : 16:9
    * Q, W. ?9 k3 K8 Y+ k, U6 H
  15. Frame rate mode : Constant: K: Z, e* a# U# c7 j* {! A( b
  16. Frame rate : 25.000 FPS' U( c: O! c4 \+ M1 ?7 X9 P( x
  17. Color space : YUV
    2 o3 c9 l- ^* a' j6 Y7 `
  18. Chroma subsampling : 4:2:0
    & `5 T* f2 k! n( F
  19. Bit depth : 8 bits
    8 T4 z: |2 n0 A' D5 |+ |
  20. Scan type : Progressive* M" O; h# [! |2 }" n" I# d
  21. Bits/(Pixel*Frame) : 0.175
    9 N6 S4 F! q& _/ @+ E$ _- W
  22. Stream size : 3.75 GiB (86%)1 K" K5 A1 Z" r% d9 |/ f1 S4 N
  23. Writing library : x264 core 157 r2935 545de2f2 L& V% j6 M( m- l% b" g; R- r( `
  24. Encoding settings : cabac=1 / ref=4 / deblock=1:-3:-3 / analyse=0x3:0x113 / me=umh / subme=8 / psy=1 / psy_rd=1.00:0.00 / mixed_ref=1 / me_range=32 / chroma_me=1 / trellis=1 / 8x8dct=1 / cqm=0 / deadzone=21,11 / fast_pskip=1 / chroma_qp_offset=-2 / threads=18 / lookahead_threads=3 / sliced_threads=0 / nr=0 / decimate=1 / interlaced=0 / bluray_compat=0 / constrained_intra=0 / bframes=3 / b_pyramid=2 / b_adapt=2 / b_bias=0 / direct=3 / weightb=1 / open_gop=0 / weightp=2 / keyint=250 / keyint_min=25 / scenecut=40 / intra_refresh=0 / rc_lookahead=50 / rc=2pass / mbtree=1 / bitrate=9086 / ratetol=1.0 / qcomp=0.60 / qpmin=0 / qpmax=69 / qpstep=4 / cplxblur=20.0 / qblur=0.5 / ip_ratio=1.40 / aq=3:0.80
    * S' u$ s2 V+ \7 I  p3 u
  25. Default : Yes: d/ H8 l9 ~% T1 @: L' {* H
  26. Forced : No4 {% U) w/ m6 f  U" O) R
  27. ; q3 E  C! h6 G/ _) Q8 Y: Q  v. G
  28. Audio$ s5 r- [4 y& z: c% k1 d+ [
  29. ID : 2
    % }. X5 q$ I' h1 J0 X
  30. Format : DTS
    & r" o4 s; Z4 a( A, G0 y$ A+ O
  31. Format/Info : Digital Theater Systems; U  G  J/ M! C' s2 x  B
  32. Codec ID : A_DTS
    ' m7 Y- R. r3 V, F$ r
  33. Duration : 59 min 2 s# e4 t) C' N) l6 h/ ~9 ^' s) O& {
  34. Bit rate mode : Constant3 z0 w8 \  T$ L5 H% `
  35. Bit rate : 1 509 kb/s$ s- M) n7 `# b/ ~
  36. Channel(s) : 6 channels
    0 y( u- x" t# c
  37. Channel layout : C L R Ls Rs LFE
    * b3 }" c) C" Q
  38. Sampling rate : 48.0 kHz
    6 S& R0 T# H' ?; N/ w% i
  39. Frame rate : 93.750 FPS (512 SPF)9 a, J8 H/ D6 O5 n; |
  40. Bit depth : 24 bits% ^2 j, ]3 q) g1 x& [( N6 T, a
  41. Compression mode : Lossy! `, u0 j. Y* Z- u2 s9 p
  42. Stream size : 637 MiB (14%)3 c1 m  [# [6 @2 r: @
  43. Language : English
    3 v; L7 k6 G! D4 y4 n/ E' C
  44. Default : Yes
    9 n3 A- L* F0 M, H- p. F
  45. Forced : No
    8 a1 r- j9 H/ q8 ]5 a

  46. ! {& `; s' @: u5 P: O- P
  47. Menu2 B# s/ w* u4 j0 ]% u2 `+ q1 B5 v
  48. 00:00:00.000 : en:00:00:00.000+ A# z# T4 f- v
  49. 00:10:08.360 : en:00:10:08.3609 }6 \; `. @+ e" i2 `
  50. 00:20:02.640 : en:00:20:02.640
    - w6 M; H# k+ h9 S
  51. 00:30:16.040 : en:00:30:16.040
    - u9 j1 ?, e' |- R8 B. L
  52. 00:39:53.280 : en:00:39:53.280
    , o3 N% o& O2 {: L, n. F3 w
  53. 00:49:49.000 : en:00:49:49.000
复制代码
, c6 O8 O, Z5 J# d9 g6 A

. i7 a% b# o% ^6 G9 M2 G
- f2 V, v& J4 i  ~" v, w' J' {3 S

0 A- s3 n; q9 c: X) E3 _
游客,如果您要查看本帖隐藏内容请回复  捐助论坛可免回复查看隐藏内容 详情请点击
发表于 2018-12-3 14:56:30 | 显示全部楼层
沙发啊,谢谢楼主!!!
发表于 2018-12-3 15:06:59 | 显示全部楼层
很少看纪录片的 现在看看
发表于 2018-12-3 15:21:22 | 显示全部楼层
谢谢楼主分享。
发表于 2018-12-4 11:28:16 | 显示全部楼层
好资源,谢谢了
发表于 2018-12-4 17:35:39 | 显示全部楼层
bbc出品必属精品。感谢分享
发表于 2018-12-4 20:41:14 | 显示全部楼层
多谢楼主分享,真是好资源
发表于 2018-12-4 22:00:04 | 显示全部楼层
不错 这个很好看
发表于 2018-12-5 15:34:07 | 显示全部楼层
另一个版本下载了没有国语和中文字幕,不知道这个有没有啊
发表于 7 天前 | 显示全部楼层
其实9.5分以上的纪录片并不多!
您需要登录后才可以回帖 登录 | 限时注册

本版积分规则

封号公示|手机版|Archiver|有问题发邮件到admin#(换成@)hd1tj.org|微博|免责申明|HD一条街

GMT+8, 2018-12-15 18:00

快速回复 返回顶部 返回列表