HD一条街论坛

 找回密码
 限时注册
搜索
查看: 60|回复: 5

[欧美] 纪录片:王朝 全5集 Dynasties.UK.S01.720p.BluRay.x264-SHORTBREHD 13.24G

[复制链接]
发表于 2018-12-3 13:40:47 | 显示全部楼层 |阅读模式
+ ?- w$ l' c( y; g$ e% b# Q
                               
登录/注册后可看大图

2 }. q/ P6 o( S" b  P6 Q  d3 ~* D- _
◎译  名 王朝 / The Rise and Fall of Animal Families
1 U4 s2 s* Y, |1 n1 P$ q" w* ?◎片  名 Dynasties
4 j3 ^" g/ ?7 A% q0 @( \+ J0 E◎年  代 2018$ F( R& m5 f7 l- o* w, ~
◎产  地 英国5 }! E; C! I1 v  J# `
◎类  别 纪录片
( L' P3 A3 v! Y+ D◎语  言 汉语普通话 / 英语
" @# l* V% J% F8 p◎上映日期 2018-11-12(中国大陆). e: E4 [' e6 ?( Z4 g- N' P
◎IMDb评分 9.6/10 from 593 users- A5 A& f2 ^/ a5 x" C3 t
◎IMDb链接 http://www.imdb.com/title/tt91306925 |3 B2 }! r0 Z  L
◎豆瓣评分 9.7/10 from 4812 users, M* _" ?. Y) R+ e+ F' H5 v
◎豆瓣链接 https://movie.douban.com/subject/27182707/
0 D7 r& x9 Z: I  o, t% |# s◎集  数 5; o: _4 @/ k% z3 ?3 m7 N% ^
◎片  长 60分钟
3 g% R9 Z- l) U  [# @◎导  演 斯蒂芬·莫斯 Stephen Moss
7 ]7 R) y& d# N; i7 D1 a/ v◎主  演 戴维·阿滕伯勒 David Attenborough
2 ^9 l4 x* S/ [5 y; v5 X( I/ N9 e  X: X7 H1 i5 W7 g  [% q

& B& m" S7 {' F+ k5 T: X◎标  签 BBC | 纪录片 | ✔纪录片 | 动物 | 自然 | 英国 | 动物社会 | 2018
+ R# s2 @/ Y) _6 ?9 g. t
" P. u1 @. ~7 M# N$ \& E◎简  介  ' r) y6 s; d6 a% T6 I" C

: ]# F# F0 u! Z) L- c* V* z& M  王朝是一个新的具有里程碑意义的系列。这个系列将记录世界上最具标志性的动物的故事,在世界最知名的地点,他们为了维系自己的王朝而努力奋斗着。在每一集里面,他们每个个体的故事都会通过激烈的、引人入胜的戏剧情节展开。% d2 g9 n& M7 ~* f# @
  1. Video
    / C/ g0 Y1 T  N) \. g
  2. ID : 1) p1 M0 B# ]: K' l/ X
  3. Format : AVC
    % r$ H2 ~: E* B$ X& \5 b$ y
  4. Format/Info : Advanced Video Codec
    ' A2 e( J; i* H& I, h/ `7 [
  5. Format profile : [email protected]
    % u) Y! B( X6 g1 i% m
  6. Format settings : CABAC / 5 Ref Frames/ v, M* G) N; ?/ L6 N% _% j  U
  7. Format settings, CABAC : Yes
    9 ]5 k3 ]5 S$ n2 S
  8. Format settings, ReFrames : 5 frames! ?. N7 }. p" _: ]8 z6 F
  9. Codec ID : V_MPEG4/ISO/AVC
      T; a4 D& r% n! D" I
  10. Duration : 57 min 49 s( O9 f7 a4 r4 g2 c( o  @
  11. Bit rate : 5 039 kb/s
    4 M0 C/ N8 o' A; B& g( F/ H
  12. Width : 1 280 pixels2 p( f& }( \2 s% q( l- g% c
  13. Height : 720 pixels* f8 T( {- k  S
  14. Display aspect ratio : 16:9
    / i7 h' R0 a  \7 A
  15. Frame rate mode : Constant* c; g2 |1 y4 L; F
  16. Frame rate : 25.000 FPS
    ; n" \& F. C: k
  17. Color space : YUV
    % V& V3 o* M* h) j7 t: V6 H) x
  18. Chroma subsampling : 4:2:08 ?& r3 m) I7 G' u& _/ ?+ C
  19. Bit depth : 8 bits; w: E- G3 Y2 Q' D8 Z! ^! W
  20. Scan type : Progressive
    * `* \& e, O  H# B" N2 g) {
  21. Bits/(Pixel*Frame) : 0.219* Z1 S" T6 p/ p9 a
  22. Stream size : 2.04 GiB (77%)
    7 l6 D* D3 Z( N1 \( r
  23. Writing library : x264 core 157 r2935 545de2f* B6 ]0 [( ?/ h6 ^% @
  24. Encoding settings : cabac=1 / ref=5 / deblock=1:-3:-3 / analyse=0x3:0x113 / me=umh / subme=8 / psy=1 / psy_rd=1.00:0.00 / mixed_ref=1 / me_range=24 / chroma_me=1 / trellis=1 / 8x8dct=1 / cqm=0 / deadzone=21,11 / fast_pskip=1 / chroma_qp_offset=-2 / threads=18 / lookahead_threads=3 / sliced_threads=0 / nr=0 / decimate=1 / interlaced=0 / bluray_compat=0 / constrained_intra=0 / bframes=3 / b_pyramid=2 / b_adapt=2 / b_bias=0 / direct=3 / weightb=1 / open_gop=0 / weightp=2 / keyint=250 / keyint_min=25 / scenecut=40 / intra_refresh=0 / rc_lookahead=50 / rc=2pass / mbtree=1 / bitrate=5039 / ratetol=1.0 / qcomp=0.60 / qpmin=0 / qpmax=69 / qpstep=4 / cplxblur=20.0 / qblur=0.5 / ip_ratio=1.40 / aq=3:0.80
    4 H* d! D. M) ~4 s" m  ]
  25. Default : Yes
    - A$ w0 ~0 s5 k3 O
  26. Forced : No9 M: K! Z0 V6 V6 m8 ^
  27. 2 h: T# e" ]- `5 N+ g' S
  28. Audio7 O) ~" s4 d9 R* f$ ?9 u- D: A
  29. ID : 2
    % k1 Z( f0 |4 S. R
  30. Format : DTS% `3 U( A" Y; }9 ^4 l
  31. Format/Info : Digital Theater Systems
    0 _% N; y; v. o8 ?  m! B1 l) X/ z
  32. Codec ID : A_DTS
    - m. W5 Q& ~$ d% x
  33. Duration : 57 min 49 s; m9 O; ?/ ]0 L5 Y8 n
  34. Bit rate mode : Constant
    1 n" e! Z$ |8 m8 d; T& y' O
  35. Bit rate : 1 509 kb/s
    / e9 v' C  o( W2 Z/ J
  36. Channel(s) : 6 channels4 c8 a4 o! r3 y
  37. Channel layout : C L R Ls Rs LFE
    2 c. |3 N+ V/ N! B
  38. Sampling rate : 48.0 kHz
    1 `! l- _8 O% X" B! C9 \6 L% T6 z
  39. Frame rate : 93.750 FPS (512 SPF); s8 x  ?" E0 Z- Y( F
  40. Bit depth : 24 bits
    & W2 U0 c9 O. o+ z
  41. Compression mode : Lossy
    6 }( u$ {# B& h% w/ I7 A! w+ x
  42. Stream size : 624 MiB (23%)% t( o! k6 e( c: F) t0 m$ A$ S1 h
  43. Language : English
    $ Y9 J  d1 s, [) L
  44. Default : Yes
    " p) k. n) W) S3 O
  45. Forced : No  ^$ T7 m1 L! \3 Z+ ^7 h5 S. `  u
  46. 8 Z$ C% H# O3 o/ U7 c
  47. Menu2 A# s+ i0 U5 a
  48. 00:00:00.000 : en:00:00:00.000
    ( z! S! F3 y. n$ J
  49. 00:09:54.440 : en:00:09:54.440
    6 A( V; {9 |( [! X  @
  50. 00:19:44.120 : en:00:19:44.120/ k% {1 p! r% G# a* u/ U: e5 T; Q
  51. 00:29:22.040 : en:00:29:22.040
    ) n  H. C/ {9 B0 h4 ?/ z- E
  52. 00:40:26.240 : en:00:40:26.2406 k9 }# L1 w3 }+ ~7 L
  53. 00:48:43.000 : en:00:48:43.000
复制代码

* h  V! {  P; z  V5 S6 j0 e9 d$ ~) G5 h; s* d& ?7 g" O, h/ k* D, B( G# V7 y
" L' m. R5 p7 ~9 ~* ^

! q# H4 w8 h& z( [; S  `+ A5 V. [
% ?2 X" u$ e1 r6 Q
5 z; m9 l  X4 \
游客,如果您要查看本帖隐藏内容请回复  捐助论坛可免回复查看隐藏内容 详情请点击
发表于 2018-12-3 14:58:57 | 显示全部楼层
Thanks for sharing
发表于 2018-12-3 18:41:42 | 显示全部楼层
谢谢楼主分享
发表于 2018-12-4 15:06:45 | 显示全部楼层
这个太好了,感谢分享,在网上好几天都没找到质量好的资源,再次感谢
发表于 2018-12-5 15:30:58 | 显示全部楼层
为什么我下载以后,只有英文原声和英文字幕?没有国语配音和中文字幕啊~~~~
发表于 前天 17:11 | 显示全部楼层
挺不错的纪录片,值得看
您需要登录后才可以回帖 登录 | 限时注册

本版积分规则

封号公示|手机版|Archiver|有问题发邮件到admin#(换成@)hd1tj.org|微博|免责申明|HD一条街

GMT+8, 2018-12-15 17:29

快速回复 返回顶部 返回列表