HD一条街论坛

 找回密码
 限时注册
搜索
查看: 116|回复: 4

[欧美] 纪录片:爱犬情深 第一季 Dogs.S01.1080p.NF.WEBRip.DD5.1.x264-PiA 13.79G

[复制链接]
发表于 2018-11-18 11:43:23 | 显示全部楼层 |阅读模式

$ u1 I9 d* ~9 ?: ^) E" a4 {- q                               
登录/注册后可看大图
  z6 e  e  m* I9 k# H
1 [0 i& |; ?$ P
◎译  名 爱犬情深 第一季 / 挚狗伴我行(台) / 犬无二心(港)9 Q/ H  O7 R0 S5 ]4 ]+ F7 J
◎片  名 Dogs Season 1
5 Y2 A: \; S$ C3 c4 h◎年  代 2018% }4 @; `' o5 I3 P) V
◎产  地 美国: c. ~$ Q7 R% h
◎类  别 纪录片
! E% r+ \0 J! O& J◎语  言 英语& J, R% W2 D' W( h, }* A
◎上映日期 2018-11-16(美国)
; M: K" m) O6 V" ?9 w* J) I◎IMDb评分 9.2/10 from 18 users
- q9 F; E( O/ v& r: Z◎IMDb链接 http://www.imdb.com/title/tt9199798: d9 X. j8 Y2 w/ G, }0 E
◎豆瓣评分 0/10 from 0 users
5 z7 P, t& `+ S  T6 p; w: ?◎豆瓣链接 https://movie.douban.com/subject/30365359/% T+ q. Z7 x  @7 O
◎集  数 6, x# H- E3 k2 n
◎导  演 Glen Zipper. B9 v: E2 s+ U) |  w
◎编  剧 Glen Zipper
; S3 `" `; f/ G7 |
# K  J) F2 X* N8 u" U' U* v0 @◎标  签 纪录片 | 狗 | 美国 | NETFLIX | 狗党站起来 | 动物 | 狗狗 | 剧- c' x5 Z% ]" [. z7 q& Z

  E& r# M9 L) s◎简  介  3 n6 d/ r! e& h! w6 \
4 p3 H7 h& i7 v+ I1 r0 B3 O1 J
  这是一部感人、触动人心的纪实系列纪录片,颂扬人类与四条腿挚友之间深层次的情感联系。该剧集跟踪拍摄了来自全球各地(包括叙利亚、日本、哥斯达黎加、意大利和美国)的六个不可思议的故事,每个故事都证明了一个暖心的真理:狗对主人的爱是无条件的。本剧由备受赞誉的导演执导,他们分别为:荣获奥斯卡金像奖提名的艾米·博格(《驱魔警探》)、荣获奥斯卡金像奖的罗杰·罗斯·威廉姆斯(《生活,动画》、《普鲁登斯的音乐》)、荣获奥斯卡金像奖提名的海迪·埃温(《基督营》、《选择自由》)、荣获艾美奖的理查德·哈金(《纽约灾星》)以及奥斯卡金像奖得主 T.J.·马丁和丹尼尔·林赛(《不可击败》)。《爱犬情深》带领我们踏上一段鼓舞人心的旅程,探索非凡、甚至堪称神奇的品质是怎样让这些动物在所有人心中占据特殊位置。) V. z3 \3 x: v5 r+ l5 _5 i
《爱犬情深》是一部 Netflix 原创纪录片系列,由格伦·齐珀与荣获奥斯卡金像奖提名的艾米·博格(二人分别在 Zipper Bros Films 和 Disarming Films 担任监制)携手打造。) F8 F! ]) _" F2 R
  1. Video7 r0 d6 v. Z- u! h! L) z1 C
  2. ID : 1
    ; y$ V1 t* l. d/ b- e' p' r/ H8 D
  3. Format : AVC% F6 J3 H# w$ U  @
  4. Format/Info : Advanced Video Codec1 l: I; O% W8 z7 T9 l! P$ B1 r- Z
  5. Format profile : [email protected]
    & V9 R" k4 n& s. z' A) d5 A
  6. Format settings : CABAC / 3 Ref Frames- U8 q' _0 j& W; z$ F% \1 i/ }
  7. Format settings, CABAC : Yes4 b2 f! Q, ~5 \0 a5 m
  8. Format settings, ReFrames : 3 frames! R& X& z3 s5 V5 s$ M9 m9 O
  9. Codec ID : V_MPEG4/ISO/AVC; w+ ^: q* `- m" [! {0 `
  10. Duration : 50 min 42 s
      Z" k! T" y% G( @- h
  11. Bit rate mode : Variable
    ! m, p6 W% y! J1 z$ o& u
  12. Bit rate : 7 500 kb/s/ @6 H0 @! c: u6 C$ `
  13. Maximum bit rate : 11.2 Mb/s
    ) q5 e" g: a; N
  14. Width : 1 920 pixels. n- [. U% `# U$ }$ r$ I. r
  15. Height : 1 080 pixels
    3 q" W$ F# v) x% E5 P$ J
  16. Display aspect ratio : 16:97 D/ M: @6 T, W1 _# D
  17. Frame rate mode : Constant
    6 P% O4 i. m9 z, ]3 K
  18. Frame rate : 25.000 FPS
    4 d) U; v) Q% c/ [) _
  19. Color space : YUV# i  x* K9 u  Y7 w5 @6 F
  20. Chroma subsampling : 4:2:0( u; W; y, o5 F0 c6 |2 O
  21. Bit depth : 8 bits
    5 ~) @0 i, i2 Q* z8 u0 D
  22. Scan type : Progressive7 a* P2 P3 u- o* L
  23. Bits/(Pixel*Frame) : 0.145! G& t$ }, S6 Z, I( X+ S
  24. Stream size : 2.63 GiB (95%)
    0 `3 E" }) U1 ^9 ]$ Z+ \: |
  25. Writing library : x264 core 148 r2715 7e75228
      E+ l2 c2 i! ^, B* g; Z) |  I
  26. Encoding settings : cabac=1 / ref=3 / deblock=1:0:0 / analyse=0x1:0x111 / me=umh / subme=10 / psy=1 / psy_rd=1.00:0.00 / mixed_ref=1 / me_range=24 / chroma_me=1 / trellis=2 / 8x8dct=0 / cqm=0 / deadzone=21,11 / fast_pskip=1 / chroma_qp_offset=-2 / threads=8 / lookahead_threads=1 / sliced_threads=0 / nr=0 / decimate=1 / interlaced=0 / bluray_compat=0 / stitchable=1 / constrained_intra=0 / bframes=2 / b_pyramid=0 / b_adapt=2 / b_bias=0 / direct=3 / weightb=1 / open_gop=0 / weightp=2 / keyint=50 / keyint_min=26 / scenecut=0 / intra_refresh=0 / rc_lookahead=50 / rc=2pass / mbtree=1 / bitrate=7500 / ratetol=1.0 / qcomp=0.50 / qpmin=6 / qpmax=51 / qpstep=4 / cplxblur=20.0 / qblur=0.5 / vbv_maxrate=11250 / vbv_bufsize=15000 / nal_hrd=vbr / filler=0 / ip_ratio=1.40 / aq=1:1.00
    8 e! A. J6 u4 }! L! d
  27. Default : Yes# J, L' Z( p/ x. B0 ~' h" h- n8 K) A
  28. Forced : No
    0 q5 T1 U9 V* p9 P4 i5 D
  29. 3 h" Y* W# j* l2 I, ]( I
  30. Audio8 g# s) x* l/ p: U- X
  31. ID : 2
    , m: @6 w- \7 Y$ ~9 F
  32. Format : AC-3
    6 [! w; s$ f- h1 m- A
  33. Format/Info : Audio Coding 39 x$ K7 ~* b; A4 l6 m+ K( H6 ?
  34. Commercial name : Dolby Digital
    ) t6 o/ W3 @, L2 n4 Y
  35. Codec ID : A_AC3
    . C' w/ _6 j' P$ Y% [
  36. Duration : 50 min 42 s
    ! c' S6 V' `( e, w0 b5 a' F; x
  37. Bit rate mode : Constant5 X. [6 m# p8 f
  38. Bit rate : 384 kb/s! w' V' G  |( X- q/ h* q$ ~9 c5 y/ z
  39. Channel(s) : 6 channels+ V  L* Z! n: ?* _
  40. Channel layout : L R C LFE Ls Rs% ?3 [+ U0 o0 g4 F8 {* ?
  41. Sampling rate : 48.0 kHz
    : H! r9 o8 t2 w, @3 |
  42. Frame rate : 31.250 FPS (1536 SPF)
    ; ]. `8 G, `( e) ^. t9 Q
  43. Bit depth : 16 bits
    : \; q4 {5 p2 L  C3 B; F5 l
  44. Compression mode : Lossy5 M9 v$ V! f. N- t8 d: l3 |. X
  45. Stream size : 139 MiB (5%)8 J) Z# R  A& Y/ }& W' Q
  46. Language : English
    - T6 s% `( t7 h6 C
  47. Service kind : Complete Main' y. g6 C  k7 b7 Q% @6 b
  48. Default : Yes
    9 }, Z% d# O- G' G
  49. Forced : No
    ' x* d* I6 x$ E! P$ [

  50. 0 ~3 H/ \% r& M
  51. Text #12 a2 d' p; }! {
  52. ID : 3
    ' B% w' q0 u" y* _5 |" D
  53. Format : UTF-8
    4 z' c; e  f: O. s
  54. Codec ID : S_TEXT/UTF8/ Y1 E) o7 @- Z; J) U  w' A
  55. Codec ID/Info : UTF-8 Plain Text
    & l' ]1 S! J- o( w# G7 r; y
  56. Duration : 49 min 38 s
    7 F# M! S4 ?+ _  e
  57. Bit rate : 39 b/s
    & o  i+ }5 v$ Z) F2 m: B4 p
  58. Count of elements : 468
    - x" n; d1 D) Q: L4 ?; A
  59. Stream size : 14.2 KiB (0%)
    . ]* f1 a( n' _2 E* y  K" W7 K' o
  60. Title : Forced" C3 S$ u/ t+ r
  61. Language : English
    5 i+ j, z. |0 [; F4 P
  62. Default : Yes
    5 h( `; s; p( k
  63. Forced : Yes$ @- R6 \- M$ ?  I$ N
  64. ) Z! t7 I" H9 B: {
  65. Text #2
    & R: I2 |4 `7 d0 ?5 c- U7 L  e
  66. ID : 4% \* G8 b4 o0 }' f
  67. Format : UTF-8
      p% |% f  `* [9 R- `0 H  k6 h
  68. Codec ID : S_TEXT/UTF8
    # J2 Q1 \2 B, E# ^! P+ D0 h9 `  b
  69. Codec ID/Info : UTF-8 Plain Text2 ]% T  D" S$ L6 t4 F
  70. Duration : 49 min 39 s
    4 ~, `( d0 Z6 E1 }1 E
  71. Bit rate : 39 b/s
    3 ~$ }$ L* j# q0 a
  72. Count of elements : 486
    ' |' f8 |  ], ^$ o6 X5 _% p
  73. Stream size : 14.3 KiB (0%)+ ^# H4 L6 G  K
  74. Language : English
    - [: S/ A* V0 V6 d4 R! k3 N
  75. Default : No; ~" {# c( O+ h1 r: s2 |9 V
  76. Forced : No
    , ^( A& [; a: Y, a4 Q" n+ @9 {

  77. + Y: }  u# g% _7 R; c
  78. Text #3' P; L1 F8 ^/ j4 E
  79. ID : 5
    ' P5 r9 b$ v& B! K. @6 C0 L& z4 }
  80. Format : UTF-8
    + P  ]9 s1 C6 I' A9 X0 ~
  81. Codec ID : S_TEXT/UTF8+ U0 d4 S3 H+ N, I( N
  82. Codec ID/Info : UTF-8 Plain Text
    4 }2 E6 u$ @/ L0 O% P+ i2 w
  83. Duration : 49 min 39 s
    3 Q5 N9 T; D. O! X; X2 i5 C8 e
  84. Bit rate : 39 b/s
    9 N! K& S& r! e/ M
  85. Count of elements : 4862 i- r. d) ~- ~3 U0 k* D
  86. Stream size : 14.3 KiB (0%)( ^3 Z$ y7 P3 K. f( L
  87. Language : English! E$ s% r% _" A+ F# i
  88. Default : No1 Y, ]( c. u5 X( {4 }# S
  89. Forced : No9 K2 j- {8 a. p# G& c
  90. 6 B$ _. v( o; J. L
  91. Text #45 K3 H9 P$ Z% [1 Y
  92. ID : 6! C, n# s0 E0 ?7 P
  93. Format : UTF-8* F+ ?& ]+ p6 h0 e' J, J' j  t
  94. Codec ID : S_TEXT/UTF8+ E: ^6 T1 ]: p1 \
  95. Codec ID/Info : UTF-8 Plain Text- M- p! s: A+ D- b9 F9 `
  96. Duration : 50 min 4 s
    6 u. S: z: b9 G3 L
  97. Bit rate : 37 b/s0 S; p$ ?. k9 X6 \# R# ]- \
  98. Count of elements : 464
    ; ?% m+ b6 M9 C, |" W5 i, o
  99. Stream size : 13.6 KiB (0%)
    - p  ]% c' S" ?/ Z4 g8 V4 c4 Y
  100. Title : Brazilian: B' ^+ H- w3 l
  101. Language : Portuguese2 R2 g4 b. m6 J* P9 L
  102. Default : No
    # t) e% N4 I6 z  R
  103. Forced : No
    8 O/ W" q; E. E% w2 R
  104. ! ?! @8 v4 C( W. ?" c( i6 f8 v' Y0 f
  105. Text #5
    - t0 G9 [7 M1 U0 G5 ]* {
  106. ID : 7* P' {" N% t: U
  107. Format : UTF-8
    ) F5 O( `  f* b
  108. Codec ID : S_TEXT/UTF8
    1 {7 t1 H& T$ _
  109. Codec ID/Info : UTF-8 Plain Text
    ! e5 X0 z6 g# |
  110. Duration : 49 min 38 s
    " m) S3 R' y( t) |1 u6 `
  111. Bit rate : 35 b/s
    * w* r4 N9 R, G* \
  112. Count of elements : 478
    + ~* h; O  C0 f9 x1 V
  113. Stream size : 12.8 KiB (0%)) n6 C! Z1 r  z/ |# A, l$ i8 f
  114. Language : Danish; V7 d: X; \: Q) d) I
  115. Default : No0 c0 \6 D1 x& f; m; @
  116. Forced : No
    / c/ o- ~4 C! Q! }: U) [
  117. 8 n0 ^! q& I! C! ^/ v. A' m6 ~. ~2 y  H
  118. Text #6
    9 x& ]# g) b% k; ~
  119. ID : 8$ `: G, n/ p( x; V
  120. Format : UTF-8
    / ^- g, h: R: ]' ~% ~0 E3 u
  121. Codec ID : S_TEXT/UTF89 [+ I* w2 R! y( H2 d3 ]6 q
  122. Codec ID/Info : UTF-8 Plain Text
    ! L9 r  O0 L6 N) H' ]4 h
  123. Duration : 50 min 4 s  {' G# s4 W& j7 x% X! X
  124. Bit rate : 36 b/s
    7 U' t. P, p) w& V! b+ @, |: [0 ~; \
  125. Count of elements : 4704 q) O8 G3 d8 E
  126. Stream size : 13.6 KiB (0%)
    , x2 E/ R* T8 `( |
  127. Language : Dutch: p& q# D. o3 y) }% M: W6 S) g
  128. Default : No) n) Q; @) `/ u3 {% u
  129. Forced : No
    , x9 l. U. \9 C! r& z* T

  130. 0 z+ `. _. \. ]) _& C
  131. Text #7
    9 L+ c3 Q' d) |3 ]) o2 a! n2 F7 ~' ~' h. }
  132. ID : 9
    ' X% [3 j& i  r( J" ^
  133. Format : UTF-89 a+ |2 N! L: h6 ^5 c. X  K% f- k
  134. Codec ID : S_TEXT/UTF8
    + s# s1 Z  K6 g# v; P& ?, R! ]
  135. Codec ID/Info : UTF-8 Plain Text; @# Z# l( v' ~0 B" u2 Q
  136. Duration : 50 min 4 s
    , ^. O$ |2 W) F! R  @
  137. Bit rate : 39 b/s
    ; q# U8 l$ N. T
  138. Count of elements : 503: h( N6 n# t, C) e6 J( \8 R) t/ T1 ^
  139. Stream size : 14.5 KiB (0%)/ l( Q$ G4 e2 m
  140. Title : European
    $ O6 h" g" p% d
  141. Language : Spanish2 ]; \/ t8 F/ }3 v, J$ B( B
  142. Default : No
    7 t$ w# f! L3 i: E9 Y
  143. Forced : No
    1 _4 H  [, h  o/ L* o
  144. * j+ _0 c& M2 H
  145. Text #8
    / T' z; X  l" I% c" L( Q' B' w' ^
  146. ID : 101 ~6 J+ A/ u. w+ S
  147. Format : UTF-8. g3 X6 n8 @7 d- l' o1 \3 T
  148. Codec ID : S_TEXT/UTF8
    ( V, |+ Y$ r2 `9 o! V2 d: A
  149. Codec ID/Info : UTF-8 Plain Text: Q$ \2 b% c; L; R4 x
  150. Duration : 50 min 4 s3 V) @' u2 W1 [6 Z, n% n
  151. Bit rate : 37 b/s1 h# Y. `; T4 Y9 f
  152. Count of elements : 470
    ; U( R; }. ^* r5 s4 j
  153. Stream size : 13.6 KiB (0%)1 W. Q' v& w% t$ `* T8 G
  154. Language : Finnish% v" N- ~7 @' h% f; C' r
  155. Default : No
    , n5 Z3 ]1 b: |
  156. Forced : No
    & l, Z( I% B0 w3 H
  157. - l* \! s: |6 m0 P- k
  158. Text #9
    $ X  |% M5 C: d$ m! d7 c3 s
  159. ID : 11
    % w+ f% T% B+ h) l1 B9 g; W, ?/ q: n
  160. Format : UTF-8
    ! C4 M& u( _5 x6 k
  161. Codec ID : S_TEXT/UTF8- {6 [) |! |7 v2 X3 ?# Y
  162. Codec ID/Info : UTF-8 Plain Text
    & j* j  A0 e  D
  163. Duration : 50 min 4 s5 {9 b! h* T" ]. i( R9 O
  164. Bit rate : 37 b/s" J, v0 v5 v" @  S9 i) v
  165. Count of elements : 502" k2 C" p. j4 Y" n2 ?/ }% U; \" l5 K
  166. Stream size : 13.7 KiB (0%)6 V5 v% U# c* z/ j- Q% d/ m
  167. Language : French  M0 z! k' E6 ^" X1 I
  168. Default : No
      J8 ^  ^9 L( R$ \6 {
  169. Forced : No
      j9 C0 G/ g, {& ]  b

  170. $ `! r, r( ]. P% t5 V! G+ ~
  171. Text #10. j5 M, m) S' i& m4 d
  172. ID : 12
    0 Q+ y! P1 x! e
  173. Format : UTF-8
    * ~  s4 v+ d/ c& x/ R8 W+ A# I
  174. Codec ID : S_TEXT/UTF8
    / Q$ ^7 L& B6 p8 p# S
  175. Codec ID/Info : UTF-8 Plain Text/ H' E0 z) \! F
  176. Duration : 50 min 4 s
      X- ?$ p5 F/ C! K( i
  177. Bit rate : 42 b/s
    ( Q" t; h; L2 i) Z& x8 B0 R8 N6 Q+ Z
  178. Count of elements : 509
    * ?1 Z$ `0 B/ N- p5 v
  179. Stream size : 15.6 KiB (0%). d+ h* p3 j& e& W7 b2 s$ h
  180. Language : German1 A; \/ f1 E# j% k
  181. Default : No
    0 F% z' E" ?' ~8 m; P; [# E
  182. Forced : No
    " W* E' c8 Y# O* N1 Q) ^# r. H

  183. ( [5 T! q* Q9 I7 R
  184. Text #11
    ! Q% `# u: |; U
  185. ID : 13
    # N! i0 G+ s4 x
  186. Format : UTF-8
    6 G) V9 W7 J! O- k6 Q
  187. Codec ID : S_TEXT/UTF8
    4 H; V7 U) x  }! S
  188. Codec ID/Info : UTF-8 Plain Text
    6 _8 O- c0 ]: V0 Y* U" a/ }& u
  189. Duration : 50 min 4 s1 a4 s! {( E; \6 @$ @
  190. Bit rate : 71 b/s; X( k5 l9 m4 h" V  F: I" G' |+ o3 [
  191. Count of elements : 507
    ' V7 t9 ]& n2 {$ Z
  192. Stream size : 26.2 KiB (0%)
    ; V+ |$ ]% n* d+ r
  193. Language : Greek
    3 t$ A+ d. d* l9 b! |. m6 j
  194. Default : No
    ! x$ {* g) s2 v: l
  195. Forced : No
    0 k3 K: j. U0 ]5 s3 e0 G
  196. , ~: u" z0 O- g6 F; t
  197. Text #12
    + V+ M0 D  M3 b
  198. ID : 14! \# O, x5 Q2 P3 q% e
  199. Format : UTF-8
    6 X! y. ^# @/ k! W
  200. Codec ID : S_TEXT/UTF8
    5 n" K5 L$ Q4 E: Y% x' @* E
  201. Codec ID/Info : UTF-8 Plain Text, z, y/ c7 ]1 ?$ x4 }3 l- Z! }( }/ a
  202. Duration : 50 min 4 s+ n4 F1 W* z8 V5 F: C* P
  203. Bit rate : 39 b/s! u0 \+ X. v; x4 M. W' Y
  204. Count of elements : 504
    8 |1 b' f1 {0 c! e, ]( R
  205. Stream size : 14.4 KiB (0%)( R0 g; R9 @  X) o
  206. Language : Indonesian3 T3 E5 w8 ~. q2 Q. g" g, F
  207. Default : No& j9 G9 |' o6 N5 O
  208. Forced : No
    ' l1 Q/ `6 F3 K( W# Y+ H
  209. - H* {9 L1 B+ A6 r
  210. Text #13
    0 ]7 i5 p( ]4 Y8 y  L, F) F
  211. ID : 15
    ; K( J5 o- d7 {! A
  212. Format : UTF-8
    " F1 w: j9 f6 ]: _: O  i. y( U
  213. Codec ID : S_TEXT/UTF8' V8 I$ z- c5 x  F: z! q2 e
  214. Codec ID/Info : UTF-8 Plain Text
    $ G+ x2 k7 N/ u  [: y" C
  215. Duration : 49 min 38 s6 j3 V: p8 p$ d, u4 P, ]5 Z
  216. Bit rate : 47 b/s# }. r$ J- Z) D, l5 }
  217. Count of elements : 539
    ! l8 f: o$ O% j& E7 j" N$ @
  218. Stream size : 17.4 KiB (0%)) u: x$ _& z% J5 @# g8 G
  219. Language : Italian
    ' g3 u3 ^: o8 L# e+ N6 A0 R. r' [
  220. Default : No% N! b- C7 F/ M
  221. Forced : No5 O- W8 J* ^$ L# m( {0 `+ v2 T

  222. ' X: _( A# b8 B- ?2 U* g
  223. Text #141 B+ B6 z2 |6 v$ }3 H! H" r
  224. ID : 16
    - g  z( m% H( c
  225. Format : UTF-8
    & P, f4 W0 R% _, ^
  226. Codec ID : S_TEXT/UTF8
    + L1 M& V6 [1 K5 |8 f
  227. Codec ID/Info : UTF-8 Plain Text
    , @+ n$ }1 \' F% V- h! P
  228. Duration : 50 min 4 s% `: O' \: w9 n2 M, F
  229. Bit rate : 32 b/s
    2 y. e- d, B* Q1 v) b/ [
  230. Count of elements : 4979 K  q4 i/ T' Y! K# I& R
  231. Stream size : 11.9 KiB (0%)
    ! d0 |& _0 l9 v( Q2 o/ D1 z
  232. Language : Norwegian Bokmal
    2 f$ e8 z+ I% a' E1 M
  233. Default : No1 ~" q9 ^2 P. M0 w( Y$ v
  234. Forced : No
    , m8 @1 n5 M6 i3 F
  235. * Y- A) g! X" m
  236. Text #15
    $ I9 p; o2 K! ?7 {) }( k
  237. ID : 170 K" ]/ S" f3 q( }1 f- _2 O# ^0 ]
  238. Format : UTF-8
    : H4 T5 ~$ T. a
  239. Codec ID : S_TEXT/UTF83 K" U2 w4 {$ M
  240. Codec ID/Info : UTF-8 Plain Text
    3 v4 H7 ?" U/ L- c+ j0 i  P
  241. Duration : 50 min 4 s1 O" S6 x, q/ x5 W% y1 x2 V
  242. Bit rate : 34 b/s. y; o, y% N! r8 D& m* t' U
  243. Count of elements : 5104 p4 O5 j0 I, }7 \3 `  v
  244. Stream size : 12.6 KiB (0%)
    6 ^/ D! d( T$ J2 T1 S4 F% w5 R/ J; ~
  245. Language : Polish
    5 W* D% O, P! G! O/ {
  246. Default : No
      u& O% u$ c+ [
  247. Forced : No
    7 P" A8 Z# K* g: u

  248. 9 {# ]4 B' \* V. G# y7 M8 K
  249. Text #16
    / |, J9 e) k, Y6 d
  250. ID : 18' W! h1 l7 R; C, Q) _8 F
  251. Format : UTF-8
    - `+ d% d; E: P
  252. Codec ID : S_TEXT/UTF8
    , S0 h* c  H8 F) q
  253. Codec ID/Info : UTF-8 Plain Text( {5 ?* ^' q7 k; K! ?/ l% u
  254. Duration : 50 min 4 s1 U+ I& C3 X2 o1 u* Z/ F
  255. Bit rate : 38 b/s4 ]% S5 D% w9 U7 f, Y% E1 {% e
  256. Count of elements : 503+ @7 W4 m( F+ z4 T& _
  257. Stream size : 14.0 KiB (0%)5 r- l1 i8 ~3 P8 @- a; Q
  258. Language : Portuguese
    . @1 W  ~+ w( `" `% z
  259. Default : No
    5 K$ D1 E$ C( O0 A" _3 i% Z8 v
  260. Forced : No* H9 n* I# S4 s+ B8 T# r4 j/ ^

  261. ( ~# A# h/ t" {5 v0 ]+ |) a3 h( A: B6 ~
  262. Text #17
    + v+ N: J6 C  k# I" e0 L
  263. ID : 19
    . U# Y3 t, A8 {: t: Z
  264. Format : UTF-8* o: V; ^1 x  a7 G1 f; x3 F
  265. Codec ID : S_TEXT/UTF8$ ?6 |9 X  z" a/ ?- Z0 \* z- b
  266. Codec ID/Info : UTF-8 Plain Text4 G: m% @( V0 Z2 f+ `( U4 G
  267. Duration : 50 min 4 s
    # M# l' u  Q' u/ Z8 r9 x8 I7 l
  268. Bit rate : 61 b/s: e# U. j: P8 n! X
  269. Count of elements : 490
    4 Y. F2 d( v7 H. k0 g6 t; z
  270. Stream size : 22.6 KiB (0%)+ D/ c5 m: B- h+ K- q, i1 J
  271. Language : Russian) a, R( K) l& Z5 H$ a( g
  272. Default : No% ?3 Z. H* V; m# i& q
  273. Forced : No6 t  `6 ]' J5 g9 p/ F
  274. 0 _: L7 }3 N1 _( h/ Z6 |  \
  275. Text #18
    9 K8 m2 [& ^" o! Q$ U( P6 \7 Q/ R
  276. ID : 20
    4 ?% k& q; l/ O8 Q  M% l
  277. Format : UTF-8; r' Y- S& X* Q- \: q
  278. Codec ID : S_TEXT/UTF8, u/ A. B  C7 L- v- E2 {! `
  279. Codec ID/Info : UTF-8 Plain Text2 y- m( d* t5 {0 x; Z
  280. Duration : 50 min 4 s
    : A. ~: c1 @$ O
  281. Bit rate : 36 b/s( }# A% Y8 B7 {7 O3 f$ N
  282. Count of elements : 5077 P3 b8 a. X8 W8 ]4 P! H/ q
  283. Stream size : 13.4 KiB (0%)# `7 Q; r  o8 m# d/ x
  284. Language : Spanish3 Y% ]" f( m$ |) F
  285. Default : No
    ' M* A- ]/ i# b# O8 S! J
  286. Forced : No
    ) A. b4 S# H: A4 U( l1 ?4 T) Y: L
  287. 4 ?4 ~  i: |/ Q+ _1 n* g3 S
  288. Text #196 v! O8 Z* Z# D0 Z$ E, `) R; y
  289. ID : 210 k8 L) C5 d; ^  T; j5 S* C
  290. Format : UTF-8/ J3 u, e- {8 @4 Y4 n
  291. Codec ID : S_TEXT/UTF8- |" s' |- [$ y$ @
  292. Codec ID/Info : UTF-8 Plain Text! \! U  I0 V4 W0 L! [
  293. Duration : 50 min 4 s
    * f( _# J% l) o, J4 N: Y6 d
  294. Bit rate : 36 b/s+ j% Q# I# G! C, ?) d  p
  295. Count of elements : 507
    3 d0 C: ?0 v4 ]8 Z) p2 b
  296. Stream size : 13.4 KiB (0%)
    4 B2 |; y6 R7 m9 n6 n
  297. Language : Spanish& U" u4 m; ]0 E9 u4 k
  298. Default : No1 S: [0 b* V8 \
  299. Forced : No6 q* Y4 U6 O; u4 C

  300. 0 T. ^9 @0 O! ^2 L  `/ m# ~
  301. Text #20
    5 X: e4 O3 ?, W. y8 \
  302. ID : 225 G4 n+ Y/ Z3 T/ s/ Z, @( {% V: H" Z
  303. Format : UTF-8
    - V( U+ o8 s* m, W0 ?/ T) Q; T
  304. Codec ID : S_TEXT/UTF8
    # }6 C3 x8 z* `8 \5 W
  305. Codec ID/Info : UTF-8 Plain Text+ C3 V* G4 i% B; z
  306. Duration : 50 min 4 s
    4 A0 ~7 i2 P7 {4 a3 a
  307. Bit rate : 39 b/s
    ! q# H# b  I7 J) K; {
  308. Count of elements : 501
    1 R  ]; @. I- D" G- m; e/ C
  309. Stream size : 14.3 KiB (0%)
    $ y- R1 j/ Q$ B9 V  z& i6 b
  310. Language : Swedish
    3 U, q% R7 z- Z6 h; d
  311. Default : No
    7 L7 v4 `' ?- L% h
  312. Forced : No. }7 O& H  b% P! f+ W: Y! c7 E
  313. . A0 N% C0 }! r" u2 K  U  x
  314. Text #21  \1 G# N+ Q  _% S1 k
  315. ID : 238 c: T! a/ n& y$ w, s/ i1 A
  316. Format : UTF-8
    / ^+ i3 L/ u% c' c; ^
  317. Codec ID : S_TEXT/UTF8
    - E: c3 w% }2 @0 s' a4 D
  318. Codec ID/Info : UTF-8 Plain Text
    ; k: v* f$ |, p5 u: z- R9 S+ P) Y
  319. Duration : 50 min 4 s) L$ S2 s3 }( ~, s* m. a
  320. Bit rate : 37 b/s
    8 _/ i. X- u! }/ e; d- Y8 L- W. M; \" o
  321. Count of elements : 492
    0 A% p+ q- l  o/ E- q
  322. Stream size : 13.8 KiB (0%)1 ^8 [6 G2 c& I# [2 t
  323. Language : Turkish
    * _. ]# O+ N( f0 m4 F; |
  324. Default : No3 c* u4 d6 [9 V$ o1 I
  325. Forced : No
复制代码

9 J  E, Z9 @8 y* C6 Y
+ Y2 Y( v+ |6 }0 Z! j9 h
/ g% j6 W3 w- ?) q6 l$ D
- j( l5 @7 U5 ]7 Y2 V; S8 x2 `
# Y* D7 K/ I2 D! q# s7 e( b6 c7 f
) L4 [- W" e; Y! @
游客,如果您要查看本帖隐藏内容请回复  捐助论坛可免回复查看隐藏内容 详情请点击
发表于 2018-11-18 13:07:56 | 显示全部楼层
谢谢分享佳片
发表于 2018-11-20 18:46:45 | 显示全部楼层
暖心片,谢谢了!
发表于 2018-11-23 20:47:12 | 显示全部楼层
很好的纪录片  
发表于 2018-11-26 17:26:41 | 显示全部楼层
这个要看的,谢谢
您需要登录后才可以回帖 登录 | 限时注册

本版积分规则

封号公示|手机版|Archiver|有问题发邮件到admin#(换成@)hd1tj.org|微博|免责申明|HD一条街

GMT+8, 2018-12-15 14:27

快速回复 返回顶部 返回列表