HD一条街论坛

 找回密码
 限时注册
搜索
查看: 589|回复: 17

[内地] 纪录片:中国市长 The.Chinese.Mayor.2015.SUBBED.1080p.AMZN.WEBRip.DD2.0.x264-QOQ 7.75G

[复制链接]
发表于 2018-6-7 17:56:02 | 显示全部楼层 |阅读模式
: f4 @! c/ t9 A1 u& h
                               
登录/注册后可看大图

, b9 n8 s/ R; Y$ T! k0 e4 ?; B' L7 [
◎译  名 中国市长/ v# M, Z) `0 M! {9 E7 T
◎片  名 大同1 ^5 l( M1 P0 F1 f# b
◎年  代 2015
0 ?' |4 x3 S, {9 V: q7 D◎产  地 中国大陆
- p. B6 V  K/ y$ m3 `4 ^1 J◎类  别 纪录片
3 o- k$ S. M7 s1 l( m! E% r◎语  言 山西方言
4 V: r" [* q' L4 j  a  E◎上映日期 2015-01-26(圣丹斯电影节)
3 c+ J/ c7 g0 T# n( N7 S◎IMDb评分  7.6/10 from 367 users
. Q: r$ X: d) q◎IMDb链接  http://www.imdb.com/title/tt4056808/
% Q0 D( b" N/ [- Z' f  C4 Z◎豆瓣评分 9.2/10 from 14,852 users
2 r/ s+ F0 i. x+ n" w◎豆瓣链接 https://movie.douban.com/subject/26276498/7 g  S+ R3 g3 p% U0 K
◎片  长 86分钟
( S) {: T) ?6 b+ q  e# b◎导  演 周浩 Hao Zhou) H+ i1 [! J* `
◎主  演 耿彦波 Yanbo Geng
0 o1 ~' N0 q; |, U
9 p; T2 e2 K: F) Y◎简  介- ]+ N0 X" W( R% R+ v% Q
1 v8 Z8 Y( o3 r% l2 f7 Z6 a
  曾经繁华的中国都市大同市,如今屹立在一堆废墟的旁边。这座城市不仅污染严重,还因其陈旧的基础设施和摇摇欲坠的经济前景而濒临瘫痪。但大同市长想要改变这一切,他大胆地宣布了一项试图重塑昔日的辉煌的新计划,要知道这座城市的文明已经有1600年了。1 `5 o, m: M& [5 d' u
  然而,伴随着这项计划的是非常高的成本。数以千计的房屋被推倒,50万居民(占大同市总人口的百分之三十)将在他的打理下被重新安置。这位市长成功与否,完全取决于他是否能让愤怒的工人群体以及越来越忐忑的统治精英冷静下来。纪录片《中国市长》惊人地捕捉到了一个男人,甚至是一个国家疯狂跳跃着进入一个越来越动荡的未来的过程。
3 `1 e1 v* E. o' |# _. m, P2 P3 _1 b
◎获奖情况
8 ]$ z4 Z5 N- R9 R$ D- R' E- c6 w. ^, W% H2 s/ A% ?) w
  第52届台北金马影展  (2015)
" J/ H" E' A$ s- A' \9 b  金马奖 最佳纪录片
1 ~4 j! x9 i5 X9 m3 E
( n, @$ _0 ?% i; \, |0 ~8 U  第31届圣丹斯电影节  (2015)- _4 z: J& f& f, ^
  评审团大奖 世界电影单元纪录片(提名) 周浩
6 z5 ~9 f& q1 a9 X* U
5 n. S6 R2 D: |2 }( Z$ ~+ ~! E" g* |" `" j  第2届豆瓣电影年度榜单  (2015)% _5 P$ u4 E" b( j4 ~( ?2 B
  评分最高的纪录片(提名)
/ a. c+ ?! h% D5 T4 y) H* ~+ Y8 C4 c
: ~" w. r+ ~5 U. d/ p* `$ x- x0 a  第6届豆瓣电影鑫像奖  (2016); a3 G: u( n; Z4 ]4 [7 h
  鑫豆单元 最佳影片(华语)(提名)
- {) |3 c. j/ e3 [! {  鑫豆单元 最佳纪录长片(提名)
  1. Video' ?8 A8 C+ @1 Z4 \! _8 Q2 R
  2. ID                                       : 10 a: s+ q5 U0 L. ^9 y0 p. B8 {
  3. Format                                   : AVC: k/ V; C7 L7 K' U. c* f) m
  4. Format/Info                              : Advanced Video Codec  X- b- |- g( k. b' ~
  5. Format profile                           : [email protected]7 x% f* F( k8 H+ P
  6. Format settings                          : CABAC / 4 Ref Frames' s. ?- Z  {" ^  |) i4 `
  7. Format settings, CABAC                   : Yes0 ^1 Y$ c0 C+ k- u7 w. u
  8. Format settings, ReFrames                : 4 frames
    ( l/ M. R/ G  _7 U& m1 [6 z
  9. Codec ID                                 : V_MPEG4/ISO/AVC4 {. S6 C4 |% l% x  V2 l* N/ U
  10. Duration                                 : 1 h 26 min
    9 i8 d+ Z( q6 a- Y
  11. Bit rate                                 : 12.7 Mb/s
    ) I" {$ u% F& _3 i" }, q" K" J
  12. Width                                    : 1 920 pixels* K6 c& C+ t, T2 r. a  X1 I
  13. Height                                   : 1 080 pixels
    9 u5 i1 c7 e5 h6 N& D
  14. Display aspect ratio                     : 16:9" \% w, Q  {, e. T9 _! N) X' U
  15. Frame rate mode                          : Constant
    # Q# K) f7 r* J: g( }# p
  16. Frame rate                               : 25.000 FPS
    . c+ Z6 l* F8 R  F2 W
  17. Color space                              : YUV
    ' k% a# C) |7 P) f: z
  18. Chroma subsampling                       : 4:2:0
    1 |1 h2 ]5 a3 u# {& ?0 n
  19. Bit depth                                : 8 bits. k+ R7 q. _2 C5 N! @9 \
  20. Scan type                                : Progressive" U! d6 `7 T. f3 A9 k
  21. Bits/(Pixel*Frame)                       : 0.244
    $ V& f6 \" _: E6 J! G
  22. Stream size                              : 7.62 GiB (98%)
    2 \" d8 _2 ]" \) @- `
  23. Default                                  : Yes
    & d5 |2 F- H7 j( C2 `; I7 V1 `
  24. Forced                                   : No
    - e" B; {. ~- G- ~8 l
  25. Color range                              : Limited0 {- s% R. M  A& S" _: Z& G
  26. Color primaries                          : BT.709
      v9 p9 w' H+ r# D3 u  Y6 c! |( B5 U
  27. Transfer characteristics                 : BT.7094 `+ O( k2 X, K' |) R
  28. Matrix coefficients                      : BT.709
    * f+ f, f# a' R* I: [0 w
  29. 1 U' R7 {3 C, L( [
  30. Audio0 I3 R9 c& X% o; Y$ ?6 f$ m
  31. ID                                       : 2- U) Q2 E7 m9 ?1 {& Q
  32. Format                                   : E-AC-3
      ^  [& ~1 Q( }/ x
  33. Format/Info                              : Enhanced Audio Coding 3* I- q0 r! w5 N/ p& b7 I
  34. Codec ID                                 : A_EAC39 [# r1 `6 ?" p. I$ e
  35. Duration                                 : 1 h 26 min
    , P  ^, Y" d! G( B
  36. Bit rate mode                            : Constant3 t7 P8 _3 |  {  ]
  37. Bit rate                                 : 224 kb/s3 j. V) z/ n# E1 [
  38. Channel(s)                               : 2 channels
      [+ _- L. o" Z# [  z: R
  39. Channel positions                        : Front: L R+ T6 l$ G+ Y; s$ F8 e+ e( F
  40. Sampling rate                            : 48.0 kHz
    * S1 J% u7 b& x' b: G
  41. Frame rate                               : 187.500 FPS (256 SPF)7 l1 n3 {% R0 H/ o
  42. Compression mode                         : Lossy
    6 c3 h8 |1 I! b
  43. Stream size                              : 138 MiB (2%)
    " s. j3 A* Q9 \+ @/ Q4 j
  44. Language                                 : Chinese% I; }) E4 B7 ~6 ~* o
  45. Service kind                             : Complete Main
    ! Q) }' i' d) `9 q: ?
  46. Default                                  : Yes, y1 m6 o2 {8 S
  47. Forced                                   : No
    $ s+ T) ~0 ]: j0 r1 Q/ D' }( ~' @1 h

  48. , U6 j( E8 h4 G7 n* C
  49. Text3 W* s- a6 P# y* {4 \5 ^
  50. ID                                       : 3' n3 o* w) w. y" t
  51. Format                                   : UTF-89 a3 d0 D8 @9 n
  52. Codec ID                                 : S_TEXT/UTF8
    $ e8 R1 W2 t* z: x
  53. Codec ID/Info                            : UTF-8 Plain Text
    / b  b0 b: W' k, D$ P
  54. Duration                                 : 1 h 21 min- g2 J5 Q; P) D) _
  55. Bit rate                                 : 4 b/s# @& p2 @0 S1 p) @) B. l5 q& d' n
  56. Count of elements                        : 176! k& l: u5 w* A% G2 }: s3 L
  57. Stream size                              : 2.69 KiB (0%)
    3 n- P# F4 t8 `+ a  [
  58. Language                                 : English4 y6 l9 n' |! i5 i
  59. Default                                  : No* c2 d5 h+ l2 i; M6 g! u1 U
  60. Forced                                   : No
复制代码
# e" {5 m$ S9 W$ F
  M! P; B8 T3 Z& x4 i  Y  E& g
' \8 n& s0 K3 ?: N

) f' N6 g. c1 z" n
4 A$ J$ c/ Y( a3 A* K
" i' Q( R5 u( [4 _8 w* `& [  X
游客,如果您要查看本帖隐藏内容请回复  捐助论坛可免回复查看隐藏内容 详情请点击
发表于 2018-6-7 18:18:49 | 显示全部楼层
谢谢楼主的无私奉献。
发表于 2018-6-7 19:29:17 | 显示全部楼层
谢谢楼主分享
发表于 2018-6-8 07:30:05 | 显示全部楼层
看似很悶的電影,但卻獲獎無數,要看看了
发表于 2018-6-9 16:53:10 | 显示全部楼层
看看,评分居然这么高
发表于 2018-6-9 20:10:45 | 显示全部楼层
谢谢楼主分享
发表于 2018-6-9 21:04:07 | 显示全部楼层
这个应该很好看吧
发表于 2018-6-10 11:01:28 | 显示全部楼层
国外对这种题材通常不怎么感冒。
发表于 2018-6-10 19:15:04 | 显示全部楼层
辛苦哂收下了
发表于 2018-6-12 22:41:16 | 显示全部楼层
已经看过低分辨率版本了,但高清要收藏的
您需要登录后才可以回帖 登录 | 限时注册

本版积分规则

封号公示|手机版|Archiver|有问题发邮件到admin#(换成@)hd1tj.org|微博|免责申明|HD一条街

GMT+8, 2018-12-13 13:52

快速回复 返回顶部 返回列表