HD一条街论坛

 找回密码
 立即注册
搜索
查看: 206|回复: 9

[1080p] 赞先生与找钱华 Warriors.Two.1978.1080p.WEBRip.DDP2.0.x264-NTb 8.58G

[复制链接]
发表于 2018-4-15 00:03:31 | 显示全部楼层 |阅读模式

: u# K; _! R- [5 A# u4 Z
/ W0 K! g. V( H1 W3 j! b! k◎译  名 WarriorsTwo
. r$ J# q. J3 Y: t. K◎片  名 赞先生与找钱华
4 b5 m9 o$ s" ]/ @$ |# q9 q' }◎年  代 1978" W( a# W1 z( C* N) v8 p3 _# E
◎产  地 香港
5 z- Q, Q" l8 a' }0 i◎类  别 动作/剧情
. L! {4 D! K# C' k7 N4 \4 [◎语  言 国语3 p1 ~& k/ z# w5 |. C, P! g
◎上映日期 1978-12-28
  x. N. I1 g% I3 @8 q9 Y+ h◎IMDb评分  7.4/10 from 963 users
; W+ q- \5 a3 U; B! S% G# o◎IMDb链接  http://www.imdb.com/title/tt0078517/2 d" K- b. ?) W/ T* H+ K+ _
◎豆瓣评分 7.2/10 from 895 users
+ W2 I( K7 i9 T1 q1 ]- Y% p◎豆瓣链接 https://movie.douban.com/subject/1305322/5 w7 x6 @. `1 f2 l6 u% q6 s, ^
◎片  长 95 分钟: M. q1 m6 m) `7 b- ]0 ^
◎导  演 洪金宝: O" e, H7 @7 U7 D( s! M( R$ E* j
◎主  演 梁家仁8 M3 H5 h4 j1 B+ s0 O4 k4 X
      卡萨伐
6 y( m& [- j7 y/ s- i8 B7 x      洪金宝* n$ Q# F) n8 z! ]
      石天3 m( o/ \+ O' S9 ~
      冯克安
* h" x0 [7 p% L  A0 i4 m- {      李海生0 L+ O$ G+ C+ w5 e- K
      林正英
) \7 ?9 g# ?# ?4 h# q$ X4 [) K      元彪! C4 X4 t" _0 q  d3 Z
      曾志伟
: H. {7 }( T5 c4 P7 L  b3 g/ a4 v/ \/ a7 K# ~) W
◎简  介) B; R( h7 R7 F$ h( p8 B4 _+ t
+ G- S* B) P+ Z- i1 k
  我国南派拳术源远流长,其中咏春拳身在佛山的传人梁赞(梁家仁 饰)精通医术,为人仗义,乡间有口皆碑。梁赞有徒肥春(洪金宝 饰),性格憨厚常受人捉弄。肥春好友找钱华(卡萨伐 饰)在莫记钱庄担任出纳,平时好打抱不平。是日,一伙江洋恶徒来到佛山,与莫记老板莫老庆接头,一干匪徒为抢夺权利,筹划杀死镇长,却正好为找钱华偷听到。找钱华向镇长报信,不料被莫老庆一伙发觉,连累老母身亡,找钱华本人身负重伤,幸有肥春搭救。莫老庆担心梁赞出手阻拦,投鼠忌器,而找钱华为报仇在肥春的帮助下拜梁赞为师,苦学咏春欲一雪深仇,正邪交锋即将展开……
  1. Video
    & e, q2 X; ]  j+ I
  2. ID                                       : 1; _. x* O! ]. c# }6 o
  3. Format                                   : AVC
    , L- \# i9 h, i9 E) I
  4. Format/Info                              : Advanced Video Codec
    - e+ m6 J+ p7 X
  5. Format profile                           : [email protected]( N; p; Q6 h3 O
  6. Format settings, CABAC                   : Yes( ^$ m$ D$ f2 a; }* K2 l" L: x0 _8 l
  7. Format settings, ReFrames                : 4 frames' W! z* b& Z0 @- R# ^
  8. Codec ID                                 : V_MPEG4/ISO/AVC
    ! k, z& L$ O  X" G& j4 {9 |! |
  9. Duration                                 : 1 h 26 min
    6 m9 a) m5 p  E
  10. Bit rate mode                            : Variable. L4 ?0 k" p1 E7 v) V$ @
  11. Bit rate                                 : 14.0 Mb/s
    # u; _- Q/ A# ^6 m7 F( }
  12. Maximum bit rate                         : 15.0 Mb/s
    $ d5 S" `8 Q+ j/ `. s' o( A+ y
  13. Width                                    : 1 920 pixels
      L# v, I4 Z$ x* Z
  14. Height                                   : 1 080 pixels2 x6 F8 `, p1 N9 k) f2 ]! _" l
  15. Display aspect ratio                     : 16:9
    ; }- s+ _: r) [" _
  16. Frame rate mode                          : Constant: }6 d9 p6 A: e7 m' j
  17. Frame rate                               : 25.000 FPS; N* q8 D8 U0 A( Q
  18. Color space                              : YUV* s+ o# z7 ~% E& E
  19. Chroma subsampling                       : 4:2:0
    ' Q0 n/ X; x7 j5 ~! k6 m
  20. Bit depth                                : 8 bits9 Z7 A; F# c" M5 B$ h" x
  21. Scan type                                : Progressive
    0 p6 t- t. D5 K. _1 q+ g
  22. Bits/(Pixel*Frame)                       : 0.270: a4 ?$ B  y4 P# \* e7 u3 d# ?
  23. Stream size                              : 8.45 GiB (98%)
    ( X, |0 z6 a( v; s  I
  24. Default                                  : Yes9 F0 N1 E* Z! ]  A* W/ ^; u, S0 O
  25. Forced                                   : No  t9 {5 q+ b8 y4 u
  26. Color range                              : Limited( Y  _- b' S& H) u/ }6 c
  27. Color primaries                          : BT.709
    " T- |/ f" F7 f# A0 u4 v
  28. Transfer characteristics                 : BT.709
    - P7 i; ^- h$ K3 L3 Q
  29. Matrix coefficients                      : BT.709
    % u: S5 \  U; q4 B
  30. % n1 Q5 o% }# t! \# ]
  31. Audio
    & _$ \0 {- G( J" n1 [3 z
  32. ID                                       : 2
    7 I  w6 z* P, M
  33. Format                                   : E-AC-3$ e& b: ]. v5 p1 v( y$ ?
  34. Format/Info                              : Enhanced Audio Coding 3
    ( S. e! F* v9 Y, p* q0 D; ~4 x
  35. Format settings, Endianness              : Big
    6 \. I( g5 d! _8 {! a  T
  36. Codec ID                                 : A_EAC3
    ! p/ t3 I% {% ]
  37. Duration                                 : 1 h 26 min
    ; l. _3 G9 N  N+ A8 A
  38. Bit rate mode                            : Constant
    6 [& x9 W1 R) u* T, @
  39. Bit rate                                 : 224 kb/s  i' J" V6 V1 t% k
  40. Channel(s)                               : 2 channels, O5 d$ y- c6 j/ e  j. @( q% Q
  41. Channel positions                        : Front: L R
    ( }4 X. }3 u7 F- h' F
  42. Sampling rate                            : 48.0 kHz5 S2 P) m1 J9 b* ~" e: l# I; [
  43. Frame rate                               : 187.500 FPS (256 spf)# c% {' B' ^7 p: x
  44. Compression mode                         : Lossy
    & I8 h- E- _1 z
  45. Stream size                              : 138 MiB (2%): }* v- h3 r. C7 w. V# o, Y# p8 N) W
  46. Language                                 : Chinese
    % G- b9 w$ C* e
  47. Service kind                             : Complete Main; ]7 @0 j5 y9 R7 A7 P
  48. Default                                  : Yes8 x/ |) n, l  U  m$ g
  49. Forced                                   : No6 `( P4 o% n4 D6 }
  50. * L% k; e& f' k3 g9 T8 p: [# I, I
  51. Text! k' }+ E3 d' c8 ?* A1 _
  52. ID                                       : 3
    # e& D% n" f' G
  53. Format                                   : UTF-83 `3 D% V! n- r4 S: w
  54. Codec ID                                 : S_TEXT/UTF8
    0 U8 s  l0 n, {- c1 r. f- w* n% T# W1 \
  55. Codec ID/Info                            : UTF-8 Plain Text; R; A4 y9 D4 P
  56. Duration                                 : 1 h 25 min- b0 M# k, [/ F8 o# m1 V
  57. Bit rate                                 : 41 b/s9 I" Y$ M' R) g% m; ]
  58. Count of elements                        : 6963 S# p5 C/ c6 b9 z& ~4 X
  59. Stream size                              : 26.2 KiB (0%)$ D/ ]4 K4 j* O5 `/ l- Z/ W
  60. Title                                    : SDH
    0 h8 e# }! T, r
  61. Language                                 : English
    8 F$ k- x' v% x9 j( g. E
  62. Default                                  : No
    : A, D# L3 k! H( }2 y
  63. Forced                                   : No
复制代码

' o" l  w; |2 |5 D; L* t6 W! q3 y; D0 q5 q8 ]4 G
) h9 G9 @/ g; F' f+ u$ v

, X* x2 `; ]" ?, S  h. H" H5 {8 w5 M/ j9 W& \
$ }2 U* @& a% V' I
) R7 K9 H" k- J8 z

; v) V1 h- w" @  I- ?: k
" g. E6 @& t) j* o, g, g) @. }3 _9 ]
* J2 {, q/ V& L4 Z" U" `2 z
游客,如果您要查看本帖隐藏内容请回复  捐助论坛可免回复查看隐藏内容 详情请点击
: }/ V8 ~% \  b- }& R: |2 S/ t
- E0 r% X* G* B" d* z
百度网盘
5 m  E9 \! i9 ?5 c' U
  _0 ?! W& \3 ~5 i- [( g( G; d' {
游客,如果您要查看本帖隐藏内容请回复  捐助论坛可免回复查看隐藏内容 详情请点击
发表于 2018-4-15 00:49:09 | 显示全部楼层
好版本 可以洗版了~~~~
发表于 2018-4-15 08:12:45 | 显示全部楼层
咏春入门片,赞!还是那个年代的电影真诚3 u, I  e  r0 g! d2 W- I

4 f! j! z3 F2 b- t) Z
发表于 2018-4-15 08:47:58 | 显示全部楼层
洪金宝的电影竟然还有没看过的!里面还有林正英!!
发表于 2018-4-15 09:24:39 | 显示全部楼层
不错的电影,感谢发布~
发表于 2018-4-15 12:09:43 | 显示全部楼层
那么早洪金宝就当导演了
发表于 2018-4-15 13:26:19 | 显示全部楼层
大哥电影支持一下
发表于 2018-4-15 14:54:00 | 显示全部楼层
经典香港早期武侠电影,谢谢楼主分享
发表于 2018-4-16 11:41:38 | 显示全部楼层
老电影还这么清楚,不错
发表于 2018-4-18 14:30:49 | 显示全部楼层
没看过呢,经典老电影,看看
您需要登录后才可以回帖 登录 | 立即注册

本版积分规则

封号公示|手机版|Archiver|有问题发邮件到admin#(换成@)hd1tj.org|微博|免责申明|HD一条街 |网站地图

GMT+8, 2018-9-25 03:46

快速回复 返回顶部 返回列表