HD一条街论坛

 找回密码
 限时注册
搜索
查看: 329|回复: 9

[1080p] 赞先生与找钱华 Warriors.Two.1978.1080p.WEBRip.DDP2.0.x264-NTb 8.58G

[复制链接]
发表于 2018-4-15 00:03:31 | 显示全部楼层 |阅读模式
' u- k3 n; P  e4 _! X
/ }* g; [" x, t% ?8 s
◎译  名 WarriorsTwo: A; z0 \" o9 h; X! |
◎片  名 赞先生与找钱华
6 ]0 E- D7 u5 L, O3 q' E◎年  代 19786 C) b- i+ I! S* @' b% H
◎产  地 香港2 N$ @/ i3 {* l1 A# j% U6 B5 z
◎类  别 动作/剧情
' ~% Q- M. w! i# ^+ \◎语  言 国语
9 f+ k9 }( b' a% v* V◎上映日期 1978-12-28
5 J' M6 b- c, d8 B  S4 s9 m9 s◎IMDb评分  7.4/10 from 963 users
4 ~1 @* q5 `( X, p: K, ]◎IMDb链接  http://www.imdb.com/title/tt0078517/7 R3 ]+ N+ I: J+ ~7 `4 H
◎豆瓣评分 7.2/10 from 895 users
& o+ k# Y/ s# ?# \# o◎豆瓣链接 https://movie.douban.com/subject/1305322/6 d9 P1 y- Z  R: v
◎片  长 95 分钟
+ P6 G- x& t$ b7 O+ n' S◎导  演 洪金宝
7 m" l1 X. U! |; j( A5 j9 r◎主  演 梁家仁5 i3 x+ d2 y' K$ |
      卡萨伐
; b. {9 k$ a; e      洪金宝
) T9 X( ?$ i8 Y( t. M+ g: [      石天1 c) h' k2 j, J3 N1 g2 m3 }* y9 J
      冯克安
0 {8 C1 ]8 d8 o) D      李海生
! S+ a, |# n( @6 }2 V( G: i* Y      林正英3 N3 n, }( q5 k
      元彪
, x; N; m% i! `$ K7 d+ x4 e      曾志伟
) R4 g( \5 R6 V( h9 G# c
, P! J# _; q$ p9 l( a. O# y◎简  介( f9 T0 g) u9 `
. g8 p4 E6 P: ^: \9 R
  我国南派拳术源远流长,其中咏春拳身在佛山的传人梁赞(梁家仁 饰)精通医术,为人仗义,乡间有口皆碑。梁赞有徒肥春(洪金宝 饰),性格憨厚常受人捉弄。肥春好友找钱华(卡萨伐 饰)在莫记钱庄担任出纳,平时好打抱不平。是日,一伙江洋恶徒来到佛山,与莫记老板莫老庆接头,一干匪徒为抢夺权利,筹划杀死镇长,却正好为找钱华偷听到。找钱华向镇长报信,不料被莫老庆一伙发觉,连累老母身亡,找钱华本人身负重伤,幸有肥春搭救。莫老庆担心梁赞出手阻拦,投鼠忌器,而找钱华为报仇在肥春的帮助下拜梁赞为师,苦学咏春欲一雪深仇,正邪交锋即将展开……
  1. Video
    8 D- _; _# f9 x3 h" F( U
  2. ID                                       : 1
    8 F+ n1 R1 F  P' V' W
  3. Format                                   : AVC
    $ a6 s0 E( n% c& F" x; \1 b8 h% I; u' y
  4. Format/Info                              : Advanced Video Codec, \* Z8 w2 u9 z
  5. Format profile                           : [email protected]- y# O9 A$ f2 x" B6 x
  6. Format settings, CABAC                   : Yes8 j/ d1 A3 n* t5 Y8 Z, Q$ F
  7. Format settings, ReFrames                : 4 frames) ?' n+ d$ N8 }. F
  8. Codec ID                                 : V_MPEG4/ISO/AVC  }: D9 x" n4 S7 s7 q
  9. Duration                                 : 1 h 26 min, B4 x/ P7 i3 L2 H) n
  10. Bit rate mode                            : Variable9 c- r9 g7 ^  z0 g! `* a2 e
  11. Bit rate                                 : 14.0 Mb/s( T  M. ?" t& {0 T) ]; t3 }5 f) l
  12. Maximum bit rate                         : 15.0 Mb/s; l9 w: {& `6 I5 H, }5 A
  13. Width                                    : 1 920 pixels
    / b3 T0 h5 N5 G1 C) }* h9 e$ E
  14. Height                                   : 1 080 pixels. m  Q; D& x8 e$ X5 y7 V) W
  15. Display aspect ratio                     : 16:9! d* {3 D* A1 U$ B
  16. Frame rate mode                          : Constant/ [: q5 c8 m; {1 k+ L9 E& o' c
  17. Frame rate                               : 25.000 FPS9 E* I# D* i/ b4 k' r. ?4 ~: B$ q8 N! }
  18. Color space                              : YUV% ~+ b6 I! l( w* t( w$ j1 A6 a  ~' J
  19. Chroma subsampling                       : 4:2:0% `: N: E! E7 {
  20. Bit depth                                : 8 bits; K3 [* T- K0 k" t, E1 e3 k  P
  21. Scan type                                : Progressive
    ! h; `# k% M+ x, `  @9 Y6 l
  22. Bits/(Pixel*Frame)                       : 0.270
    $ S5 \2 U( M7 l! v" m% O
  23. Stream size                              : 8.45 GiB (98%)* D1 f% f1 U: Z, N
  24. Default                                  : Yes
    1 R% t; P, s% f9 X. S# P% Z( @) b
  25. Forced                                   : No
    ' W. w. y/ b/ l+ a- c8 l$ F
  26. Color range                              : Limited
    ; ]. Z5 i2 s+ P5 o$ q2 z# K
  27. Color primaries                          : BT.709" ]2 ^! j  I0 ?; P0 g% H
  28. Transfer characteristics                 : BT.709! l# a, A. f( @7 C, u( F. \5 F) ]
  29. Matrix coefficients                      : BT.7092 K. c9 W& B% T# X) k6 [& o
  30. % W/ Q7 p" `$ g$ c5 n
  31. Audio2 J" a! ]% F3 n+ e2 u+ h
  32. ID                                       : 2
    4 D1 c8 y7 ^. O0 J1 W! n0 G* x4 v
  33. Format                                   : E-AC-3* ~4 V% |' I/ `. [( q0 Y6 ?
  34. Format/Info                              : Enhanced Audio Coding 3
    6 i% l0 I' o( v
  35. Format settings, Endianness              : Big
    5 f7 m% g2 X  C1 y
  36. Codec ID                                 : A_EAC38 t3 j# L4 q/ n
  37. Duration                                 : 1 h 26 min  L; c8 U9 e# N( A$ Z+ a9 s
  38. Bit rate mode                            : Constant
    8 u; v2 M9 ]! y9 \0 Y! h
  39. Bit rate                                 : 224 kb/s) u% _! f7 d, a/ T: K6 D8 K! O
  40. Channel(s)                               : 2 channels# Y6 t5 y4 O9 l( `! E& S  O
  41. Channel positions                        : Front: L R
    " U* d) R2 ]) y# [# j. T
  42. Sampling rate                            : 48.0 kHz
    ) h2 O% T# `6 R) F! ^! _% ?+ ?6 R0 E
  43. Frame rate                               : 187.500 FPS (256 spf), u4 W: B4 Y$ S( l4 ?
  44. Compression mode                         : Lossy+ m. m4 w. m: [& K/ O* W" I# u# Y
  45. Stream size                              : 138 MiB (2%)/ @; E! `, p5 b9 @# v
  46. Language                                 : Chinese
    8 S( {# Y5 R/ }/ |
  47. Service kind                             : Complete Main0 e* s# n' U, q6 Z. |9 c
  48. Default                                  : Yes5 {) d9 Z1 f4 }# z' _
  49. Forced                                   : No
    $ m4 t: Z" {& r: @

  50. 9 Y& }, g; e% h
  51. Text
    - U. |9 n; X9 N/ a0 b$ _2 W
  52. ID                                       : 39 \4 q7 s1 }/ W- R5 c4 I) |+ O; M" U
  53. Format                                   : UTF-8; r4 f3 T/ y( J+ d
  54. Codec ID                                 : S_TEXT/UTF8
    3 u' N  `/ A" V( G- X5 [
  55. Codec ID/Info                            : UTF-8 Plain Text5 g" J4 n* V; ^4 K' _# S
  56. Duration                                 : 1 h 25 min! y! k/ n6 l, ]: q; m
  57. Bit rate                                 : 41 b/s, y. L$ j& L) ]8 g; ^
  58. Count of elements                        : 6965 ]; ]: @! ^8 @
  59. Stream size                              : 26.2 KiB (0%)
    8 b+ d8 y2 C& a3 {8 q. y6 T
  60. Title                                    : SDH$ F! N8 {" h+ G; \2 w
  61. Language                                 : English- ?/ F, |! |: E- }, b9 N6 i
  62. Default                                  : No. q+ p9 B# i+ w9 S6 G5 d
  63. Forced                                   : No
复制代码

* K6 C/ L9 V' [8 Y0 [  L% C: F7 S0 n/ ~& R7 E

- z& B$ G/ }. ^
' J1 x5 y4 p! q- O8 B  n# V7 a( F
! H  R0 b4 c8 P4 ~& X! s

* X& h7 f8 c6 g( B0 r: Z% h
$ ^0 G8 E5 ~& I, @; l; j0 J2 @, ~. l- a8 {' l2 w. E

2 S6 }" d0 P; g' F
游客,如果您要查看本帖隐藏内容请回复  捐助论坛可免回复查看隐藏内容 详情请点击
2 U8 L: ]. s9 d, y5 |
4 y0 {/ p3 \) `( s) p: q) Y% d( [$ z
百度网盘6 D  m: ^5 b# U' ]

/ g2 q2 r* n' {/ X" h6 q
游客,如果您要查看本帖隐藏内容请回复  捐助论坛可免回复查看隐藏内容 详情请点击
发表于 2018-4-15 00:49:09 | 显示全部楼层
好版本 可以洗版了~~~~
发表于 2018-4-15 08:12:45 | 显示全部楼层
咏春入门片,赞!还是那个年代的电影真诚
3 t9 l* e% P+ V; }; e5 O( S
# ^5 s* u) U, u. q% a- B
发表于 2018-4-15 08:47:58 | 显示全部楼层
洪金宝的电影竟然还有没看过的!里面还有林正英!!
发表于 2018-4-15 09:24:39 | 显示全部楼层
不错的电影,感谢发布~
发表于 2018-4-15 12:09:43 | 显示全部楼层
那么早洪金宝就当导演了
发表于 2018-4-15 13:26:19 | 显示全部楼层
大哥电影支持一下
发表于 2018-4-15 14:54:00 | 显示全部楼层
经典香港早期武侠电影,谢谢楼主分享
发表于 2018-4-16 11:41:38 | 显示全部楼层
老电影还这么清楚,不错
发表于 2018-4-18 14:30:49 | 显示全部楼层
没看过呢,经典老电影,看看
您需要登录后才可以回帖 登录 | 限时注册

本版积分规则

封号公示|手机版|Archiver|有问题发邮件到admin#(换成@)hd1tj.org|微博|免责申明|HD一条街

GMT+8, 2018-12-19 18:10

快速回复 返回顶部 返回列表