HD一条街论坛

 找回密码
 立即注册
搜索
查看: 252|回复: 3

[1080p] 荡寇志 All.Men.Are.Brothers.1975.1080p.BluRay.x264-aBD 7.94G

[复制链接]
发表于 2018-4-13 17:46:13 | 显示全部楼层 |阅读模式
  n: {% [5 l0 T* S

: x# y% X! p$ r# s  Z' `0 k' C◎译  名 荡寇志
9 [: Q8 v0 J" w$ I+ D◎片  名 蕩寇誌+ R( y4 o# A: W& w- b
◎年  代 1975  S' y) Q% T- z  z" o
◎产  地 香港0 u. C% }9 s: u/ o1 W% B& f  o
◎类  别 动作/冒险& z* N  e+ A3 t/ {: Y
◎语  言 汉语普通话: N0 ~' P+ z; |! X7 b& X8 |
◎上映日期 1975-05-10  {+ U( N( p, e/ N; g# d1 Z8 A
◎IMDb评分  6.5/10 from 238 users  E, K$ ?- u& U. q" D" O
◎IMDb链接  http://www.imdb.com/title/tt0071389/8 k& e! W9 L" Y2 |' x9 i
◎豆瓣评分 6.6/10 from 722 users. i9 D- n) w2 r+ ?, S, w
◎豆瓣链接 https://movie.douban.com/subject/1302187/0 {( F- q) p% p, V2 v! E4 D8 I
◎片  长 102分钟
4 M, K8 X6 N  G◎导  演 张彻 / 午马  Y% \% r8 ]* r$ H0 L
◎主  演 姜大卫
- j8 Q0 j8 Z6 o& b9 U9 F      狄龙( k% M: j/ S$ Y1 d" u$ j+ S
      陈观泰
' B# D/ H* l& d" p% }5 p9 G8 `7 Z: ]      钟玲玲1 |  _- \  @4 N$ s) Y8 \
      丹波哲郎1 w4 j. h' d: x) c; _! N3 O- V
      李修贤 Danny Lee( G1 ?" L1 ]. k8 ?8 g+ M
8 b' Y: R; I# [# E5 k
◎简  介
( K8 a( X$ K/ U  _- U, T5 `
+ y( L- c& S/ h  梁山好汉浪子燕青(姜大卫 饰)经名妓李师师引见,得到皇帝赦免,梁山伯全伙接受招安,前往南方征讨方腊。梁山军一路连克郡县,同时诸多好汉阵亡。大军攻打杭州城,军师吴用派出张顺(李修贤 饰)、燕青、史进(陈观泰 饰)、李逵(樊梅生 饰)、石秀等七筹好汉先行入城埋伏。李逵在城内打草惊蛇致使杭州全城戒备,燕青使计脱身,石秀为了给义兄报仇与敌将石宝同归于尽。城内其他人活捉方腊之子方天定,史进断后英勇战死。杭州城外,燕青力战南方相扑高手司行方,返回梁山伯大营。大军计划以涌金门为突破口进攻杭州,武松(狄龙 饰)等将领率军攻城,讨伐方腊终成替天行道大业。
  1. Video
    3 s0 b, Z! A; [/ I
  2. ID                                       : 13 W$ v" _. ^. r) f+ U) L+ y
  3. Format                                   : AVC
    0 |+ |' m7 M0 r6 n: _
  4. Format/Info                              : Advanced Video Codec
    7 t+ s& ?1 s  X" f3 z( X2 o8 R  ^+ Y
  5. Format profile                           : [email protected]
    ) R7 l  l1 i: u  p0 C: w9 _1 b* w
  6. Format settings, CABAC                   : Yes, {2 Z1 Y: Y1 L2 `' r
  7. Format settings, ReFrames                : 5 frames
    0 p, w! Y# J! F8 x" j) W
  8. Codec ID                                 : V_MPEG4/ISO/AVC
    ) ?- Y' R- k0 c
  9. Duration                                 : 1h 41mn
    1 N! \1 Y6 q3 Z% D
  10. Bit rate                                 : 9 676 Kbps
    / O' t: \# J) X, ~
  11. Width                                    : 1 920 pixels' [' D/ L, V& {) M% y% n7 p
  12. Height                                   : 816 pixels* j4 m7 ?, a7 g. w. L8 J0 {
  13. Display aspect ratio                     : 2.35:1
    6 N& {. e5 g: D2 S, v) P
  14. Frame rate mode                          : Constant" I: E9 G; [' A4 B* ~! b
  15. Frame rate                               : 23.976 fps
    0 }- j) ?6 M- K4 ~# m
  16. Color space                              : YUV* n6 k) w4 L* q: K
  17. Chroma subsampling                       : 4:2:0
    6 n& P2 @! r0 g1 _; z; x  X) s* K) b- c3 E
  18. Bit depth                                : 8 bits
    9 C- Y7 j4 h/ E2 I
  19. Scan type                                : Progressive: A! l" C% x% e; J0 T
  20. Bits/(Pixel*Frame)                       : 0.258
    ) N% K" H! U# F# i/ G: Q& R
  21. Stream size                              : 6.71 GiB (85%)
    / d9 e, _- U6 q1 v
  22. Writing library                          : x264 core 110 r1803 04b5966) `% C' T1 C0 k0 S6 x2 A3 z
  23. Encoding settings                        : cabac=1 / ref=5 / deblock=1:-1:-1 / analyse=0x3:0x113 / me=umh / subme=7 / psy=1 / psy_rd=1.00:0.00 / mixed_ref=1 / me_range=16 / chroma_me=1 / trellis=1 / 8x8dct=1 / cqm=0 / deadzone=21,11 / fast_pskip=1 / chroma_qp_offset=-2 / threads=12 / sliced_threads=0 / nr=0 / decimate=1 / interlaced=0 / constrained_intra=0 / bframes=3 / b_pyramid=2 / b_adapt=2 / b_bias=0 / direct=3 / weightb=1 / open_gop=0 / weightp=2 / keyint=250 / keyint_min=23 / scenecut=40 / intra_refresh=0 / rc_lookahead=40 / rc=2pass / mbtree=1 / bitrate=9676 / ratetol=1.0 / qcomp=0.60 / qpmin=0 / qpmax=51 / qpstep=4 / cplxblur=20.0 / qblur=0.5 / vbv_maxrate=50000 / vbv_bufsize=50000 / ip_ratio=1.40 / aq=1:1.00 / nal_hrd=none
    7 z" T* m1 g8 W/ A5 ~
  24. Language                                 : Chinese# ^6 K# k, M1 \" N% Y& l) r
  25. Default                                  : Yes
    + q) z% H4 o6 }5 B5 l. h" ?
  26. Forced                                   : Yes$ Z5 E' Y' D' N3 ?$ ?+ q! a

  27. 0 }8 s( k* M2 q" b9 e# a+ b9 o
  28. Audio9 H/ v8 l% U# w( I$ L$ d
  29. ID                                       : 2
    / w7 q" S# s2 p  C" j
  30. Format                                   : DTS/ ?% P' O/ w: x) b& ~4 U: }
  31. Format/Info                              : Digital Theater Systems1 b$ k  A/ X) H2 |) V
  32. Mode                                     : 16$ T7 Q+ h' x1 H' r; L
  33. Format settings, Endianness              : Big) T, L0 R, e/ w* b' P8 b% F+ X
  34. Codec ID                                 : A_DTS
    9 B# A/ ?  S' i  C
  35. Duration                                 : 1h 41mn
    9 K0 O4 Y3 |5 E' K" {1 y  U: l3 ?; i, d
  36. Bit rate mode                            : Constant
      x, r3 ?; ]9 t7 ]
  37. Bit rate                                 : 1 509 Kbps
    7 w; n( j* f; n" S2 ]
  38. Channel(s)                               : 6 channels2 Y1 L6 o! t4 w0 w1 J0 t6 A8 U2 e
  39. Channel positions                        : Front: L C R, Side: L R, LFE5 ]- m( u+ Y1 J3 T
  40. Sampling rate                            : 48.0 KHz
    2 q2 _1 k4 \7 _" k5 _4 Q
  41. Bit depth                                : 16 bits
    " v  R# P% w( q4 b& i
  42. Compression mode                         : Lossy
    ' \/ W2 z  O) G' w1 ]) V' V
  43. Stream size                              : 1.07 GiB (13%)
    ' \1 W4 U/ X3 q7 V/ ]6 L
  44. Language                                 : Chinese
    . }. P2 p0 t3 Z
  45. Default                                  : Yes
    " y2 U# n: r8 h; y7 N; j
  46. Forced                                   : Yes- [3 e' A/ U' L; g" H/ F
  47. * J# [. A$ F  o( \  h+ v
  48. Text
    * ^5 d! o7 ^6 n4 }) p! P3 b
  49. ID                                       : 3
    ' k1 D* ?! c8 w% B1 U8 m) P
  50. Format                                   : UTF-8
    4 ]- r  E5 S& i
  51. Codec ID                                 : S_TEXT/UTF8/ z! n% G  z( ]7 s6 Q+ Y3 g$ v4 @1 Y
  52. Codec ID/Info                            : UTF-8 Plain Text2 m+ U6 w3 s, C5 w+ Y
  53. Language                                 : English
    / ~/ N  N$ _) w+ T
  54. Default                                  : Yes) Y  Z) Y( {- K2 L
  55. Forced                                   : No
复制代码

5 H% R: E9 e9 r0 S* u! o7 M
6 O4 z3 b: G! h
- r4 b6 D' L8 u. o1 X: ^# V0 ^9 O6 g3 {' u5 k7 t

/ n3 P7 r( L% \
/ Y& r$ O) d* w8 T6 E
% i/ k( G* b1 m3 v2 M0 ]* Z8 B6 M' U
% O* t7 K- R2 l, M' p/ P" r' S8 I/ c; L, J9 f4 Q
游客,如果您要查看本帖隐藏内容请回复  捐助论坛可免回复查看隐藏内容 详情请点击
发表于 2018-4-28 21:13:41 | 显示全部楼层
谢谢您,水浒传题材绝对经典。邵氏经典,都是珍品。
发表于 2018-4-28 21:46:08 | 显示全部楼层
经典老片啊!
发表于 2018-5-25 08:43:47 | 显示全部楼层
这部片在当年是邵氏的全明星阵容
您需要登录后才可以回帖 登录 | 立即注册

本版积分规则

封号公示|手机版|Archiver|有问题发邮件到admin#(换成@)hd1tj.org|微博|免责申明|HD一条街

GMT+8, 2018-11-18 14:46

快速回复 返回顶部 返回列表