HD一条街论坛

 找回密码
 立即注册
搜索
查看: 370|回复: 3

[1080p] 荡寇志 All.Men.Are.Brothers.1975.1080p.BluRay.x264-aBD 7.94G

[复制链接]
发表于 2018-4-13 17:46:13 | 显示全部楼层 |阅读模式
7 B' Y: k7 F( W; X/ x3 h, w2 F7 l

; e* d3 b8 ?  u5 H- D◎译  名 荡寇志
$ N" R0 t9 T2 @$ Q: P8 k: P* M◎片  名 蕩寇誌4 }7 m/ ^6 y, X( Z2 L6 M
◎年  代 1975- b) Z6 M7 ~) {) {
◎产  地 香港
. ~/ _5 ]! r2 R$ o1 n$ J8 R◎类  别 动作/冒险
2 |2 B6 \+ `8 u◎语  言 汉语普通话" D/ y3 s3 U  }4 G
◎上映日期 1975-05-107 p& p8 e- Y+ V! n2 k
◎IMDb评分  6.5/10 from 238 users
& \0 [) G5 m2 K9 e◎IMDb链接  http://www.imdb.com/title/tt0071389/5 n2 G8 E$ o, }! U
◎豆瓣评分 6.6/10 from 722 users
2 S% X( h3 x$ j1 Q2 J7 a- C◎豆瓣链接 https://movie.douban.com/subject/1302187/7 `( R, D8 Y; X
◎片  长 102分钟
4 i) L: F) O; R! K: I◎导  演 张彻 / 午马1 x' r/ d, F+ E
◎主  演 姜大卫
" u! Y& m8 z0 D* N# X! z1 W      狄龙6 Q% k6 ~) R0 p3 M' t. R# Y
      陈观泰+ S. G8 o0 O' R1 v% |$ F* T4 j
      钟玲玲
! s( H- `: A5 H+ z* ?/ J. i. g( x      丹波哲郎
: \1 J9 i7 B7 J$ U- v) C      李修贤 Danny Lee3 r: Q4 t2 ]4 C0 v. L
$ I5 B: Z) ?; A9 P7 @
◎简  介$ \6 i" J! `9 f! S. S) Z' w
# a. m5 }6 Y. O( f0 v* a
  梁山好汉浪子燕青(姜大卫 饰)经名妓李师师引见,得到皇帝赦免,梁山伯全伙接受招安,前往南方征讨方腊。梁山军一路连克郡县,同时诸多好汉阵亡。大军攻打杭州城,军师吴用派出张顺(李修贤 饰)、燕青、史进(陈观泰 饰)、李逵(樊梅生 饰)、石秀等七筹好汉先行入城埋伏。李逵在城内打草惊蛇致使杭州全城戒备,燕青使计脱身,石秀为了给义兄报仇与敌将石宝同归于尽。城内其他人活捉方腊之子方天定,史进断后英勇战死。杭州城外,燕青力战南方相扑高手司行方,返回梁山伯大营。大军计划以涌金门为突破口进攻杭州,武松(狄龙 饰)等将领率军攻城,讨伐方腊终成替天行道大业。
  1. Video
    & Y7 O. o  {# I9 M# n
  2. ID                                       : 1
    2 I* H: Z' i' h5 @- \
  3. Format                                   : AVC
    ; a$ J7 M& p% [' k5 B
  4. Format/Info                              : Advanced Video Codec7 j$ ~5 I" g2 N7 P4 q
  5. Format profile                           : [email protected]0 N. ^% ]0 H) m% k! i
  6. Format settings, CABAC                   : Yes2 I: k+ j0 {" e/ }
  7. Format settings, ReFrames                : 5 frames
    3 l; o" Y0 w1 P7 Q
  8. Codec ID                                 : V_MPEG4/ISO/AVC
    4 n$ o$ d" [- L$ I; C; ?( v
  9. Duration                                 : 1h 41mn) I2 R: ], B- _; P$ \' C$ R4 m
  10. Bit rate                                 : 9 676 Kbps$ \0 V- ]& C  k
  11. Width                                    : 1 920 pixels
      t8 p! u! b4 o- _7 s3 \; ^
  12. Height                                   : 816 pixels
    # x. M5 V: b, [
  13. Display aspect ratio                     : 2.35:1" Z$ y* M" N6 V9 n7 U4 O- i
  14. Frame rate mode                          : Constant; m( Q2 a/ N8 J# J# f
  15. Frame rate                               : 23.976 fps% Y8 L6 o. N% V( h9 ^& W$ O
  16. Color space                              : YUV
    , @; J0 G& N( J# k
  17. Chroma subsampling                       : 4:2:0& n2 o5 k5 L1 Y( O6 n5 F8 \
  18. Bit depth                                : 8 bits
    ! M2 J  \( T, E1 F* E
  19. Scan type                                : Progressive- L9 F6 m8 `$ g9 P8 U! X
  20. Bits/(Pixel*Frame)                       : 0.258
    2 R" L9 V) H$ }/ M
  21. Stream size                              : 6.71 GiB (85%)2 G$ |& i5 n# B4 |1 W
  22. Writing library                          : x264 core 110 r1803 04b5966+ |  J0 m2 x! }& Q; `
  23. Encoding settings                        : cabac=1 / ref=5 / deblock=1:-1:-1 / analyse=0x3:0x113 / me=umh / subme=7 / psy=1 / psy_rd=1.00:0.00 / mixed_ref=1 / me_range=16 / chroma_me=1 / trellis=1 / 8x8dct=1 / cqm=0 / deadzone=21,11 / fast_pskip=1 / chroma_qp_offset=-2 / threads=12 / sliced_threads=0 / nr=0 / decimate=1 / interlaced=0 / constrained_intra=0 / bframes=3 / b_pyramid=2 / b_adapt=2 / b_bias=0 / direct=3 / weightb=1 / open_gop=0 / weightp=2 / keyint=250 / keyint_min=23 / scenecut=40 / intra_refresh=0 / rc_lookahead=40 / rc=2pass / mbtree=1 / bitrate=9676 / ratetol=1.0 / qcomp=0.60 / qpmin=0 / qpmax=51 / qpstep=4 / cplxblur=20.0 / qblur=0.5 / vbv_maxrate=50000 / vbv_bufsize=50000 / ip_ratio=1.40 / aq=1:1.00 / nal_hrd=none
    - ?% Q) S6 c# N0 Z1 Z' }, E$ ]
  24. Language                                 : Chinese
    7 T4 U; U+ r: L% y. G6 \
  25. Default                                  : Yes
    ' o( m' L# B7 A9 d7 k, A8 m" H
  26. Forced                                   : Yes0 H$ m* l, V3 ^# m8 w3 n! r

  27. ( j/ G* c/ U# y. ^5 f8 _8 N) u% r! t
  28. Audio5 Z+ f6 ^: A) E- r" [
  29. ID                                       : 2
    ' V9 _) d, G7 f' z. u6 Y! E: ^
  30. Format                                   : DTS
    ! J5 @$ I; r; _7 M7 r; @
  31. Format/Info                              : Digital Theater Systems
    6 w: Y4 J1 o5 L5 f7 S5 v/ f! r
  32. Mode                                     : 169 I$ a( e7 N! `  f
  33. Format settings, Endianness              : Big
    6 r! r" Z/ q6 W( |
  34. Codec ID                                 : A_DTS
    7 X* R& X6 s% y) \* j" M' A
  35. Duration                                 : 1h 41mn
    & n. K$ P7 r: u5 L$ p1 Z0 c) M; q
  36. Bit rate mode                            : Constant
    2 o6 o7 b7 g2 ?: D5 R4 ^' V7 G
  37. Bit rate                                 : 1 509 Kbps
    & D4 [. H+ }8 W! C$ c
  38. Channel(s)                               : 6 channels
    9 C! u2 W% T6 q- u9 ]! D, O2 b- I) u* Z
  39. Channel positions                        : Front: L C R, Side: L R, LFE* K& j  [# m& u3 b% Z
  40. Sampling rate                            : 48.0 KHz
    4 I1 k- d  f/ e! l% t8 X
  41. Bit depth                                : 16 bits
    2 A0 q0 R/ A% c( |5 b
  42. Compression mode                         : Lossy
    % a2 y, z4 v, }6 N( S
  43. Stream size                              : 1.07 GiB (13%)
    8 _4 F+ z: c; a1 v. |# s
  44. Language                                 : Chinese0 S: m: g; R, n$ Q& m
  45. Default                                  : Yes$ @! @1 |( K0 t! N
  46. Forced                                   : Yes7 J" \: s/ k7 M2 d! A, i) [1 T
  47. ( X3 C) O/ G' K" |+ i0 r7 a+ J6 h
  48. Text: u3 \" Y4 p: N& J% b  ]9 @/ Q
  49. ID                                       : 30 Q0 a5 [' C$ \4 p* R8 C$ g& N: D
  50. Format                                   : UTF-8
    6 _& K$ p$ Y# |: f
  51. Codec ID                                 : S_TEXT/UTF8
    + ~9 k* Y( i* F7 y
  52. Codec ID/Info                            : UTF-8 Plain Text0 ^4 b0 H( i- \) e: h; z& U/ T- v1 n* f
  53. Language                                 : English1 v' o( H' P7 }" C7 }+ m! J
  54. Default                                  : Yes% S7 N% H7 A9 e7 X) e) B% g4 U
  55. Forced                                   : No
复制代码
- T8 `4 Q8 N7 y( x/ C" E

6 x3 Z8 U7 {2 z: Y5 S
. Q/ f* W1 D) u' d2 V0 p$ ^# U6 z$ i" @' }( ?
4 ]* y6 N  R# _  y4 ^! J

$ x4 O6 J7 F9 m
. T3 e/ h1 D( C& f  J
$ ?: m- T; V% o: Y& q9 L
3 I6 n5 e  p1 ~2 k7 ^5 K
游客,如果您要查看本帖隐藏内容请回复  捐助论坛可免回复查看隐藏内容 详情请点击
发表于 2018-4-28 21:13:41 | 显示全部楼层
谢谢您,水浒传题材绝对经典。邵氏经典,都是珍品。
发表于 2018-4-28 21:46:08 | 显示全部楼层
经典老片啊!
发表于 2018-5-25 08:43:47 | 显示全部楼层
这部片在当年是邵氏的全明星阵容
您需要登录后才可以回帖 登录 | 立即注册

本版积分规则

封号公示|手机版|Archiver|有问题发邮件到admin#(换成@)hd1tj.org|微博|免责申明|HD一条街

GMT+8, 2019-2-22 05:00

快速回复 返回顶部 返回列表