HD一条街论坛

 找回密码
 立即注册
搜索
查看: 104|回复: 1

[欧美] 纪录片 78/52:希区柯克的洗澡戏/惊魂记中计 78.52.Hitchcocks.Shower.Scene.2017.DOCU.720p.BluRay.x264.DTS-FGT 4.42G

[复制链接]
发表于 2018-4-13 12:54:59 | 显示全部楼层 |阅读模式

) x' [1 r. @) a8 X0 X9 R; j  M: r8 y1 ?. z& [7 p- ]
◎译  名 惊魂记中计(台)! b: @& M+ k* f" E3 C4 ^) N) _
◎片  名 78/52:希区柯克的洗澡戏 78/52
4 [$ b( @/ K" S, T0 ]◎年  代 2016
- S- q7 I' o2 P6 _◎产  地 美国
5 k% K8 C( R$ Y1 P. N& \9 _◎类  别 纪录片- ?+ X! \- E# p4 \8 C5 `
◎语  言 英语
  ~1 C6 X& C- `1 t: ^' A◎上映日期 2016(美国)
8 w6 Q% d0 a6 M1 c◎IMDb评分  7.4/10 from 1,282 users
; i* t- h  r7 S5 [8 ]+ ]. t& j◎IMDb链接  http://www.imdb.com/title/tt4372240/1 Y3 K. b' R  R0 N* y# h: a, @( u
◎豆瓣评分 8.2/10 from 506 users9 j+ Q# k; h0 T; C* `) R9 C
◎豆瓣链接 https://movie.douban.com/subject/26696069// C% P5 J) _% b5 \+ T
◎片  长 91分钟
; o2 r1 Y# M# K; G2 i) w( a$ f◎导  演 Alexandre O. Philippe
# n+ r# O6 E4 F' |9 z2 g) U! v◎主  演 杰米·李·柯蒂斯 Jamie Lee Curtis
, S6 [. Q8 y0 t3 ~# A4 R      伊利亚·伍德 Elijah Wood
+ G% l& V4 ~1 _5 P  c      丹尼·艾夫曼 Danny Elfman7 q, [" g6 z9 k" s& V' \; p
      雷·沃纳尔 Leigh Whannell0 r( ]( d" V2 l/ ^& y) ]
      彼得·博格丹诺维奇 Peter Bogdanovich
6 H9 e; i- n& s8 L2 I      尼尔·马歇尔 Neil Marshall. T! H! A2 a  j
      布莱特·伊斯顿·埃利斯 Bret Easton Ellis. n0 }: a- {) v0 _! B% m
      理查德·斯坦利 Richard Stanley
* j1 ~/ N# C% r' q0 \; C/ V1 V+ l      奥兹·珀金斯 Oz Perkins
& a4 B: I; _, r3 f% U      沃尔特·默奇 Walter Murch, C) \( p( B. z" s
      卡瑞恩·库萨马 Karyn Kusama
  a+ N4 d8 {9 J9 X      弗雷德·拉斯金 Fred Raskin' |  S: D% o( q& q2 C
      乔希·C·沃勒 Josh C. Waller
  B4 @: c2 {+ B7 j4 \6 ^      Mali Elfman
# E' k2 \9 z9 p# C& O& U      鲍勃·穆拉夫斯基 Bob Murawski
) [/ y0 ~6 Y. r  C9 t      吉尔莫·德尔·托罗 Guillermo del Toro
+ [. W, K# E4 A+ H3 \8 K5 ?      阿尔弗雷德·希区柯克 Alfred Hitchcock7 X) d5 d3 D6 N0 t4 A0 H$ U( L
      珍妮特·利 Janet Leigh
$ N2 _% S% g; Y6 |4 ~# {" H! Y/ d$ t      伊莱·罗斯 Eli Roth& S+ O7 G! S- c& Q7 W- p

( ]# B6 q  g- n; ~' M◎简  介9 l( M) ~; u% f# j" Y6 n1 l  o
) N, c1 s' S* R. D8 L
  78組鏡位,52次剪接,正值顛峰的希區考克花了七天時間,完成《驚魂記》中最懾人心魄的三分鐘浴室謀殺戲,至今仍為全世界懸疑發燒友們「驚驚」樂道。
5 \+ ~4 J& {& X# M- K( N5 y  殭屍解密奇作《活人生吃全都錄》鬼才導演亞利山德奧菲利浦考究魂再起,請來奇幻名導吉勒摩戴托羅、《恐怖旅社》導演艾利羅斯、《魔戒》男主角伊萊亞伍德,以及許多好萊塢當今一線技術專才和資深影評重看《驚魂記》,拍攝一眾驚悚職人自預告、劇本、分鏡、聲音、道具,乃至歷史與社會背景等不同角度切入,將這段傳奇劇碼開腸剖肚、逐鏡還原,嘗試挖掘細節中的所有魔鬼。2 _2 W0 A; S* t+ V- m! E8 A6 b: u
  從聖經繪畫到《鬼店》壁紙,從二戰遺緒到愛慾淫癖,細數大師鉅作,穿越百年影史,那些影迷們不敢問希區考克的,本片將一一解答。@台北金馬影展
  1. Video
    / {! ]! g" |- a% q$ |- n
  2. ID                                       : 1
    # X2 ]8 d/ g2 a. K- u
  3. Format                                   : AVC( G  _$ m7 P0 \0 S  ], k
  4. Format/Info                              : Advanced Video Codec
    4 `0 f1 b7 z+ @; W- ]) R7 `
  5. Format profile                           : [email protected]' U( ?6 `2 u3 M3 l, v
  6. Format settings                          : CABAC / 4 Ref Frames
    2 b1 E: Y5 ?. ]0 z/ ?/ M
  7. Format settings, CABAC                   : Yes
    1 R+ \6 Y+ C& `1 u3 C6 z" b2 I
  8. Format settings, ReFrames                : 4 frames+ i4 _. o0 e7 q! ]1 f
  9. Codec ID                                 : V_MPEG4/ISO/AVC$ a- a2 a0 |$ W2 U- {; {: e
  10. Duration                                 : 1 h 31 min
    3 {* O9 N) @+ }+ V2 B% a. W
  11. Bit rate                                 : 5 500 kb/s
    $ o; \/ T4 z3 z- ]+ W/ O; K+ \
  12. Width                                    : 1 280 pixels
    ( @1 C* K' E0 }7 ?
  13. Height                                   : 694 pixels
    9 F; D1 _& Y6 h
  14. Display aspect ratio                     : 1.85:14 c+ t; s1 B: {# U
  15. Frame rate mode                          : Constant$ M' D* Z8 F+ R7 [
  16. Frame rate                               : 23.976 (24000/1001) FPS3 W8 G9 Q% H, d7 }  R6 `
  17. Color space                              : YUV
    7 C7 C  }. @, S8 F' ~8 n
  18. Chroma subsampling                       : 4:2:0& B/ ?( y# K* b& ~! ~" H( o# n; t
  19. Bit depth                                : 8 bits6 W2 C/ x; J' O; I
  20. Scan type                                : Progressive& @1 t0 ]* D- [& f8 M- @! N
  21. Bits/(Pixel*Frame)                       : 0.258
    5 F  b. O" I7 ~- G+ @2 z5 `
  22. Stream size                              : 3.45 GiB (78%)  ^1 i7 X% {& J- H7 ]. V3 S
  23. Title                                    : 78.52.Hitchcocks.Shower.Scene.2017.DOCU.720p.BluRay.x264.DTS-FGT
    $ h! ]  V0 g6 i' t" v; d  I
  24. Writing library                          : x264 core 148 r2795M aaa9aa8
    ( E5 O/ Y5 Y7 {4 ~) F( c' c* U
  25. Encoding settings                        : cabac=1 / ref=4 / deblock=1:-2:-2 / analyse=0x3:0x113 / me=umh / subme=9 / psy=1 / psy_rd=1.00:0.15 / mixed_ref=1 / me_range=16 / chroma_me=1 / trellis=2 / 8x8dct=1 / cqm=0 / deadzone=21,11 / fast_pskip=1 / chroma_qp_offset=-3 / threads=24 / lookahead_threads=3 / sliced_threads=0 / nr=0 / decimate=1 / interlaced=0 / bluray_compat=0 / constrained_intra=0 / bframes=3 / b_pyramid=2 / b_adapt=2 / b_bias=0 / direct=3 / weightb=1 / open_gop=0 / weightp=2 / keyint=250 / keyint_min=25 / scenecut=40 / intra_refresh=0 / rc_lookahead=50 / rc=abr / mbtree=1 / bitrate=5500 / ratetol=1.0 / qcomp=0.60 / qpmin=0 / qpmax=69 / qpstep=4 / vbv_maxrate=31250 / vbv_bufsize=31250 / nal_hrd=none / filler=0 / ip_ratio=1.40 / aq=1:1.00( @7 u$ k0 ^! b9 e( `7 A+ D2 [5 i
  26. Language                                 : English
    ) C) N0 a" p  q9 p: o8 ]) j" o- W
  27. Default                                  : Yes
    2 V0 L- Z' Q/ _3 Q$ ~. f/ ?
  28. Forced                                   : No
    4 d9 ]3 B- r! A* o! E

  29. ( C$ r; F) p. @( R6 i" S
  30. Audio
    ; I, o, e$ f. ~2 f' q
  31. ID                                       : 2; {+ E/ O$ O) ^, C* H
  32. Format                                   : DTS' x5 ~- [: }: Y
  33. Format/Info                              : Digital Theater Systems
    7 f0 j# @9 @/ p% l
  34. Codec ID                                 : A_DTS
    4 K! r+ e2 y" Y9 |  D
  35. Duration                                 : 1 h 31 min
    0 Q! [4 P  I- ]6 e
  36. Bit rate mode                            : Constant
    ) R5 q5 L+ f3 T) C% p& O
  37. Bit rate                                 : 1 509 kb/s
    - e! i9 j  e1 d5 [
  38. Channel(s)                               : 6 channels
    , g+ e& I' v9 @
  39. Channel positions                        : Front: L C R, Side: L R, LFE
    & y! [9 S: Z$ d: E  R. m; d6 h
  40. Sampling rate                            : 48.0 kHz
    & e9 s- y9 {3 h; O( I/ N4 h
  41. Frame rate                               : 93.750 FPS (512 SPF)
    + o2 l% U7 z$ @- U3 y
  42. Bit depth                                : 24 bits
    : t0 L, Z9 F7 f8 G) N
  43. Compression mode                         : Lossy
    2 [8 I/ [  [0 K- g
  44. Stream size                              : 991 MiB (22%)
      d5 a* l. M8 F# p4 o
  45. Title                                    : 78.52.Hitchcocks.Shower.Scene.2017.DOCU.720p.BluRay.x264.DTS-FGT, G( z/ v: P1 N/ L
  46. Language                                 : English
    0 ~) ]7 G  ]0 M, k
  47. Default                                  : No  B( g$ u9 j1 }9 Z, s; c5 O) B
  48. Forced                                   : No
    , q" U( T/ E* T, t/ _) B! H2 Z

  49. ' w& k  W- c" A( w# e
  50. Text
    " c* C1 ^3 Y" d( w
  51. ID                                       : 3
    - D9 a) N6 w1 A, D, E
  52. Format                                   : UTF-8
    4 m1 u3 [$ r9 u$ G* j
  53. Codec ID                                 : S_TEXT/UTF8( }$ ^! [0 h! N* P# o0 E7 h
  54. Codec ID/Info                            : UTF-8 Plain Text
    # l/ c) L) S& c5 m% T3 v
  55. Duration                                 : 1 h 25 min
    / o% S. P4 b+ I7 W! A8 m4 _
  56. Bit rate                                 : 116 b/s8 Q3 E2 ]% @1 p3 u
  57. Count of elements                        : 1798* y% j4 U1 t8 S8 H0 N
  58. Stream size                              : 72.6 KiB (0%)
    & I: b6 G  H0 A- ~6 y% f2 m7 L
  59. Language                                 : English, a9 p6 v# F3 r7 w
  60. Default                                  : Yes
      k: K4 K- F2 g2 H* m9 d
  61. Forced                                   : No
    7 S3 n4 S4 W3 ~! m

  62. ) s. Z3 q& R7 K5 b" C
  63. Menu
    2 e) Q0 J* s: S3 _# M! m! o& `. U5 B
  64. 00:00:00.000                             : en:Chapter 01' L8 f" X# o& d/ K/ x- p8 k
  65. 00:06:33.810                             : en:Chapter 02/ }7 ?: m+ s, b
  66. 00:13:59.004                             : en:Chapter 03
    + u7 q5 r- m7 z4 b9 Y
  67. 00:20:07.623                             : en:Chapter 04
    & l  Q( W- e' f$ ]9 I3 t
  68. 00:26:22.956                             : en:Chapter 05& f& l, j( V  h1 i+ K  [; F
  69. 00:32:09.427                             : en:Chapter 06# _% f( r1 p6 X) O8 i; G, {
  70. 00:42:23.832                             : en:Chapter 07
    , b) Y3 T; |8 Q
  71. 00:51:19.034                             : en:Chapter 08
    6 r4 d& x7 K  R& g1 P: y
  72. 00:58:06.566                             : en:Chapter 09# Y% M2 o# C! q% y# ], L% \
  73. 01:05:54.909                             : en:Chapter 10
    ( Z( Q1 I  r, ]% R/ o6 _
  74. 01:13:46.422                             : en:Chapter 11
    & O: |& ~* P" b' E5 n$ ?
  75. 01:20:34.704                             : en:Chapter 12
    1 \. c; h' |' e. v
  76. 01:31:45.124                             : en:Chapter 13
复制代码
" L, i5 ^) s& \' S9 s+ \  ?

: e$ J2 r! g. V: ]8 R- B
# i! ^$ x: [# x5 L* p4 [& G; ^. D1 o3 x8 G9 t2 Z2 _% l3 o: O, [

/ N$ K' K3 v4 B
) H; P3 G6 C0 F3 ?* Z" F0 @
游客,如果您要查看本帖隐藏内容请回复  捐助论坛可免回复查看隐藏内容 详情请点击
发表于 2018-5-12 10:46:52 | 显示全部楼层
辛苦了很好看不俗
您需要登录后才可以回帖 登录 | 立即注册

本版积分规则

封号公示|手机版|Archiver|有问题发邮件到admin#(换成@)hd1tj.org|微博|免责申明|HD一条街

GMT+8, 2018-11-17 01:44

快速回复 返回顶部 返回列表