HD一条街论坛

 找回密码
 立即注册
搜索
查看: 125|回复: 3

[欧美] 纪录片:波士顿马拉松 Boston.2017.1080p.AMZN.WEBRip.DDP5.1.x264-monkee 8.55G

[复制链接]
发表于 2018-4-9 12:14:40 | 显示全部楼层 |阅读模式

. i4 V+ F+ p1 P. K# c/ B  O) c! ~4 {                               
登录/注册后可看大图

" L9 U) }* K/ ]6 Q/ f
  }# x4 j5 r8 C* O, v◎译  名 波士顿马拉松
4 ^  }' {% W- \% r  b- V◎片  名 Boston
- J6 u& {( A0 E; _6 @7 K◎年  代 2017
  Q+ a1 k/ p& R, ?  v/ U( U◎产  地 美国
$ K1 Q1 S) U  i& F4 ~3 r: |◎类  别 纪录片3 I. A5 m+ ?( Q9 b0 p: [" o; U
◎语  言 英语
( f+ }; E+ u' n5 j& J! x◎上映日期 2017-04-19(美国)
& l) S; p: S/ f  P- n" c+ C! `◎IMDb评分  7.4/10 from 63 users" L$ v* P! O1 {5 A
◎IMDb链接  http://www.imdb.com/title/tt6654082/' d, L9 S: ~$ X4 r+ M2 a: c
◎豆瓣评分 /10 from 0 users" u9 X( ~! H  a& u5 g
◎豆瓣链接 https://movie.douban.com/subject/27030983/
) o3 Q0 c6 ~: i8 x/ V◎片  长 114分钟1 I9 A, b8 g# D+ p2 Q3 ]9 m
◎导  演 Jon Dunham, X4 r5 Z2 o3 T1 h: ]
◎主  演 马特·达蒙 Matt Damon
& r# _; g) q8 I2 |      Robert de Castella
8 J0 L8 ]; ^5 ]! ~      Rosa Mota
5 K* ~) B; Y8 |. {; T+ T      Bill Rodgers
- Y7 W+ K! s! i      Joan Benoit Samuelson- Q, @" C$ v3 ]5 c; a6 G9 V

" f  V: U6 h! r  @8 Q◎简  介
: |5 l' K4 M: E9 [  X* u$ w. {5 E% t1 {( s
  The film chronicles the story of the iconic race from its humble origins starting with only 15 runners to the present day. In addition to highlighting the event as the oldest annually contested marathon in the world, the film showcases many of the most important moments in more than a century of the race’s history. Evolving from a working man’s challenge to welcoming foreign athletes and eventually women, Boston becomes the stage for many firsts and in no small part the event that paved the way for the modern marathon and mass participatory sports.8 }1 ?% s9 o5 \& Q9 a
  Following the tragic events of 2013, BOSTON records the preparations and eventual running of the 118th Boston Marathon one year later when runners and community gather once again in support of one another for what will be the most meaningful race of all.
; M  @0 p  L2 l- B4 I  Produced and directed by award winning filmmaker/marathoner Jon Dunham (Spirit of the Marathon I & II) and produced by Academy Award nominee Megan Williams, and executive produced by Academy Award nominee Frank Marshall (Back to the Future, The Curious Case of Benjamin Button, Sully), BOSTON is more than a running film. It is a timeless story about triumph over adversity for runner and non-runner alike.
  1. Video
    + T, ]4 P, ~, s  a3 L+ k# Q/ o. b# c
  2. ID                                       : 1; r$ g4 W" e8 \* {& \
  3. Format                                   : AVC
    ; \5 K  |/ P! H2 t0 T8 c- m
  4. Format/Info                              : Advanced Video Codec- g8 ~7 |. U" U' p+ M: J" ]
  5. Format profile                           : [email protected]% L+ h* x* l" H9 n
  6. Format settings                          : CABAC / 4 Ref Frames
    & n9 ]( \' n6 Z* X7 g# _9 [
  7. Format settings, CABAC                   : Yes
    " ^9 M  b$ D1 j
  8. Format settings, ReFrames                : 4 frames+ P0 M+ O) @$ Z6 h
  9. Codec ID                                 : V_MPEG4/ISO/AVC
    % _6 x- @1 {( M% z
  10. Duration                                 : 1 h 54 min
    0 `" G# B+ V3 U" n2 |* {! E
  11. Bit rate mode                            : Variable3 @7 I: ^5 d9 U' _
  12. Bit rate                                 : 10.1 Mb/s
    - J  R* R' [  a6 @3 ]
  13. Maximum bit rate                         : 15.0 Mb/s4 d! B2 z/ g1 C  ~* ^% C
  14. Width                                    : 1 920 pixels- D3 ]/ o. T# o! x& t1 J: n' U
  15. Height                                   : 1 080 pixels0 d( f$ {% H* ^3 J/ n2 Y- I
  16. Display aspect ratio                     : 16:9. |' N" k( U. g4 f- i
  17. Frame rate mode                          : Constant. H% }' C2 l: Z0 ~
  18. Frame rate                               : 23.976 (24000/1001) FPS
    1 N1 Y, {2 P6 p/ V& g) ]9 O/ T& h* |
  19. Color space                              : YUV
    " Q2 T7 L) G$ x4 D# b1 D7 E1 M
  20. Chroma subsampling                       : 4:2:0
    6 \7 @: {0 I% H& y4 }
  21. Bit depth                                : 8 bits
    9 X8 B% z6 l1 Z$ p3 t0 u4 @0 [! [
  22. Scan type                                : Progressive
    , r: e5 k+ L) f. ]# s2 D
  23. Bits/(Pixel*Frame)                       : 0.202
    ( D4 e( t2 d8 q  i; Q* ^; U( w
  24. Stream size                              : 8.03 GiB (94%), r+ H$ j. H7 R; {
  25. Default                                  : Yes: q; B5 z* a5 z. g
  26. Forced                                   : No
    * t; A/ x& v8 M* o" @! `  L
  27. Color range                              : Limited5 Q; v/ W8 x' r+ ]
  28. Color primaries                          : BT.709' ^  T/ S7 Y* L
  29. Transfer characteristics                 : BT.709
    $ ^. N: @9 C2 w3 \) M# ]7 l
  30. Matrix coefficients                      : BT.7093 g5 G7 P% |9 o& R7 V/ k. G

  31. * P% c& m5 B+ O3 X
  32. Audio
    4 f4 i0 @' c5 M
  33. ID                                       : 2! ?9 H% \/ ~+ t( Y! y5 k
  34. Format                                   : E-AC-3
    7 J+ ^% {" _3 ?0 q6 u0 s0 ^. W
  35. Format/Info                              : Enhanced Audio Coding 3
      e( L) ~1 O$ N9 Q) q0 H# y" t
  36. Codec ID                                 : A_EAC3
    ( i! k  q6 D& x1 h" x
  37. Duration                                 : 1 h 54 min
    - g! _5 s+ C- _
  38. Bit rate mode                            : Constant
    # q6 i) I2 Z2 n3 \: x
  39. Bit rate                                 : 640 kb/s7 _# Z. i& G* K' }. g- y2 r
  40. Channel(s)                               : 6 channels
      _" i# \# |  ^4 f8 ^$ H6 t0 r
  41. Channel positions                        : Front: L C R, Side: L R, LFE7 D: v* C5 P- i, j
  42. Sampling rate                            : 48.0 kHz
    & i3 w& `; r( ?3 [* i
  43. Frame rate                               : 187.500 FPS (256 SPF)7 ?& n+ f( ?3 n, W% V$ e" _' k- b
  44. Compression mode                         : Lossy: F  W) x- K+ F
  45. Stream size                              : 523 MiB (6%): a8 i  @, P! [, s% Q3 X  x1 t
  46. Language                                 : English  g8 m/ c/ k4 @3 S
  47. Service kind                             : Complete Main! C8 v2 f. ]8 }# c. |; n: m) {* p
  48. Default                                  : Yes1 N. R" t) ^$ H$ d$ M" t& c
  49. Forced                                   : No
    4 v, o6 T' T# I+ ?, h$ }) A

  50. , K1 g5 ?( ]% v0 q) W" i3 l
  51. Text #1+ m' q( b; d+ T) K
  52. ID                                       : 3
    , l) ^0 i- L, C. F) {8 M, n
  53. Format                                   : UTF-8  D' ]/ K) }- f/ u
  54. Codec ID                                 : S_TEXT/UTF8
    / [# f  n. A1 _) `
  55. Codec ID/Info                            : UTF-8 Plain Text2 t& X- \' S( |+ p% F0 j7 Q
  56. Duration                                 : 1 h 53 min) m- [: o: _. a* Z$ s
  57. Bit rate                                 : 79 b/s
    7 ~8 }! T& ~: O6 U$ x
  58. Count of elements                        : 1723
    & N: l9 S, x6 ]6 \
  59. Stream size                              : 65.7 KiB (0%)
    . v( g" g# u' i  q. q7 D( c& Y* N7 l/ W
  60. Language                                 : English$ m* O; t; j1 {% q+ i' ?
  61. Default                                  : No
    9 }+ w1 s% t" |6 s. {4 |
  62. Forced                                   : No9 ^- u$ O8 O) U

  63. 2 y) d! b; m3 z2 Y( }# m
  64. Text #2/ ~* R2 Y) h) D1 @7 L4 N6 v, n
  65. ID                                       : 4' m: j1 q8 x' n  n  S$ [7 N
  66. Format                                   : UTF-87 j& H$ x/ B' i& h
  67. Codec ID                                 : S_TEXT/UTF88 ?0 h* v' I% v  x" b% F! O
  68. Codec ID/Info                            : UTF-8 Plain Text
    0 Y, ]: F% }  ]" |% ?
  69. Duration                                 : 1 h 53 min! ~9 n1 ?7 K. }; R
  70. Bit rate                                 : 86 b/s5 A" D6 I/ _: e2 H* e8 w
  71. Count of elements                        : 18645 V: v& C3 s7 _: O4 R3 v
  72. Stream size                              : 72.0 KiB (0%)
    2 D# ?2 t2 C% L2 k" w
  73. Title                                    : SDH
    # ^8 o# x, M8 w5 u
  74. Language                                 : English/ }5 e5 b1 d5 e, \: g: @
  75. Default                                  : No
    . v" R8 }& Y* ]' |$ G
  76. Forced                                   : No
    - D/ e* W  V3 L# x, ]4 z$ i
复制代码

; X! n2 E9 E& `- ?- o, B9 k$ r; z
. U* n/ p( w! M" F2 s% y+ V4 z0 `7 a

# C, J6 Y+ D  D( K5 d
7 i- o7 u5 y+ }0 m- u. l# k4 g. R
# |* p8 L6 A7 o
游客,如果您要查看本帖隐藏内容请回复  捐助论坛可免回复查看隐藏内容 详情请点击
发表于 2018-4-12 11:21:56 | 显示全部楼层
運动记录片很好看
发表于 2018-4-15 09:58:29 | 显示全部楼层
谢谢楼主分享
头像被屏蔽
发表于 2018-8-8 10:06:04 | 显示全部楼层
提示: 作者被禁止或删除 内容自动屏蔽
您需要登录后才可以回帖 登录 | 立即注册

本版积分规则

封号公示|手机版|Archiver|有问题发邮件到admin#(换成@)hd1tj.org|微博|免责申明|HD一条街 |网站地图

GMT+8, 2018-9-23 23:49

快速回复 返回顶部 返回列表