HD一条街论坛

 找回密码
 限时注册
搜索
查看: 205|回复: 3

[欧美] 纪录片:波士顿马拉松 Boston.2017.1080p.AMZN.WEBRip.DDP5.1.x264-monkee 8.55G

[复制链接]
发表于 2018-4-9 12:14:40 | 显示全部楼层 |阅读模式
- L6 u. d+ N( N" U3 o% K  k; S7 i
                               
登录/注册后可看大图

/ n2 f- `  g0 G. K% s0 ]5 s7 Z; i4 [
◎译  名 波士顿马拉松
9 N: Y" A) z7 W( I2 S! B, P5 |◎片  名 Boston5 e5 ?5 w6 Y7 T/ Y
◎年  代 20179 m+ g1 P1 g5 Q* Z1 ~6 ?  k
◎产  地 美国
0 t8 }+ S/ S( O◎类  别 纪录片
1 E8 w+ _; R4 V" `  x+ R: |. k4 K# n◎语  言 英语
  R! K2 o8 @* q+ F* P; H' K. S  V7 }% K◎上映日期 2017-04-19(美国)1 p% x8 z1 g, m
◎IMDb评分  7.4/10 from 63 users5 u9 l3 U+ I, @
◎IMDb链接  http://www.imdb.com/title/tt6654082/
% K# \' i0 ?1 M+ _, n! a0 m( M0 d◎豆瓣评分 /10 from 0 users* b  u% L) J0 c2 @2 ~  d
◎豆瓣链接 https://movie.douban.com/subject/27030983// O: g/ n4 w9 T0 H9 d* x2 b9 b
◎片  长 114分钟  k% T' A4 H6 c* b
◎导  演 Jon Dunham& U" U) k: M/ x- z* H
◎主  演 马特·达蒙 Matt Damon* {3 p" d# v% u; B0 U
      Robert de Castella7 w. c! A( q, J8 f( L6 Y
      Rosa Mota9 e+ Q' X" Z# i7 ]
      Bill Rodgers8 s" S! S5 p( O/ ?
      Joan Benoit Samuelson4 p2 E& o' \3 u7 Q( v% y) [
9 K% _" m( w. z5 R- ]! b
◎简  介
' I( I- X; m5 D' t: J* V1 r$ \
: n6 |- U1 [3 v9 Q6 g  The film chronicles the story of the iconic race from its humble origins starting with only 15 runners to the present day. In addition to highlighting the event as the oldest annually contested marathon in the world, the film showcases many of the most important moments in more than a century of the race’s history. Evolving from a working man’s challenge to welcoming foreign athletes and eventually women, Boston becomes the stage for many firsts and in no small part the event that paved the way for the modern marathon and mass participatory sports.( n/ H: x  K% c! _. s, |% w
  Following the tragic events of 2013, BOSTON records the preparations and eventual running of the 118th Boston Marathon one year later when runners and community gather once again in support of one another for what will be the most meaningful race of all.! k# {- u5 ?. M# q6 U' z  q
  Produced and directed by award winning filmmaker/marathoner Jon Dunham (Spirit of the Marathon I & II) and produced by Academy Award nominee Megan Williams, and executive produced by Academy Award nominee Frank Marshall (Back to the Future, The Curious Case of Benjamin Button, Sully), BOSTON is more than a running film. It is a timeless story about triumph over adversity for runner and non-runner alike.
  1. Video+ I- a% Q0 B! g8 L" n9 K  B. S3 S" Z0 W
  2. ID                                       : 1
    9 v& Z  [8 `9 I( b/ R, @
  3. Format                                   : AVC
    1 W3 C' n$ [: U) Q% G  Q% y
  4. Format/Info                              : Advanced Video Codec
    6 }  _- L5 \% S: ?, T3 J
  5. Format profile                           : [email protected]
    " U2 Y4 r- `2 K  S; N% x
  6. Format settings                          : CABAC / 4 Ref Frames9 a% A% r& g& Y! P
  7. Format settings, CABAC                   : Yes$ f* v" D9 h$ @
  8. Format settings, ReFrames                : 4 frames# W5 z. ^4 I, C1 b6 _, h/ V
  9. Codec ID                                 : V_MPEG4/ISO/AVC' z# n2 T& n9 J- J
  10. Duration                                 : 1 h 54 min
    " F& T* T: o  G* a  ?5 x$ R! Q: i- E  ~
  11. Bit rate mode                            : Variable3 x5 ]0 W" |3 G. e3 @4 m
  12. Bit rate                                 : 10.1 Mb/s
    5 N& h$ z/ s- z/ b9 }& k$ z
  13. Maximum bit rate                         : 15.0 Mb/s! C) e$ t4 f6 G! N
  14. Width                                    : 1 920 pixels0 i+ P' ]& g7 c0 |, A7 D6 w+ f" Y
  15. Height                                   : 1 080 pixels
      j& t' l" e& {0 S
  16. Display aspect ratio                     : 16:9
    ! n& H; B( m0 i/ l; U. G! P2 _
  17. Frame rate mode                          : Constant
    9 ?$ H8 ]; d" y2 V& a9 R
  18. Frame rate                               : 23.976 (24000/1001) FPS6 [; ]% r$ y$ Y, h! f' a8 o
  19. Color space                              : YUV
    7 v* Z% |! s% {4 Y, M( A6 f
  20. Chroma subsampling                       : 4:2:0. V* f" {' L5 m6 k( C6 D* [: B1 L) N
  21. Bit depth                                : 8 bits8 d8 X! F+ ^3 B- K1 S# [6 o
  22. Scan type                                : Progressive
    , S6 I! `) j( M' I
  23. Bits/(Pixel*Frame)                       : 0.202
    , o+ ^( K  u! i$ ]& ~
  24. Stream size                              : 8.03 GiB (94%)
    0 P* d7 ~: {# Z1 \/ |1 l, C' R5 f
  25. Default                                  : Yes
    : r; W# {/ Q' T  R& L
  26. Forced                                   : No- X) V- ~! V4 N' g$ ?6 ]! t
  27. Color range                              : Limited
    ; m6 O6 g* O# ~+ T0 h1 u
  28. Color primaries                          : BT.709
    5 s" }5 Q+ d) {" ~0 S
  29. Transfer characteristics                 : BT.709/ R4 U6 e# N( T( c: I' }
  30. Matrix coefficients                      : BT.709) l/ v! f$ M: v0 ?6 ~6 D, g0 B
  31. $ Z0 a& a4 T3 j& [6 R6 X( S+ }
  32. Audio
    % o3 m) b, P* b* ]% x
  33. ID                                       : 2' b( Y# b1 x8 o
  34. Format                                   : E-AC-3
    ! Q. q+ I$ K3 {( e' B9 @
  35. Format/Info                              : Enhanced Audio Coding 3% f  P5 S4 l3 w+ A' V! }
  36. Codec ID                                 : A_EAC32 X* W/ j/ E; m
  37. Duration                                 : 1 h 54 min
    0 [8 J" d+ f+ x) ~4 g/ Q
  38. Bit rate mode                            : Constant8 N. K( v3 Q1 |( h
  39. Bit rate                                 : 640 kb/s
    $ B! a, a9 c8 ?! G. I, C3 b9 q0 N5 U4 e
  40. Channel(s)                               : 6 channels8 f* ^$ @* u( k5 {) |" W# b
  41. Channel positions                        : Front: L C R, Side: L R, LFE; K$ s3 [' p& ~
  42. Sampling rate                            : 48.0 kHz
    + `' r6 [( Y8 T
  43. Frame rate                               : 187.500 FPS (256 SPF)+ Z" r) Q* c, b& i5 {( k' ^9 d
  44. Compression mode                         : Lossy1 Y- I. a% b' [4 m* t0 c
  45. Stream size                              : 523 MiB (6%)
    - f! L. S$ L0 _+ o( S
  46. Language                                 : English
    7 p1 j0 Q2 G3 J# ]+ G
  47. Service kind                             : Complete Main8 u' i+ A( n) Y
  48. Default                                  : Yes. \+ G. I! g5 A- l8 Z
  49. Forced                                   : No, o( h( i4 i4 {9 c% A/ m
  50. 5 q, S! w# }: i" K. R+ d
  51. Text #1
    # F$ f( P! L/ |$ f. l; Q
  52. ID                                       : 3. t6 P; u: H" L5 [  b
  53. Format                                   : UTF-8  T5 A! E" m9 h6 n0 E8 r7 E
  54. Codec ID                                 : S_TEXT/UTF8& a; h' S% d! Q
  55. Codec ID/Info                            : UTF-8 Plain Text; d( X$ g1 B( D0 Q0 ^( A' Y
  56. Duration                                 : 1 h 53 min
      w- z7 \+ ^+ P3 H/ U! z3 m; I# t
  57. Bit rate                                 : 79 b/s% G4 r- \6 @. w. J
  58. Count of elements                        : 1723
    / z: c; A2 C% H8 ^( r4 U' n; o' e
  59. Stream size                              : 65.7 KiB (0%)
    ) ~& ]7 W3 G3 _- }; V0 ^8 q) \- p
  60. Language                                 : English: m. e) n. g5 D* ]
  61. Default                                  : No# I( B- {; B% H
  62. Forced                                   : No
    ' m1 _; d0 E" b, a& f% s6 ]4 b' O

  63. ' R1 V/ P2 i# I3 |/ y- D( C) S2 _+ P4 O
  64. Text #2" Y' e7 c8 D7 N% l% F! g
  65. ID                                       : 4
    7 e8 z7 g* z9 |4 u( I1 D. P7 c8 r
  66. Format                                   : UTF-8
    ; j4 T1 G) R: S5 M, O7 w
  67. Codec ID                                 : S_TEXT/UTF81 m, _9 \$ g# R6 F( A
  68. Codec ID/Info                            : UTF-8 Plain Text
    & l% [3 S6 R3 D  u* |1 p; e
  69. Duration                                 : 1 h 53 min% q1 W% ]. d( c$ |: w5 @9 r# J; K
  70. Bit rate                                 : 86 b/s8 o0 y4 o! `; E/ x" x
  71. Count of elements                        : 18644 Z/ D/ _5 f1 N
  72. Stream size                              : 72.0 KiB (0%)3 z* m, [7 Z  k* w! u% d9 k2 ]1 {
  73. Title                                    : SDH' v; z! l8 G, y6 i
  74. Language                                 : English
    7 o9 x9 m' h6 p3 q' s" y" b
  75. Default                                  : No
    ; t/ i1 d4 l* M
  76. Forced                                   : No
    . s/ R! Q- K7 |+ ^) v" m$ @
复制代码
/ S8 S) S% ?( m' y# C3 L* C
% C% Y) K6 u+ @5 r" P7 B

5 h9 S' ^/ N8 N5 S8 f6 t% O
, Z' Z" T  K* z: p9 T# ^8 k, ~1 E, u8 O6 V
( y. f5 R% t; I$ b& ~
游客,如果您要查看本帖隐藏内容请回复  捐助论坛可免回复查看隐藏内容 详情请点击
发表于 2018-4-12 11:21:56 | 显示全部楼层
運动记录片很好看
发表于 2018-4-15 09:58:29 | 显示全部楼层
谢谢楼主分享
头像被屏蔽
发表于 2018-8-8 10:06:04 | 显示全部楼层
提示: 作者被禁止或删除 内容自动屏蔽
您需要登录后才可以回帖 登录 | 限时注册

本版积分规则

封号公示|手机版|Archiver|有问题发邮件到admin#(换成@)hd1tj.org|微博|免责申明|HD一条街

GMT+8, 2018-12-19 17:11

快速回复 返回顶部 返回列表