HD一条街论坛

 找回密码
 立即注册
搜索
查看: 25|回复: 2

[欧美] 纪录片:波士顿马拉松 Boston.2017.1080p.AMZN.WEBRip.DDP5.1.x264-monkee 8.55G

[复制链接]
发表于 2018-4-9 12:14:40 | 显示全部楼层 |阅读模式
; B* ?2 J2 P3 y$ b* P! }  u4 e: u
                               
登录/注册后可看大图

- c) T0 p0 I# b3 v& E4 |0 |# p$ ?# }7 K2 Q6 J: Q
◎译  名 波士顿马拉松  r5 O: }" k0 x1 R5 q$ b
◎片  名 Boston
* d4 d. B! u6 G2 ]3 Q" K  ^◎年  代 2017
: z# N6 C3 X* T) L/ T3 ~◎产  地 美国: D5 X+ P+ O/ O) A4 N
◎类  别 纪录片
+ a) b) j% m/ |0 ~1 i# w$ w% |* E◎语  言 英语, I( I: F% U! p9 M) @' \. e
◎上映日期 2017-04-19(美国)  ~( J; a( g5 A
◎IMDb评分  7.4/10 from 63 users2 s. m% H( ], w- n1 ^4 a# Z
◎IMDb链接  http://www.imdb.com/title/tt6654082/7 d' d0 x: D2 p2 i% n
◎豆瓣评分 /10 from 0 users
" V& v. i& U( N' a◎豆瓣链接 https://movie.douban.com/subject/27030983/  i+ f: a3 M5 u+ E
◎片  长 114分钟/ c6 C- J7 t( v6 C
◎导  演 Jon Dunham! J6 q& T+ w0 [( q( Z* i# ^
◎主  演 马特·达蒙 Matt Damon
8 K5 A$ M0 M3 g; s" d8 m5 k      Robert de Castella8 K% a, q! J; o) O) n
      Rosa Mota( |# L+ v( F1 K/ ]9 I
      Bill Rodgers6 A- z4 j# n7 \; s  V
      Joan Benoit Samuelson" @: P/ n4 B0 ^$ A( I; A& k4 l

4 e" [. v8 _1 D* t2 @◎简  介
! @/ D* Q. Z8 ^$ p) q4 v' \6 L. o, }6 ?+ R. \+ r
  The film chronicles the story of the iconic race from its humble origins starting with only 15 runners to the present day. In addition to highlighting the event as the oldest annually contested marathon in the world, the film showcases many of the most important moments in more than a century of the race’s history. Evolving from a working man’s challenge to welcoming foreign athletes and eventually women, Boston becomes the stage for many firsts and in no small part the event that paved the way for the modern marathon and mass participatory sports.# ~% E: S3 y. @1 @# ?. I' P3 `0 @
  Following the tragic events of 2013, BOSTON records the preparations and eventual running of the 118th Boston Marathon one year later when runners and community gather once again in support of one another for what will be the most meaningful race of all.
% g3 H- j8 |  T" i  Produced and directed by award winning filmmaker/marathoner Jon Dunham (Spirit of the Marathon I & II) and produced by Academy Award nominee Megan Williams, and executive produced by Academy Award nominee Frank Marshall (Back to the Future, The Curious Case of Benjamin Button, Sully), BOSTON is more than a running film. It is a timeless story about triumph over adversity for runner and non-runner alike.
  1. Video
    + w5 u+ \& m9 u+ M. Z
  2. ID                                       : 1- |2 I2 W( w) f6 N; _# Y
  3. Format                                   : AVC0 S! U( W$ e9 j" l* L! I
  4. Format/Info                              : Advanced Video Codec
    / N. ?% M* |2 ~8 c3 o5 @$ N
  5. Format profile                           : [email protected]
    8 I$ ?. e$ P+ S/ ]- Q+ f6 m7 H
  6. Format settings                          : CABAC / 4 Ref Frames
    6 L6 H1 ^6 V* F4 C9 T& r5 ]4 R
  7. Format settings, CABAC                   : Yes$ N2 i, y3 g5 |" E' R( p2 z
  8. Format settings, ReFrames                : 4 frames1 G& D$ m- S7 y7 V$ V5 Q& L. e
  9. Codec ID                                 : V_MPEG4/ISO/AVC/ ]7 ?' f0 U2 d- \) E( I% Q
  10. Duration                                 : 1 h 54 min1 K7 o4 n0 o8 n' H  N
  11. Bit rate mode                            : Variable; K# R( o9 d$ b+ t; `' T0 e; o7 R
  12. Bit rate                                 : 10.1 Mb/s
    : h* d$ o3 t. j2 z- q" |- I
  13. Maximum bit rate                         : 15.0 Mb/s% J- H0 m# ?% T$ T( c- ~: d, X0 i
  14. Width                                    : 1 920 pixels3 z, o& C1 |) R' \. ]; d
  15. Height                                   : 1 080 pixels
    8 n% K) x3 [" C8 Z( {1 e" }
  16. Display aspect ratio                     : 16:97 ^, O' \. T% D0 h
  17. Frame rate mode                          : Constant: J% [5 Y5 n0 i! m7 n# Z
  18. Frame rate                               : 23.976 (24000/1001) FPS4 w' b8 ~  {2 n6 P& A5 G. ^1 F& K
  19. Color space                              : YUV- ]6 D0 v7 V  g+ z" E3 v
  20. Chroma subsampling                       : 4:2:0
    ( `' W+ {# b) `2 }  F' \) n
  21. Bit depth                                : 8 bits+ @* S. G5 n5 c$ d
  22. Scan type                                : Progressive: |2 [- U8 |& U2 ?) b5 t' K. k
  23. Bits/(Pixel*Frame)                       : 0.202! o0 x; Z% N" N' y# H# J! |  U
  24. Stream size                              : 8.03 GiB (94%)
    8 F* T- s" d9 d( t
  25. Default                                  : Yes3 F  j3 z$ w. L
  26. Forced                                   : No2 V  k+ O# p9 p9 g! O+ u5 ]
  27. Color range                              : Limited0 J0 G: z$ S1 z7 Z
  28. Color primaries                          : BT.709
    9 L2 ?6 I  ]7 ?1 O7 `! t2 y
  29. Transfer characteristics                 : BT.709
    + a: d+ |& w# \1 s# s
  30. Matrix coefficients                      : BT.709
    # r7 ]8 ?9 K+ |3 u

  31. " N. ~; u+ S7 H! ?( _/ \6 c
  32. Audio3 u, o& Z2 w3 h1 N
  33. ID                                       : 2- B, `: d2 O2 I8 J, m. s- V+ @
  34. Format                                   : E-AC-3
    " x9 P! z3 l" Q$ g+ N. H2 i
  35. Format/Info                              : Enhanced Audio Coding 3, D3 o$ Z, m4 J: l
  36. Codec ID                                 : A_EAC3% N* S0 J/ j6 Y$ }5 T, B
  37. Duration                                 : 1 h 54 min& Y( ]% z- S: ]/ Q  b* o, N3 v
  38. Bit rate mode                            : Constant! I( I) u# |" i8 v$ T
  39. Bit rate                                 : 640 kb/s
    5 ?; T. x: I5 K
  40. Channel(s)                               : 6 channels
    : w  M7 L6 V& p+ Z# e
  41. Channel positions                        : Front: L C R, Side: L R, LFE+ ~6 a+ R& Q: r3 i" O
  42. Sampling rate                            : 48.0 kHz
    . `6 O  x, D5 w7 s
  43. Frame rate                               : 187.500 FPS (256 SPF)& ^9 O7 f1 I! S
  44. Compression mode                         : Lossy
    - X3 ]$ @  O: }- P* S+ }
  45. Stream size                              : 523 MiB (6%)# u, {2 T$ m$ w- {# D% i
  46. Language                                 : English
    6 B2 Z3 d! A) ^9 E+ b* _9 R) B; z
  47. Service kind                             : Complete Main  C/ V" c9 p8 S: j; r
  48. Default                                  : Yes) I( m5 S8 y* u7 ^
  49. Forced                                   : No
    ! f3 u! ^/ _8 y4 Q) ?- c8 c
  50. , V& P6 j% b# F" h- G% {8 A
  51. Text #1
    / r1 C3 l7 X1 K8 h. E) h" y$ f% s: y8 J
  52. ID                                       : 3
    ! g4 Z, ^. l( G; l, A- w
  53. Format                                   : UTF-8$ }5 ~# S, n4 z+ `2 o4 X2 H
  54. Codec ID                                 : S_TEXT/UTF85 J! \' p7 O$ r  y6 O: Z$ g& w
  55. Codec ID/Info                            : UTF-8 Plain Text
    " A1 j) u4 _4 D2 j* h
  56. Duration                                 : 1 h 53 min
    ! v: ~! n) M, ?
  57. Bit rate                                 : 79 b/s/ \. A+ u: x9 a3 ]; W
  58. Count of elements                        : 1723
    0 P! T6 w; ^2 Y/ F. V
  59. Stream size                              : 65.7 KiB (0%)
    , o/ k+ b8 {+ Z
  60. Language                                 : English
    2 N* H- v: ~& A( f  R
  61. Default                                  : No5 ]3 [3 ]; P8 g% \
  62. Forced                                   : No  z2 M. `0 e' b% V

  63. # p0 z. \7 y# m7 e
  64. Text #2) _! U$ Y3 o2 x
  65. ID                                       : 4
    ( Y. k9 H) N  C0 ~0 _$ a, c$ G
  66. Format                                   : UTF-84 z% P9 g1 B1 L4 a
  67. Codec ID                                 : S_TEXT/UTF8
    % d) g* `  a. r
  68. Codec ID/Info                            : UTF-8 Plain Text
    ( D+ \- B8 V. F* G- K1 \
  69. Duration                                 : 1 h 53 min
    ( ?& Z. w% _$ W0 X" F. ]
  70. Bit rate                                 : 86 b/s8 n: N/ k$ ~0 w9 g/ {* m
  71. Count of elements                        : 1864+ L, H7 ^3 R& L
  72. Stream size                              : 72.0 KiB (0%). j* {( O/ b. g, w
  73. Title                                    : SDH
    & ^* L: \5 Q: Y/ F6 p
  74. Language                                 : English& x3 P" h* g" Z' V
  75. Default                                  : No
    % f0 C1 K: @2 q$ b4 W3 F! x, R* j
  76. Forced                                   : No* i% f8 ^! D5 ~
复制代码
1 k. W' J8 y7 ?5 v; N
! i6 }  b# j; l* F3 y, F

3 a: B, d# c- c0 v8 p8 s" e; g& N& K: z

0 \+ P( x% i9 |2 }( f$ B8 X6 u- ?, m, I, e
游客,如果您要查看本帖隐藏内容请回复  捐助论坛可免回复查看隐藏内容 详情请点击
发表于 2018-4-12 11:21:56 | 显示全部楼层
運动记录片很好看
发表于 5 天前 | 显示全部楼层
谢谢楼主分享
您需要登录后才可以回帖 登录 | 立即注册

本版积分规则

支付宝每天扫码得红包

封号公示|手机版|有问题发邮件到admin#(换成@)hd1tj.org|微博|免责申明|HD一条街 |网站地图

GMT+8, 2018-4-20 11:12

Powered by Discuz! X3.2

© 2001-2013 Comsenz Inc.

快速回复 返回顶部 返回列表