HD一条街论坛

 找回密码
 限时注册
搜索
查看: 342|回复: 12

[欧美] 纪录片:中国喧嚣/强国救世梦(港) The.China.Hustle.2017.1080p.WEB.x264-SKGTV 4.63G

[复制链接]
发表于 2018-3-31 21:29:44 | 显示全部楼层 |阅读模式
- N' [% O/ M* Z+ |
6 B- P2 K/ ~8 r+ j% ]
◎译  名 中国喧嚣/强国救世梦(港)4 a1 v8 @4 a' R( o/ n
◎片  名 The China Hustle5 s! }. X: M' a/ z
◎年  代 2017
6 X/ h! ?8 e2 f7 g$ V: Y& N◎产  地 美国" @% s  t% \3 N$ I. C
◎类  别 纪录片; e  v8 J8 b7 _! ?* }
◎语  言 英语4 f: }8 J* d& n$ o
◎上映日期 2017-09(加拿大)
. O- p; N. ~  l8 k$ E, Q' p% ^◎IMDb评分  7.0/10 from 59 users
8 W6 P; A' j( K( B1 S◎IMDb链接  http://www.imdb.com/title/tt7215388/0 ?: ^; D0 t' d' w4 U
◎豆瓣评分 /10 from 0 users" ]  e+ ^) [: G! R! w6 C8 v6 s
◎豆瓣链接 https://movie.douban.com/subject/27115571/
( S* A3 X; ~- |- d9 n& z$ h◎片  长 82分钟2 W3 X) ~6 c7 B% ^+ C
◎导  演 Jed Rothstein7 Z$ W! M1 R! r  m; t  B) n
# a) l) r% m! U4 a1 m" O" u- @+ G
◎简  介7 S; I! T6 L: \, c) W2 e& ]' V
" `% r+ R8 _9 t  T4 p+ t
  水能載舟,亦能覆舟。2008金融海嘯之後,全美視引入中資為救市良方。透過反收購美國公司,中資企業如洪流湧進山姆叔叔的金融市場,有人額手稱慶,有人看出隱憂。轉眼十年快過,積羅夫斯坦遍訪華爾街,他的鏡頭下有大鱷,也有機會主義者,更有註定後悔出鏡的業界「消息靈通人士」,進退之間幾乎拍成了一齣恐怖片—到處是街客想像不到的秘密交易、巧取豪奪。如果這「故事」有教訓,大抵是:知難而退簡直是天方夜譚, 失手的下次只會來得更狠更卑鄙。
  1. Video- z) o2 e4 W! l- B6 {
  2. ID                                       : 1! j  B) n* b. G
  3. Format                                   : AVC
    " }4 Q; R& X1 N, f2 |- F1 }
  4. Format/Info                              : Advanced Video Codec$ ~9 d5 s/ p' P- K9 ~# L
  5. Format profile                           : [email protected]  I/ Z' |; Q! J" |$ ?/ B3 [
  6. Format settings                          : CABAC / 3 Ref Frames
    1 l7 |8 i' _7 K, J3 Y) P
  7. Format settings, CABAC                   : Yes
    - n$ E. z9 r8 ^- b9 f" |5 w
  8. Format settings, ReFrames                : 3 frames
    - [$ x; R. `+ t0 U; N/ B
  9. Codec ID                                 : V_MPEG4/ISO/AVC) E# K+ l* Y9 n! v; R
  10. Duration                                 : 1 h 24 min
    & A1 F% i% U% N% Q7 N; ^- t
  11. Bit rate mode                            : Variable) V  k) l& a( [1 O9 c$ I
  12. Bit rate                                 : 7 500 kb/s9 b  Y  }3 k* j/ x; s  b$ L0 Q
  13. Maximum bit rate                         : 11.2 Mb/s
    , z+ F) M/ b8 z5 \0 a/ o; Q
  14. Width                                    : 1 920 pixels
    & ^& f$ d" [7 w. A* N; g3 Q( y, E( `
  15. Height                                   : 1 080 pixels
    & O: M  `% n( ]8 U
  16. Display aspect ratio                     : 16:9$ L( w1 {) a# w+ O* j: c8 X
  17. Frame rate mode                          : Constant
    $ ^. [+ _# Z) s# m/ }7 J/ n
  18. Frame rate                               : 23.976 (24000/1001) FPS
    - G* z' V+ a$ B& V  T3 E% @( ]8 c
  19. Color space                              : YUV
    1 D0 s+ @7 \; K- c. u4 p3 `
  20. Chroma subsampling                       : 4:2:0
    : N" V0 I) A1 O) G- h! C+ f
  21. Bit depth                                : 8 bits
    0 ?* Z2 [& r/ J% A( ?$ j
  22. Scan type                                : Progressive& |" G' O1 d9 D/ _
  23. Bits/(Pixel*Frame)                       : 0.151+ B: v3 ?3 r. J( U
  24. Stream size                              : 4.40 GiB (95%)
    9 e9 ]. Z' Z0 o3 e
  25. Writing library                          : x264 core 148 r2715 7e75228
    ; U4 ]/ T1 Q, G7 p
  26. Encoding settings                        : cabac=1 / ref=3 / deblock=1:0:0 / analyse=0x1:0x111 / me=umh / subme=10 / psy=1 / psy_rd=1.00:0.00 / mixed_ref=1 / me_range=24 / chroma_me=1 / trellis=2 / 8x8dct=0 / cqm=0 / deadzone=21,11 / fast_pskip=1 / chroma_qp_offset=-2 / threads=8 / lookahead_threads=1 / sliced_threads=0 / nr=0 / decimate=1 / interlaced=0 / bluray_compat=0 / stitchable=1 / constrained_intra=0 / bframes=2 / b_pyramid=0 / b_adapt=2 / b_bias=0 / direct=3 / weightb=1 / open_gop=0 / weightp=2 / keyint=48 / keyint_min=25 / scenecut=0 / intra_refresh=0 / rc_lookahead=48 / rc=2pass / mbtree=1 / bitrate=7500 / ratetol=1.0 / qcomp=0.50 / qpmin=6 / qpmax=51 / qpstep=4 / cplxblur=20.0 / qblur=0.5 / vbv_maxrate=11250 / vbv_bufsize=15000 / nal_hrd=vbr / filler=0 / ip_ratio=1.40 / aq=1:1.003 S& m3 P# |! T/ G  p
  27. Default                                  : Yes* Q0 E7 A: M1 f' m
  28. Forced                                   : No
    7 T/ C0 c" M$ O5 D( v
  29. 8 ^1 x5 [$ ]3 s0 |" c
  30. Audio2 d& N& E6 w1 Y! i, D! g8 w5 l3 @
  31. ID                                       : 2/ B7 A- M7 \* c6 E8 U' |4 @9 E
  32. Format                                   : AC-3
    3 G% E  p  l; k$ C' s& U: G
  33. Format/Info                              : Audio Coding 3# ]# _" E' q% M$ J5 ]
  34. Codec ID                                 : A_AC33 M' p# g. W8 E2 L( y$ o6 k
  35. Duration                                 : 1 h 24 min9 s2 b9 [3 {4 b' O  y5 Q% ^2 l
  36. Bit rate mode                            : Constant5 t  M) A7 p, H# V
  37. Bit rate                                 : 384 kb/s. N7 e2 l& l: y; U$ T" `
  38. Channel(s)                               : 6 channels# K7 q: e- Y- @. Y  z' I0 \  X
  39. Channel positions                        : Front: L C R, Side: L R, LFE
    $ b! Q  V' x4 E2 F  O2 _1 o4 f6 V
  40. Sampling rate                            : 48.0 kHz
    8 t. t3 W! a' h# L/ j' n
  41. Frame rate                               : 31.250 FPS (1536 SPF)
    1 V; ?% h) R. W6 F: @8 @% S
  42. Bit depth                                : 16 bits, B8 [% [( J6 ^: v% |5 A$ m
  43. Compression mode                         : Lossy
    : l2 k( G1 W: N( K. W, B- p
  44. Stream size                              : 233 MiB (5%)( U& e4 t# |2 i# V. o: n( U
  45. Title                                    : English
    ' \& |1 k- X' P, z
  46. Language                                 : English& t% J7 a: A8 Y- d
  47. Service kind                             : Complete Main7 ]: v; o" P  _+ W
  48. Default                                  : No2 P! B& [3 D: u: K3 Q9 i
  49. Forced                                   : No9 ~, X8 k1 n* i
  50. & f. p/ a* L: y
  51. Text #19 t+ q8 C5 O; ~; l
  52. ID                                       : 3
    2 e) s+ i- b6 r' W
  53. Format                                   : UTF-8" U* U; x, V9 v7 o
  54. Codec ID                                 : S_TEXT/UTF8
    # ^. _' }6 |; c! z! I
  55. Codec ID/Info                            : UTF-8 Plain Text
    3 u% a4 a) s5 H) Y+ d
  56. Duration                                 : 1 h 12 min+ R- |! K! b: w1 N
  57. Bit rate                                 : 4 b/s
    0 y+ M3 z5 d: O0 r- E5 m
  58. Count of elements                        : 54
    * V- V# h$ n- ^0 |4 R, Q) y& Z
  59. Stream size                              : 2.27 KiB (0%)
    " @+ {5 u2 U# V; ~5 K
  60. Title                                    : English [Forced]
    7 {7 i5 s' L5 u/ P" n
  61. Language                                 : English6 r4 u# x  x* h" _; `1 N& m3 E! T1 U
  62. Default                                  : Yes
    ' ^# `! ]: t- J; {
  63. Forced                                   : No) P' q. U4 q# Y7 B

  64. , ^4 a! ]4 t' [$ |
  65. Text #26 ~* C, q  o$ E9 O
  66. ID                                       : 4
    / j# k. M  V7 T6 P
  67. Format                                   : UTF-8
    # d0 }+ i8 b6 a2 e
  68. Codec ID                                 : S_TEXT/UTF80 ^4 K& Q" B& u7 e3 j
  69. Codec ID/Info                            : UTF-8 Plain Text
    + E' z1 S+ H& N/ R0 i# L
  70. Duration                                 : 1 h 21 min: l; u# Z" \  ?1 l
  71. Bit rate                                 : 105 b/s
    4 B) Q% s; n. w7 t- U
  72. Count of elements                        : 2839
    9 ?  g+ m+ w& K
  73. Stream size                              : 62.8 KiB (0%)
    % Y# o) q0 i# ?- K7 f
  74. Title                                    : English [SDH]" t7 R0 @5 F3 _$ T
  75. Language                                 : English9 i* K( d+ j  H1 E! t
  76. Default                                  : No
    . s+ U8 u# K7 I0 M
  77. Forced                                   : No' a, h- ^4 w- z1 o# y) E. K+ i

  78. * l  k+ `8 Q  }4 M
  79. Text #3- N2 \3 E6 U6 O$ g! m# ^+ Y* n0 ~
  80. ID                                       : 5
    ) T# S& {. [. h! X
  81. Format                                   : UTF-8
    / Z7 F7 [, a1 ^/ ^; k3 }* \6 h# K
  82. Codec ID                                 : S_TEXT/UTF81 _2 L( U6 Z. I6 d) A0 }' ?1 [  Z
  83. Codec ID/Info                            : UTF-8 Plain Text
    + D" S8 m1 O7 ^3 U
  84. Duration                                 : 1 h 24 min# ^0 z4 G; D0 p
  85. Bit rate                                 : 88 b/s
    7 _/ \4 N- L% [' U2 P3 A/ W
  86. Count of elements                        : 13419 A7 G0 B: a- i* z
  87. Stream size                              : 54.4 KiB (0%)
    ' A4 ]4 @) Q0 I; G. v
  88. Title                                    : Italian [Full]( t6 S, F& i3 O0 T9 u5 g. j
  89. Language                                 : Italian
    7 a1 C, J5 |0 s8 {$ K
  90. Default                                  : No" b; V5 D1 m6 h5 v/ ^, h
  91. Forced                                   : No9 ?5 O& s" p6 d4 F) Q" n$ R6 [
  92. + X; K( B  `4 t! P8 B$ d
  93. Text #4, d" `3 L( G% k+ D3 v
  94. ID                                       : 6/ O3 r0 @1 w. @/ S3 o3 x
  95. Format                                   : UTF-8
    ) P, m" l& z) p3 M0 @
  96. Codec ID                                 : S_TEXT/UTF8
    + m) ~* V$ y# f/ z! f
  97. Codec ID/Info                            : UTF-8 Plain Text+ n- d3 H& O& E1 a. R
  98. Duration                                 : 1 h 24 min1 \0 O" h; [) t6 R
  99. Bit rate                                 : 85 b/s) H! f5 L/ |7 P7 j
  100. Count of elements                        : 13461 D6 J) i7 N2 X
  101. Stream size                              : 52.7 KiB (0%)3 o% D0 T! @: k& U' R
  102. Title                                    : Castilian [Full]4 h0 j- Q, c6 K/ l/ s- P+ W+ |
  103. Language                                 : Spanish$ ~% r; i9 n# s; a6 J# O0 V# g! t
  104. Default                                  : No
    & p: q( x5 _; ]" ~+ ?
  105. Forced                                   : No
    . ], J4 v, t( G0 q! Y- C

  106. ' j) Q( Z+ Z0 k( t& @6 g
  107. Text #5+ V1 ~; c4 |8 r2 B" T" R
  108. ID                                       : 7
    ; W. E. j* A2 H* j
  109. Format                                   : UTF-8
    / C9 j: C4 p4 P' M. K4 k; I" {9 \
  110. Codec ID                                 : S_TEXT/UTF8
    : c2 ^6 r8 w  k/ z1 S
  111. Codec ID/Info                            : UTF-8 Plain Text
    " r, V% c1 S1 b, ?/ q/ M
  112. Duration                                 : 1 h 24 min
    6 D. o8 u$ I, L- O. X
  113. Bit rate                                 : 85 b/s5 a1 n/ I( n9 S/ d- C
  114. Count of elements                        : 13485 S8 ^7 z* J8 ~
  115. Stream size                              : 52.6 KiB (0%)
    / R( [% K3 R- B+ }
  116. Title                                    : French [Full]* P) X" h; h$ m7 X; r* m" _
  117. Language                                 : French0 C9 y7 {! t( F* ?7 i4 G
  118. Default                                  : No8 _: r8 z3 E3 k7 O: i
  119. Forced                                   : No
    : e  \/ t+ W4 ~% N# G& Z* r) w
  120. 7 e7 n( p8 U) ^: x
  121. Text #6. ]2 ?$ |$ d* z
  122. ID                                       : 8
    " x1 @: U+ g- ^' O
  123. Format                                   : UTF-8
    ( u% P# q; f( o6 G/ _/ a6 z( ^: v! V
  124. Codec ID                                 : S_TEXT/UTF83 ?1 c0 t& ^3 A/ d
  125. Codec ID/Info                            : UTF-8 Plain Text
    : P+ s) m8 l! ?6 G( o
  126. Duration                                 : 1 h 24 min
    6 S0 A! K$ {/ K
  127. Bit rate                                 : 86 b/s
    : ~9 }; ?, d$ o) H. J; ^1 a
  128. Count of elements                        : 1344
      W# Q, e0 t/ [; a  c& V; D. ?
  129. Stream size                              : 53.5 KiB (0%)
    + b, p: Z3 ?  m7 L3 {! T/ L, t5 C
  130. Title                                    : German [Full]
    4 n& @* v: s  d8 e
  131. Language                                 : German
    : ]& x3 b$ ]5 m4 n0 G! ^
  132. Default                                  : No
    ! }8 A3 _# N3 Y3 ^5 \( B
  133. Forced                                   : No
    0 Z* b" X4 K: I: b$ L: ?

  134. 1 u/ e! `# R* D
  135. Text #7
    8 p2 i+ t% D  A) K  i) l
  136. ID                                       : 9& [( ?, f" A4 |
  137. Format                                   : UTF-8
    , D9 X3 l* q- r9 y
  138. Codec ID                                 : S_TEXT/UTF8; e( }/ U, `4 s( U5 N3 h
  139. Codec ID/Info                            : UTF-8 Plain Text7 r, x2 x+ b# W0 {
  140. Duration                                 : 1 h 24 min
    5 e) h# n: v4 M
  141. Bit rate                                 : 91 b/s. P, G8 }- j( K1 ]/ f% U
  142. Count of elements                        : 1341
    , F5 D5 S/ U; M
  143. Stream size                              : 56.3 KiB (0%)
    % {+ z$ t& ]0 V. m4 _
  144. Title                                    : Portuguese [Full]
    ( }" f* p4 r1 Y
  145. Language                                 : Portuguese0 G5 G! ~' @; [/ N( `3 W
  146. Default                                  : No
    / f6 ]5 T' w5 w3 Y  C, x
  147. Forced                                   : No
    3 b& R1 m$ G' E
  148. # s7 \9 ~% d6 ]
  149. Text #8( L, Z8 s* U' {# b' O0 X* k
  150. ID                                       : 105 p/ o, K. F( J4 M0 U3 [
  151. Format                                   : UTF-8
    * Y' b, f4 i# c+ i/ m4 P5 ]
  152. Codec ID                                 : S_TEXT/UTF8& G5 n$ H7 h( z% V
  153. Codec ID/Info                            : UTF-8 Plain Text
    # \$ S4 M0 Y: g; A
  154. Duration                                 : 1 h 24 min/ Z: |- E+ q. M" B# h" C" j
  155. Bit rate                                 : 79 b/s
    ! t. v- F% t% P- ]/ o; i
  156. Count of elements                        : 13493 O( m9 L! @1 h9 }% S' T9 h3 }# ~
  157. Stream size                              : 48.9 KiB (0%); n6 r# k6 Q* `2 }. n; o2 E; n
  158. Title                                    : Polish [Full]
    : p- _, y5 w' Y9 Z( H1 G
  159. Language                                 : Polish
    5 q, H1 V0 ~, }- K$ G/ U& h
  160. Default                                  : No' i  B2 V) ^' T6 B
  161. Forced                                   : No7 I3 a/ I8 |) L; W# ?! B

  162. % \8 ^* X- I. b+ H
  163. Text #99 ~6 Q) z# d8 f7 N
  164. ID                                       : 11
    ) m' w% r; B( ^  h+ T; u6 I
  165. Format                                   : UTF-87 `- k" m, E4 c' k
  166. Codec ID                                 : S_TEXT/UTF8
    " a4 u2 x7 ^) }/ V' K6 S. r
  167. Codec ID/Info                            : UTF-8 Plain Text
    - m$ E) T2 \$ ]4 V3 i
  168. Duration                                 : 1 h 24 min: p: n. l4 X; M  k0 K' Z( f2 i
  169. Bit rate                                 : 89 b/s# Q% ]8 S, w# w! K" v4 Y5 o
  170. Count of elements                        : 1337
    1 }$ F- j! d4 l
  171. Stream size                              : 55.2 KiB (0%)$ Q- p9 p0 q) h' W! k$ p0 Z
  172. Title                                    : Swedish [Full]( y- R! @0 z4 D9 v! `' V. E' d
  173. Language                                 : Swedish
    9 t1 P3 x6 ]" A) [
  174. Default                                  : No& A" U/ Z0 l& X* {" u
  175. Forced                                   : No
    ) a: k; U) P6 e6 u

  176. " v0 j/ {: Y( _" Z$ w. T
  177. Text #10/ g0 j( l$ `% u5 L& E) i
  178. ID                                       : 12
    & g) l: u. x5 o5 Z5 l
  179. Format                                   : UTF-8
    ' L# ^7 q$ b. u- F2 p1 Z6 ?1 Y
  180. Codec ID                                 : S_TEXT/UTF8# i* s6 v' p2 |5 E& P  X- r
  181. Codec ID/Info                            : UTF-8 Plain Text! o2 i% Z+ N1 m4 A% H" z
  182. Duration                                 : 1 h 24 min
    3 E, h& n# _4 Z8 K3 u
  183. Bit rate                                 : 89 b/s  l7 i! `0 `2 s" w/ A
  184. Count of elements                        : 1331& W4 @9 }" l* B, G4 P6 T+ F
  185. Stream size                              : 55.4 KiB (0%)
    % X' u/ r% k. Z) R) `* t6 W
  186. Title                                    : Danish [Full]
    : Y8 z. E. x) H1 f" F6 R$ M
  187. Language                                 : Danish
    + [( \1 C2 V0 t, e
  188. Default                                  : No
    $ d6 V6 \! q. f5 e
  189. Forced                                   : No
    ! k  W4 s9 d0 M1 w5 `
  190. 8 ~$ Z( n3 s% X% b) L: E' W/ V/ y
  191. Text #11
    9 n& q! y2 {2 w, ^0 v! Y
  192. ID                                       : 13
    8 O2 d, H" j. `" Y6 G" {, c
  193. Format                                   : UTF-86 n0 M/ U7 w" L' }' [$ C# p* B
  194. Codec ID                                 : S_TEXT/UTF8
    7 ~$ P; s6 c1 u+ t9 u+ Z
  195. Codec ID/Info                            : UTF-8 Plain Text
    + h, p( k( z* j: _9 x
  196. Duration                                 : 1 h 24 min
    , x* y' ^- g( u) Z
  197. Bit rate                                 : 89 b/s( p6 E. Y4 I) S9 Y- ]& r) h
  198. Count of elements                        : 1341  ?, u5 Z4 O8 V3 W7 N
  199. Stream size                              : 55.2 KiB (0%)- g. r0 }  q. D( t
  200. Title                                    : Finnish [Full]* e1 P+ Z+ Q5 c+ `9 y& P+ Y+ P
  201. Language                                 : Finnish$ M  {8 z9 d$ m3 U
  202. Default                                  : No
    # t* n" p0 y5 _- B8 J
  203. Forced                                   : No
    - k4 O" k/ f2 n7 H# c! z) h$ |

  204. & p) @: L) l' v+ e3 ~+ K
  205. Text #12
    2 V+ \* o4 S: _+ s
  206. ID                                       : 14
      d2 |+ F( P4 B9 o+ `2 f
  207. Format                                   : UTF-8. U' B/ _+ @1 |8 {; `
  208. Codec ID                                 : S_TEXT/UTF8
    * `6 a' R) _, x( z, Y
  209. Codec ID/Info                            : UTF-8 Plain Text! i! j, k6 F" {8 M, h
  210. Duration                                 : 1 h 24 min
      y  q3 ~6 F# B0 G
  211. Bit rate                                 : 91 b/s# I% G, u" f, U2 M0 J
  212. Count of elements                        : 1300
    * Q& H: ]  |, u' A# E4 p4 M
  213. Stream size                              : 56.6 KiB (0%)
    ( w% M0 S2 z7 a& y3 Y' c
  214. Title                                    : Norwegian [Full]
    # o; V7 A+ ]" {2 [" m/ N
  215. Language                                 : Norwegian5 o2 N7 X  U% q& b( I
  216. Default                                  : No
    $ ~9 J$ p; w+ V8 ]
  217. Forced                                   : No
复制代码

7 u) C8 k! x4 C- U9 O. b/ \* z( J( B, O( }/ J" y. d6 h8 Q! |6 @

# M* {; p! ~( V( {$ x- u( m4 e& d9 N$ f3 V

  D, z! o0 W* U& ~
* D2 g* n* s3 U9 R0 q' P1 g
游客,如果您要查看本帖隐藏内容请回复  捐助论坛可免回复查看隐藏内容 详情请点击
发表于 2018-4-1 07:07:02 | 显示全部楼层
这是中国威胁论的翻版吗?谢谢分享
发表于 2018-4-3 09:00:40 | 显示全部楼层
指桑骂槐 。呵呵
发表于 2018-4-3 11:53:36 | 显示全部楼层
多谢楼主分享
发表于 2018-4-5 02:23:26 | 显示全部楼层
楼主发贴辛苦了,谢谢楼主分享!
发表于 2018-4-8 16:45:47 | 显示全部楼层
中国现今是强国没说錯
发表于 2018-4-13 11:15:52 | 显示全部楼层
多谢楼主分享
发表于 2018-4-29 08:48:21 | 显示全部楼层

" \9 `7 Q# b( \& B! c7 H& [多谢楼主分享
发表于 2018-5-6 21:22:23 | 显示全部楼层
不一样的视角 体验一下
您需要登录后才可以回帖 登录 | 限时注册

本版积分规则

封号公示|手机版|Archiver|有问题发邮件到admin#(换成@)hd1tj.org|微博|免责申明|HD一条街

GMT+8, 2018-12-18 02:08

快速回复 返回顶部 返回列表