HD一条街论坛

 找回密码
 立即注册
搜索
查看: 97|回复: 7

[欧美] 纪录片:中国喧嚣/强国救世梦(港) The.China.Hustle.2017.1080p.WEB.x264-SKGTV 4.63G

[复制链接]
发表于 2018-3-31 21:29:44 | 显示全部楼层 |阅读模式

6 j; o( d7 f" ]  [2 c$ q
- ]  P2 v: f" k  g1 Q7 @◎译  名 中国喧嚣/强国救世梦(港)
6 t: w& Y( G( j" w; \0 e0 P+ h◎片  名 The China Hustle
8 k: m* v& l# V+ n( F◎年  代 2017; f1 I8 C; g3 O& D& N1 }* V
◎产  地 美国
. k, X5 s6 P. S2 b% ]% {) g3 D  c7 v◎类  别 纪录片
$ v1 [+ ]  J7 {8 E( r2 a◎语  言 英语
) @: G' D9 o  a# E- Q$ ~! l◎上映日期 2017-09(加拿大)
( u) w+ L$ t- c◎IMDb评分  7.0/10 from 59 users
! g% a( y1 g) O+ ^4 p; G; p◎IMDb链接  http://www.imdb.com/title/tt7215388/
, N! Y( I- G" i# [: Q◎豆瓣评分 /10 from 0 users1 [. S& j4 k2 v1 W. V- e/ O& `
◎豆瓣链接 https://movie.douban.com/subject/27115571/- o: x0 F) [: J$ Y
◎片  长 82分钟( L: W4 @, U$ p7 K
◎导  演 Jed Rothstein/ S! p& k/ f- R1 l  H& S

4 C& l! }: m- A/ t◎简  介) y+ j8 B. K8 \( V+ C: R
% @4 o$ C1 x% T4 e" h
  水能載舟,亦能覆舟。2008金融海嘯之後,全美視引入中資為救市良方。透過反收購美國公司,中資企業如洪流湧進山姆叔叔的金融市場,有人額手稱慶,有人看出隱憂。轉眼十年快過,積羅夫斯坦遍訪華爾街,他的鏡頭下有大鱷,也有機會主義者,更有註定後悔出鏡的業界「消息靈通人士」,進退之間幾乎拍成了一齣恐怖片—到處是街客想像不到的秘密交易、巧取豪奪。如果這「故事」有教訓,大抵是:知難而退簡直是天方夜譚, 失手的下次只會來得更狠更卑鄙。
  1. Video9 N% `" r, {/ \5 f9 ?' Z9 W9 g( M
  2. ID                                       : 1
    : o5 w- N3 L6 J+ y" S: U! v
  3. Format                                   : AVC
    4 ?! p" M3 ~+ R
  4. Format/Info                              : Advanced Video Codec  z. K* F/ l$ k; u* O
  5. Format profile                           : [email protected]
    7 L8 t- s$ M# ]7 S7 c( e. _
  6. Format settings                          : CABAC / 3 Ref Frames
    5 w* G9 d. D3 h; S6 z3 V& y2 c& Z/ ^
  7. Format settings, CABAC                   : Yes# u4 H$ e2 X% [: T5 ~0 W
  8. Format settings, ReFrames                : 3 frames
    7 W, e- K/ A/ w% Z, w/ Y# S
  9. Codec ID                                 : V_MPEG4/ISO/AVC. g- |2 j5 `& ~3 |
  10. Duration                                 : 1 h 24 min5 L& d5 ^9 n& u) p9 E- C+ Z
  11. Bit rate mode                            : Variable! D$ S$ `7 B% r* p& O( q" f' S
  12. Bit rate                                 : 7 500 kb/s# h' i6 U' T8 [+ V6 E: ^3 t3 O# @
  13. Maximum bit rate                         : 11.2 Mb/s8 L' A+ `' Y( _* Y( Y
  14. Width                                    : 1 920 pixels
    . `; }# X) v; K; S1 C4 d
  15. Height                                   : 1 080 pixels6 B- _: d8 s8 k. W" x4 ~* [
  16. Display aspect ratio                     : 16:96 {  V8 A& s: p) r
  17. Frame rate mode                          : Constant
    . }* ]6 j; t; L  a
  18. Frame rate                               : 23.976 (24000/1001) FPS; \" Z& [9 j% E' V1 ^
  19. Color space                              : YUV
    4 X+ s& c, ~9 n/ p5 e7 C: R# z
  20. Chroma subsampling                       : 4:2:0
    ; ^0 V) j! I0 H) V, [) A4 r8 J0 _
  21. Bit depth                                : 8 bits1 _+ i& y. E2 ?# _2 P1 A- ^% L+ x
  22. Scan type                                : Progressive
    - n$ w0 J) [: r; H
  23. Bits/(Pixel*Frame)                       : 0.151: W" B! O/ ]" X/ ~
  24. Stream size                              : 4.40 GiB (95%)
    & Y( }, B) Z. u, f6 Z& e; E
  25. Writing library                          : x264 core 148 r2715 7e75228) e- h% g- s# B4 `3 i! ~% U
  26. Encoding settings                        : cabac=1 / ref=3 / deblock=1:0:0 / analyse=0x1:0x111 / me=umh / subme=10 / psy=1 / psy_rd=1.00:0.00 / mixed_ref=1 / me_range=24 / chroma_me=1 / trellis=2 / 8x8dct=0 / cqm=0 / deadzone=21,11 / fast_pskip=1 / chroma_qp_offset=-2 / threads=8 / lookahead_threads=1 / sliced_threads=0 / nr=0 / decimate=1 / interlaced=0 / bluray_compat=0 / stitchable=1 / constrained_intra=0 / bframes=2 / b_pyramid=0 / b_adapt=2 / b_bias=0 / direct=3 / weightb=1 / open_gop=0 / weightp=2 / keyint=48 / keyint_min=25 / scenecut=0 / intra_refresh=0 / rc_lookahead=48 / rc=2pass / mbtree=1 / bitrate=7500 / ratetol=1.0 / qcomp=0.50 / qpmin=6 / qpmax=51 / qpstep=4 / cplxblur=20.0 / qblur=0.5 / vbv_maxrate=11250 / vbv_bufsize=15000 / nal_hrd=vbr / filler=0 / ip_ratio=1.40 / aq=1:1.00
    " T4 U5 W- x9 ~3 J) s
  27. Default                                  : Yes3 q0 _8 L" v- f6 t3 D' R0 v( H2 N: L7 K
  28. Forced                                   : No
    2 h' e8 V7 G* q! S4 y, _: a& G
  29. ) ^  r' n! T$ x( @
  30. Audio% t3 o1 X; j; m1 D$ e* U8 `
  31. ID                                       : 20 P) l$ I" P6 X
  32. Format                                   : AC-3. o/ E; q/ E1 K" x
  33. Format/Info                              : Audio Coding 3( e( A2 [1 o% ~
  34. Codec ID                                 : A_AC3
    7 W7 H; V+ P! O; L! G+ e3 F
  35. Duration                                 : 1 h 24 min- n1 Q4 G' O; ~
  36. Bit rate mode                            : Constant8 [  i7 V3 n( F( u8 i
  37. Bit rate                                 : 384 kb/s9 m8 u. b8 o2 ^
  38. Channel(s)                               : 6 channels/ @& v# n& C7 {! @- f6 X1 }. E6 y0 L
  39. Channel positions                        : Front: L C R, Side: L R, LFE
    8 l" q$ M) g2 K: Z: ^  r4 G
  40. Sampling rate                            : 48.0 kHz
    9 _/ o$ L' Z. L( o$ Y0 ]" |8 H
  41. Frame rate                               : 31.250 FPS (1536 SPF)$ \! }1 \6 [& K, @
  42. Bit depth                                : 16 bits! B. t$ S- r- y. S6 B
  43. Compression mode                         : Lossy
    , D+ p! ~: K2 z6 A% w! v" R1 j, `$ [
  44. Stream size                              : 233 MiB (5%)
      @" O' B, F# s& O5 U6 A1 a  }
  45. Title                                    : English8 m5 x, {7 y7 x- |1 D) _2 Y2 D
  46. Language                                 : English( ]) L% V3 O, [# E0 f$ w) P: B
  47. Service kind                             : Complete Main! z0 I* J2 `8 ^* r/ u; p- h) m
  48. Default                                  : No0 w' z! J! ^5 Q7 {& H
  49. Forced                                   : No# u+ p3 J1 m( v

  50. 8 y" C/ s% I: t* m; ?: v
  51. Text #1
    . e8 D0 H9 c( f5 H1 w& d: b& m5 X
  52. ID                                       : 3
    . p4 u; i5 k; r5 u  W0 u
  53. Format                                   : UTF-8
    1 g# f) J1 F9 O) ^2 I1 g
  54. Codec ID                                 : S_TEXT/UTF8
    - |3 T5 E1 J, U; S1 D* z' L5 o
  55. Codec ID/Info                            : UTF-8 Plain Text
      q2 {* {/ E, H. G
  56. Duration                                 : 1 h 12 min1 x( q4 H# k) h! O) x9 j4 S
  57. Bit rate                                 : 4 b/s
    ; K  ]! ~& \+ }( J- t6 g6 L" K9 m( l
  58. Count of elements                        : 54
    ' \' O. S/ e9 }$ K" i: f
  59. Stream size                              : 2.27 KiB (0%)
    + g  C4 h  p8 z& d2 y
  60. Title                                    : English [Forced]
    ) K! P" j: O1 T4 h6 k2 H! g" u: P
  61. Language                                 : English
      `" c) p  |2 O" w: `- s. L
  62. Default                                  : Yes
    6 m) G! m! o" C/ ^; f+ s; m
  63. Forced                                   : No1 S' N! n! Z8 x. I% G
  64. " t6 ?6 ?8 Z. R- H
  65. Text #2
    0 i+ ]  @, r+ t) G& A
  66. ID                                       : 4
    + X: ^$ K" i) E0 j+ l
  67. Format                                   : UTF-8& p9 \  g" ^; V% B& J4 g
  68. Codec ID                                 : S_TEXT/UTF8! q: |* W- Z" ]& n* d
  69. Codec ID/Info                            : UTF-8 Plain Text
    + b* k/ K- V0 v( q7 O' y
  70. Duration                                 : 1 h 21 min
    ; E$ k3 ^0 q* o
  71. Bit rate                                 : 105 b/s6 `. o$ h% q7 k+ o
  72. Count of elements                        : 2839
    ; C  P; U# b9 C& e$ z' H' p
  73. Stream size                              : 62.8 KiB (0%)5 ~: v4 F3 t! y9 f! \
  74. Title                                    : English [SDH]# W4 R' R, `2 V/ J
  75. Language                                 : English
    9 R' _( }2 S; K! C: F
  76. Default                                  : No- M' d* k' d+ Y8 ]
  77. Forced                                   : No
    0 w9 x* |/ ^0 E3 v
  78. 0 u1 H/ _; n% K* V
  79. Text #33 f- f# p7 _2 M
  80. ID                                       : 5
    - E5 w( \+ e+ j- `4 U
  81. Format                                   : UTF-8
    $ {& O$ M7 V% s; g- U" \# ~
  82. Codec ID                                 : S_TEXT/UTF8
    ( `; d" G( m4 ^5 {2 p7 N$ Y
  83. Codec ID/Info                            : UTF-8 Plain Text1 E  r& F+ g. D; Z( o' }
  84. Duration                                 : 1 h 24 min
    0 r. h$ r( K+ H( _
  85. Bit rate                                 : 88 b/s1 m  s, A# w: x
  86. Count of elements                        : 1341
    ; R9 x% z1 b$ [  q
  87. Stream size                              : 54.4 KiB (0%)3 q2 O* u5 ^7 K7 [. I- K1 [5 n
  88. Title                                    : Italian [Full]
    7 y  ^2 m7 X) M
  89. Language                                 : Italian# O$ U' Y  }4 T
  90. Default                                  : No/ t0 z9 }+ t0 d& D) j1 Q9 O& C
  91. Forced                                   : No1 B) ^& t/ ?  {  \( w% \7 s+ L

  92. ) k! |( v4 }* N: a5 }9 F) s  i
  93. Text #4
    + n) g3 {& x' _3 K, d$ o$ ~
  94. ID                                       : 6" `( d7 H' v6 [% j# c$ _* Q5 t" w
  95. Format                                   : UTF-8' R* @! D2 C# D* q1 M$ C! W
  96. Codec ID                                 : S_TEXT/UTF8
    / ~; B5 z6 `! m: Q# C' f
  97. Codec ID/Info                            : UTF-8 Plain Text1 Y  f8 J5 h7 |. B
  98. Duration                                 : 1 h 24 min
    , v9 \: |# b4 [  ~& f) t
  99. Bit rate                                 : 85 b/s
    5 A# R0 U! {2 \) |5 ?' A4 [9 D
  100. Count of elements                        : 1346
    ! M7 E' G5 q) N& V% L. t, H
  101. Stream size                              : 52.7 KiB (0%)1 ^  `) C$ F  j- O
  102. Title                                    : Castilian [Full]
    9 V, Z0 L% k7 [3 a+ \2 e
  103. Language                                 : Spanish
    " [: T( \, e- n2 H; ^7 e4 a! X
  104. Default                                  : No. y: [! l: T) d1 G  K
  105. Forced                                   : No
    6 x; H7 T: w; L" }# v

  106. 4 Y& w8 p1 f% H5 A
  107. Text #5% L5 X( |! p/ e8 X5 z" y, s
  108. ID                                       : 7) x- L0 h4 K4 `; ?
  109. Format                                   : UTF-8
    & T9 h  {2 D" m. d, L0 U
  110. Codec ID                                 : S_TEXT/UTF8! L/ i3 m2 G  @3 @, K& ]
  111. Codec ID/Info                            : UTF-8 Plain Text
    8 P/ R( Q" i  ~: q% U
  112. Duration                                 : 1 h 24 min' R" l+ C0 O; c) n+ {  a! _
  113. Bit rate                                 : 85 b/s
    * N) t. Q$ N  B9 y
  114. Count of elements                        : 1348
      ?) {8 a8 b! Y2 ]& k0 e
  115. Stream size                              : 52.6 KiB (0%)
    ' R  K+ I0 K0 L5 {
  116. Title                                    : French [Full]
      r/ `3 T+ o+ m# `  B* U( Q6 m0 J
  117. Language                                 : French$ |% C# \! r' Z6 }# O
  118. Default                                  : No4 u; Q8 s$ h8 W, X
  119. Forced                                   : No2 W$ g/ {0 [6 y; I

  120. 4 C. B& v- R& N( X" {
  121. Text #6
    % Z5 {! L3 n, o0 b
  122. ID                                       : 8
    , P' O" X6 L& B. V7 T
  123. Format                                   : UTF-8
    / Q% a" j' l. A: l3 b' x
  124. Codec ID                                 : S_TEXT/UTF8" u; d; @) S5 |1 e3 @% g% {0 O, r
  125. Codec ID/Info                            : UTF-8 Plain Text
    9 e8 K& y& V3 e1 t- s
  126. Duration                                 : 1 h 24 min
    5 `2 h& G0 ?& C3 v- X- a7 X6 S
  127. Bit rate                                 : 86 b/s- B- E$ Y( ^% e+ |- l
  128. Count of elements                        : 1344
    / Y3 e  }5 x3 a9 S
  129. Stream size                              : 53.5 KiB (0%)/ f+ V  L# O% Z+ v+ K
  130. Title                                    : German [Full]* F8 _, A( e5 Y
  131. Language                                 : German+ r/ U9 i" R$ U* T1 r. o
  132. Default                                  : No- k% }$ _& V  E5 q  w
  133. Forced                                   : No
    ! X7 T8 g& A( p7 v

  134.   _  n1 V% A. _
  135. Text #7  a' _; i/ M4 z# N! u
  136. ID                                       : 9
      \  I: a4 G8 H$ t" G7 \4 _$ P) W
  137. Format                                   : UTF-89 E$ o, P1 `. P- I& j
  138. Codec ID                                 : S_TEXT/UTF8
    " n% B( j2 O7 P5 r' k3 A
  139. Codec ID/Info                            : UTF-8 Plain Text$ r2 {% ?4 ?( k  o
  140. Duration                                 : 1 h 24 min& ^0 k- ^, \2 M8 ^
  141. Bit rate                                 : 91 b/s# T# r4 Q1 k. Q) p
  142. Count of elements                        : 1341# {. Z; O5 f& Z. u' d$ ?
  143. Stream size                              : 56.3 KiB (0%)
    " q8 K% M% x, q7 q, }  |0 o
  144. Title                                    : Portuguese [Full]
    : B2 A5 W; i) _8 G) X  z
  145. Language                                 : Portuguese8 X) Y$ O' O6 Q' ]2 ^
  146. Default                                  : No" ?( `+ o: j& K& N8 ^
  147. Forced                                   : No
    $ G1 w0 u* n: G
  148. 8 Z2 a( g2 w3 n7 l" r( P- x
  149. Text #8
    , a8 z, l. a: e& e
  150. ID                                       : 106 T/ p! ^/ c) u
  151. Format                                   : UTF-8+ N4 Y3 N% M1 t. e
  152. Codec ID                                 : S_TEXT/UTF8
    8 _0 h7 O- @7 |( y
  153. Codec ID/Info                            : UTF-8 Plain Text: j- w9 r4 D' W2 \) Q
  154. Duration                                 : 1 h 24 min$ T! _! O% j  x/ X  n
  155. Bit rate                                 : 79 b/s
    ' h- v# s* d5 n: `8 x
  156. Count of elements                        : 1349
    ' e5 _3 U, h5 z& \
  157. Stream size                              : 48.9 KiB (0%)
    ! }! f& q4 d5 ^! B4 c7 k
  158. Title                                    : Polish [Full]1 R$ F/ R% h' m& @, _
  159. Language                                 : Polish
    ) s* h  s3 h, N3 m
  160. Default                                  : No$ b0 a1 N2 ]  e' s3 Z3 Z
  161. Forced                                   : No
    ( Y0 Z1 W( j: y! B+ ?. V

  162. 3 N( p$ \  I% G  L/ G1 B
  163. Text #9; L7 ~+ V6 I- ^
  164. ID                                       : 11+ R7 E' h2 C) R+ M) X
  165. Format                                   : UTF-8
    4 e5 I' h8 T3 v0 f- w* Q4 h* I
  166. Codec ID                                 : S_TEXT/UTF8
      F( m6 E3 |6 o
  167. Codec ID/Info                            : UTF-8 Plain Text
    9 U8 S7 l- b( Q& T; X
  168. Duration                                 : 1 h 24 min5 Q& b2 W% X7 Y% j/ d5 k9 b
  169. Bit rate                                 : 89 b/s; x( Z8 ^' o) K
  170. Count of elements                        : 1337
    2 T& i  m: ^9 q- m+ O+ @) D9 H7 O
  171. Stream size                              : 55.2 KiB (0%)1 t5 l; Q" L$ i6 @$ k
  172. Title                                    : Swedish [Full]. Z% m5 D9 R" u/ u1 `: x5 e  L
  173. Language                                 : Swedish
    ( k2 ?  B; i, L' R. R" ]% o# D
  174. Default                                  : No
    ! s, Q# m7 _+ g5 u6 k9 g% s! g! P
  175. Forced                                   : No% f6 o  y3 N0 g3 V1 r, K' v: G

  176. . M- j# e3 R+ }2 m! j
  177. Text #107 }1 A  l' `$ {9 m
  178. ID                                       : 12
    % v1 U4 }/ r& U& ?* L  E
  179. Format                                   : UTF-8
    : P4 X9 G1 A  l& _3 |
  180. Codec ID                                 : S_TEXT/UTF8
    ! a. O. a2 _- t  S$ |3 h. P
  181. Codec ID/Info                            : UTF-8 Plain Text
    2 Q! e  V2 F  e. t/ q% b( A6 g
  182. Duration                                 : 1 h 24 min& }* Q& W: m$ ?* K! u, N9 M- k
  183. Bit rate                                 : 89 b/s9 q& B0 o9 d# {- g# E! |. K! x& J. E6 [
  184. Count of elements                        : 1331
    5 ?% [* o7 S2 O4 p
  185. Stream size                              : 55.4 KiB (0%)
    " k* Q! E2 z4 _7 d
  186. Title                                    : Danish [Full]
    * f2 [0 r3 ~( I) ~8 `
  187. Language                                 : Danish
    9 Y; s) X0 q8 E8 f! i' Q
  188. Default                                  : No
      k5 w2 w+ J3 a0 s
  189. Forced                                   : No
    5 D1 ]$ w0 ^/ l6 u: q9 J

  190. " `  T9 w( `6 M) B- q7 T3 F) F1 n0 \
  191. Text #116 ~* t2 S! L; i% c
  192. ID                                       : 13
    ) b% k0 T% G5 P3 j/ H
  193. Format                                   : UTF-8! j/ k9 p4 z; j; S
  194. Codec ID                                 : S_TEXT/UTF86 L, I/ v& `$ L# F/ s. A
  195. Codec ID/Info                            : UTF-8 Plain Text
    2 Y, X# Y; |+ M* D5 a
  196. Duration                                 : 1 h 24 min* a; {9 Q* U1 K0 i8 F  [
  197. Bit rate                                 : 89 b/s
    - w- k8 Q* m% {6 {
  198. Count of elements                        : 1341/ P& Y3 n7 M! Y
  199. Stream size                              : 55.2 KiB (0%)& y% k6 z8 R4 A: i3 g
  200. Title                                    : Finnish [Full]
    ) p$ U0 G( k2 b* [5 M* `$ j
  201. Language                                 : Finnish+ |/ z' y3 E8 `
  202. Default                                  : No
    9 i2 S) [: J3 X' u! o
  203. Forced                                   : No
    9 W7 |1 h$ h$ g9 Q* H
  204. 7 ^6 \' A8 k: @& Q& R
  205. Text #12
    " K: F3 J: A; e0 v5 W3 ]
  206. ID                                       : 14
    ; }& }' |. R1 o5 `3 T! h
  207. Format                                   : UTF-8
    6 X! C/ l7 L. Q. A) Z
  208. Codec ID                                 : S_TEXT/UTF8
    ! T3 f! M' p9 g) c
  209. Codec ID/Info                            : UTF-8 Plain Text
    ( \& T  E: z" p% B4 X
  210. Duration                                 : 1 h 24 min
    4 B2 V7 n9 B( ~* Z1 D( m8 ?' D
  211. Bit rate                                 : 91 b/s. n* v& A3 V* q9 w$ o" b) {
  212. Count of elements                        : 1300
    - _7 |' s/ n& K
  213. Stream size                              : 56.6 KiB (0%)- l" u2 ~1 O& U: y8 p) N" t% F
  214. Title                                    : Norwegian [Full]$ b2 p# l) Z8 t( k3 {, S5 i& ~
  215. Language                                 : Norwegian: d( z* `; |9 ]5 |
  216. Default                                  : No# D( j) v: N( K& m- ?0 o  _5 y
  217. Forced                                   : No
复制代码

( U/ Z, O) a  B6 M/ M3 v. h
  K0 P. ?( h! V! V. g& Q1 Y( x: k! b/ D$ E5 K3 O

# g7 b: I4 e/ s$ ]) v3 z: i9 g- I6 z0 t5 u

3 Q" p2 k  V7 q7 @" J
游客,如果您要查看本帖隐藏内容请回复  捐助论坛可免回复查看隐藏内容 详情请点击
最近访问 头像模式 列表模式
发表于 2018-4-1 07:07:02 | 显示全部楼层
这是中国威胁论的翻版吗?谢谢分享
发表于 2018-4-3 09:00:40 | 显示全部楼层
指桑骂槐 。呵呵
发表于 2018-4-3 11:53:36 | 显示全部楼层
多谢楼主分享
发表于 2018-4-5 02:23:26 | 显示全部楼层
楼主发贴辛苦了,谢谢楼主分享!
发表于 2018-4-8 16:45:47 | 显示全部楼层
中国现今是强国没说錯
发表于 2018-4-13 11:15:52 | 显示全部楼层
多谢楼主分享
您需要登录后才可以回帖 登录 | 立即注册

本版积分规则

支付宝每天扫码得红包

封号公示|手机版|Archiver|有问题发邮件到admin#(换成@)hd1tj.org|微博|免责申明|HD一条街 |网站地图

GMT+8, 2018-4-23 23:07

快速回复 返回顶部 返回列表