HD一条街论坛

 找回密码
 立即注册
搜索
查看: 264|回复: 5

[欧美] 纪录片:野性的落基山脉 Wild.Rockies.S01.1080p.AMZN.WEBRip.DDP2.0.x264-NTb 18.2G

[复制链接]
发表于 2018-3-13 22:07:33 | 显示全部楼层 |阅读模式

; _+ A/ E* J) a$ j
& l# s2 ~/ D! e8 C1 X. ]$ @5 _& U# O) z
. D) u. f, U1 S. {! J; X9 u
  1. Video/ P( H( H$ M. e
  2. ID                                       : 1# o! R5 g! Y- A8 }7 I2 @5 C
  3. Format                                   : AVC, s( j( S- s* n6 Q
  4. Format/Info                              : Advanced Video Codec
    * c9 ~: P) q; G+ U! z6 Z  |8 _: g2 E
  5. Format profile                           : [email protected]% O  ^$ B( @  J4 C
  6. Format settings                          : CABAC / 4 Ref Frames
      r% Y1 x( [0 P1 x0 C# r
  7. Format settings, CABAC                   : Yes8 [% x3 L  n* l. d1 o
  8. Format settings, ReFrames                : 4 frames
    4 }5 j  G3 d4 s7 M
  9. Codec ID                                 : V_MPEG4/ISO/AVC
    & }6 @8 e# I; r* H
  10. Duration                                 : 48 min 4 s$ p" k! ~8 Q1 b7 G5 A$ u0 F/ R3 a
  11. Bit rate mode                            : Variable
    ( @% ~  Q- @& J7 c
  12. Bit rate                                 : 11.6 Mb/s$ l, ~; P, Q- Z  ?, q" c5 b, H
  13. Maximum bit rate                         : 15.0 Mb/s
    " l+ r0 r! R- K) B# ~- N; q
  14. Width                                    : 1 920 pixels9 G( o# L, v5 o7 I8 s% L
  15. Height                                   : 1 080 pixels
    5 {7 T. |8 ]! H) i5 Z2 G5 Z
  16. Display aspect ratio                     : 16:9- `6 B8 o# Y8 Y0 I& ]
  17. Frame rate mode                          : Constant! s* q' a: L3 y: `0 F: d0 x) I% |; ^
  18. Frame rate                               : 23.976 (24000/1001) FPS
    4 F1 k' t5 b1 I
  19. Color space                              : YUV
    / a/ @0 w- t+ F7 E
  20. Chroma subsampling                       : 4:2:07 z' E0 f! T" K9 ~" ]! [$ W
  21. Bit depth                                : 8 bits; \, t* q) U$ @- c: Z- g; \: O
  22. Scan type                                : Progressive
    ; n8 r2 @2 ~' ^+ A
  23. Bits/(Pixel*Frame)                       : 0.234
    , R7 n9 w# f: e: S; ?
  24. Stream size                              : 3.90 GiB (98%)
    ! i2 i* d2 J1 P  \
  25. Default                                  : Yes
    * N% v9 R7 \& x5 `0 X7 }1 O
  26. Forced                                   : No
    8 T4 q, s5 F0 U& c- ^
  27. Color range                              : Limited
    + o8 g$ P$ Z  V
  28. Color primaries                          : BT.709# [. A6 F' L3 f* D9 A, x
  29. Transfer characteristics                 : BT.709- p4 o1 s# C- J6 U' a
  30. Matrix coefficients                      : BT.709
    ( }. R/ T( K6 @* ]0 T% t8 h- T
  31. ) C; S  k: }- Q+ X
  32. Audio
    # b  L. L# K* u5 G9 q: y5 w
  33. ID                                       : 2
    6 p* `- j8 J9 W
  34. Format                                   : E-AC-31 a1 L0 G/ P6 k( v' O$ z" H: N$ l3 y
  35. Format/Info                              : Enhanced Audio Coding 3
    / \& j  I) U7 B7 g. q
  36. Codec ID                                 : A_EAC3% s4 i  ]# F& b. Z; Y
  37. Duration                                 : 48 min 4 s# @3 T' T# N8 j6 q! \0 q2 U2 \
  38. Bit rate mode                            : Constant3 D- P- z, P+ q/ l  ^7 f2 {
  39. Bit rate                                 : 224 kb/s! H0 d2 o; K+ n& ~: O
  40. Channel(s)                               : 2 channels
    1 k5 P- S/ t% g
  41. Channel positions                        : Front: L R
    1 y& Q- O3 [3 c  Q& M' b% i2 L7 |2 k' x
  42. Sampling rate                            : 48.0 kHz
    & w& a4 o! v1 O5 F
  43. Frame rate                               : 187.500 FPS (256 SPF): h4 ]: Q: l; O% D6 f/ i. p6 X
  44. Compression mode                         : Lossy2 \$ Y; e" u! B6 s( y+ ~6 u1 ]4 V
  45. Stream size                              : 77.0 MiB (2%)0 t" j7 W" w' N% A3 o- D
  46. Language                                 : English: Z; h! S6 B4 F7 Y
  47. Service kind                             : Complete Main
    7 ~: h6 g: X# P9 T
  48. Default                                  : Yes
    6 [6 n! K7 ^" ~4 I) T. |: ]
  49. Forced                                   : No6 L& L+ Q% B; j4 U0 F) h/ Y

  50. 1 V; g* Q# z1 n4 Z* F" i4 P
  51. Text #1
    . d5 k4 H& T, P/ u. `* |1 W
  52. ID                                       : 3
    - K) T; n' m7 L0 o/ Z( N
  53. Format                                   : UTF-8
    & f' Z' w( X3 H& g5 G1 j
  54. Codec ID                                 : S_TEXT/UTF80 i% x5 B- b  f8 |  F
  55. Codec ID/Info                            : UTF-8 Plain Text8 q% r* V% b' a  K' i( K$ q' G
  56. Duration                                 : 47 min 53 s7 Y/ V  W0 x( W
  57. Bit rate                                 : 78 b/s
    7 }& Q6 R# ?: L) K
  58. Count of elements                        : 826" V6 q$ A$ b1 v8 Y/ E
  59. Stream size                              : 27.6 KiB (0%)
    7 x% p7 I: O6 B4 v, O: t1 |7 ~
  60. Language                                 : English
    # q0 n  q& F# N  [7 ?* u
  61. Default                                  : No
    + f; g; b  v/ d- j# J  F
  62. Forced                                   : No8 ~" p- L/ z& `" ]3 k
  63. 7 e- p* ?% W8 b3 f$ o, _; t
  64. Text #2
    + S5 X, ^1 r+ x9 a0 y  |& ^5 H
  65. ID                                       : 4
    * v2 U9 [) }7 e7 e: U
  66. Format                                   : UTF-88 n, ?3 S" p- }8 f/ n
  67. Codec ID                                 : S_TEXT/UTF8
    , x# M! d  r5 F& Y  J
  68. Codec ID/Info                            : UTF-8 Plain Text2 C7 t! I" b9 Y- D$ m- `3 `
  69. Duration                                 : 47 min 53 s% ~+ V( a, b- q
  70. Bit rate                                 : 79 b/s' j/ a8 C# \4 K( S
  71. Count of elements                        : 842
    % B9 Z7 i6 C3 w8 }& p* K$ l( r$ r0 q- D
  72. Stream size                              : 27.9 KiB (0%)
    ' `. a' c; s) @1 b' N, I* O# @
  73. Title                                    : SDH  c& p2 s# z7 Q* d7 S  m
  74. Language                                 : English- s6 ~) h* r* z$ {
  75. Default                                  : No; k, Q& |% I% W) X* B7 a; G! O1 o
  76. Forced                                   : No
复制代码
3 q' o4 g% V6 q- c
$ @# `8 y1 t* R$ f
/ T" y5 r/ w  }1 E8 l! z
游客,如果您要查看本帖隐藏内容请回复  捐助论坛可免回复查看隐藏内容 详情请点击
发表于 2018-3-13 22:31:28 | 显示全部楼层
楼主威武,纪录片是心头好,谢谢
发表于 2018-3-24 11:28:05 | 显示全部楼层
动物世界无奇不有
发表于 2018-4-7 11:33:25 | 显示全部楼层
很不错哦,值得一看
发表于 2018-4-13 11:25:46 | 显示全部楼层
多谢楼主分享
头像被屏蔽
发表于 2018-8-13 06:41:45 | 显示全部楼层
提示: 作者被禁止或删除 内容自动屏蔽
您需要登录后才可以回帖 登录 | 立即注册

本版积分规则

封号公示|手机版|Archiver|有问题发邮件到admin#(换成@)hd1tj.org|微博|免责申明|HD一条街

GMT+8, 2019-1-17 13:48

快速回复 返回顶部 返回列表