HD一条街论坛

 找回密码
 立即注册
搜索
查看: 167|回复: 3

[欧美] 纪录片:普照大地[人造太阳科学项目]Let.There.Be.Light.2017.1080p.BluRay.x264-PSYCHD 7.66G

[复制链接]
发表于 2018-3-2 10:59:57 | 显示全部楼层 |阅读模式
( o* ]1 `& @3 K/ @4 M; O

0 Y: e. J; A  ~! J7 t2 q; L6 c4 S◎译  名 普照大地/Niechstaniesieswiatlosc7 s4 E5 O5 f. a" n2 ^) e% f
◎片  名 Let There Be Light
& w+ o* B  D5 M$ A. H2 P) l◎年  代 2017
, ?/ S. g* g( e◎产  地 加拿大/法国/意大利/瑞士/美国8 f' G/ Y; q9 `# D
◎类  别 纪录片
6 N$ k1 @& l7 m7 x# M* g  J◎语  言 英语9 j; t: [3 Z% U; x4 l
◎上映日期 2017-03-10(美国)4 H; _/ R8 V; k- N4 r
◎豆瓣评分 0/10 from 1 users$ N( T/ D- A. i6 U
◎豆瓣链接 https://movie.douban.com/subject/27183686/
' M3 B# L, P; N0 l◎片  长 80分钟4 n, O9 O/ I1 }
◎导  演 Mila Aung-Thwin 米拉·奥特温 / Van Royko
6 M2 s9 f% j# F8 H4 B, {◎主  演 Bernard Bigot
/ _/ L/ O2 i( C4 L3 w. f4 w3 K      Alessandro Bonito-Oliva
2 g7 r0 ]; \' {' |, A. I; }      Mark Henderson
) v" k, ]( C  b! C% r- q6 x      Michel Laberge
  G( t4 t, |- p
! A( ~2 K" Y& ?8 @( j◎简  介/ d  d- w1 o' y4 A* y6 P- J
% f, o, ]0 m2 v( O% D
  "在法国南部,来自37个国家的科学家们正在建造最复杂的机器:人造太阳。如果他们成功的话,它将产生最清洁,廉价和丰富的能量。如果失败,这将成为人类最大的科学失败之一。, s; L- X. g3 l$ z1 o! [+ p$ E
  核裂变是过去几十年来产生能量的必杀技。它是推动星球和产生宇宙终极能量来源的过程。科学家们已经用了接近一个世纪的时间,在地球上寻找以裂变作为能源来源的方法。"
6 Z9 g4 f% f' Y6 `  In the south of France, scientists from 37 countries are building the most complex machine ever attempted: an artificial sun. If they get it right, it will illuminate the way to produce clean, cheap, abundant energy for millions of years. If they fail, it will be one of the biggest scientific failures of all time. Nuclear fusion has been the holy grail of energy for many decades now. It's the progress that drives stars, the ultimate source of energy in the universe. The possibility that fusion might be achievable on Earth as an energy source has driven scientists to the edge of reason for almost a century.
  1. Video
    ( f' D) e- @1 d1 U
  2. ID                                       : 1
      Z% `& j) {, q1 {& O: Z( @7 F
  3. Format                                   : AVC+ s7 K9 _* _3 J% M6 W3 \5 E+ g1 u3 d
  4. Format/Info                              : Advanced Video Codec0 g7 n: L. J: |1 X, W+ l, E
  5. Format profile                           : [email protected]2 H) n  @# H, |3 N
  6. Format settings                          : CABAC / 5 Ref Frames
    ( o7 [3 R- x* e+ x8 S+ Q6 v
  7. Format settings, CABAC                   : Yes
    ) ~- L  `9 v& t' {1 y! K% F
  8. Format settings, RefFrames               : 5 frames  A. V% a6 o/ T% i* o
  9. Codec ID                                 : V_MPEG4/ISO/AVC% W; l$ I9 r+ ^6 \0 o
  10. Duration                                 : 1 h 41 min
    : E! o9 L- W! T1 ~) }" j
  11. Bit rate                                 : 9 502 kb/s
    , r/ K7 N& ~6 V5 |/ w: A
  12. Width                                    : 1 920 pixels
    1 R: Y! m. B. P! E$ N
  13. Height                                   : 808 pixels$ K  p1 f" x% t
  14. Display aspect ratio                     : 2.40:1
    " G9 I; Q+ S/ T4 y
  15. Frame rate mode                          : Constant: l  q1 I  l5 e, J
  16. Frame rate                               : 23.976 (24000/1001) FPS
    ; D& _. K* ]: i) i& q  [, ~& [, S
  17. Color space                              : YUV& J, v$ p. r: t, q) J7 g
  18. Chroma subsampling                       : 4:2:0
    4 g1 D( q' O: k+ H0 o0 m' h, A& L
  19. Bit depth                                : 8 bits
    % D8 C& Z7 F. F$ `/ z
  20. Scan type                                : Progressive' Z% y( _# G- H- }
  21. Bits/(Pixel*Frame)                       : 0.255
    2 t+ ]8 U5 h4 m& B
  22. Stream size                              : 6.55 GiB (86%)
    ) q8 I3 v. k( f) j* M& @
  23. Writing library                          : x264 core 155 r2901 7d0ff223 d' k' l' a1 H. {
  24. Encoding settings                        : cabac=1 / ref=5 / deblock=1:-3:-3 / analyse=0x3:0x113 / me=umh / subme=8 / psy=1 / psy_rd=1.00:0.00 / mixed_ref=1 / me_range=32 / chroma_me=1 / trellis=1 / 8x8dct=1 / cqm=0 / deadzone=21,11 / fast_pskip=1 / chroma_qp_offset=-2 / threads=25 / lookahead_threads=4 / sliced_threads=0 / nr=0 / decimate=1 / interlaced=0 / bluray_compat=0 / constrained_intra=0 / bframes=3 / b_pyramid=2 / b_adapt=2 / b_bias=0 / direct=3 / weightb=1 / open_gop=0 / weightp=2 / keyint=240 / keyint_min=24 / scenecut=40 / intra_refresh=0 / rc_lookahead=50 / rc=2pass / mbtree=1 / bitrate=9502 / ratetol=1.0 / qcomp=0.60 / qpmin=0 / qpmax=69 / qpstep=4 / cplxblur=20.0 / qblur=0.5 / ip_ratio=1.40 / aq=3:0.80- L8 v5 h! t- P7 w1 d* D) p; ]/ h
  25. Default                                  : Yes
    4 o$ s- G( K+ l% J
  26. Forced                                   : No
    8 u$ e8 ^6 _& b0 {4 B) s7 W, {7 y
  27. Statistics Tags Issue                    : no_variable_data 1970-01-01 00:00:00 / no_variable_data 2010-02-22 21:41:29
      q% b$ K( |0 V: w8 d# {* m
  28. FromStats_BitRate                        : 9501424
    5 ]4 ?* \% l$ W/ i8 M2 S
  29. FromStats_Duration                       : 01:41:00.138000000, H: F$ b; b" R, B: w- N, N
  30. FromStats_FrameCount                     : 145298
    ) Y# d% c% Y* @5 E# o: o: R
  31. FromStats_StreamSize                     : 7197492636
    , p, n" F: [9 }1 P8 z

  32. " Q: z2 t- R6 N2 u
  33. Audio7 s1 _/ N0 t! K3 B9 M+ m
  34. ID                                       : 2
    / f; [3 B- M, T7 y8 R. E; v
  35. Format                                   : DTS
    6 N. g9 v# P  _8 c. T7 X
  36. Format/Info                              : Digital Theater Systems, \/ B' d% S. P' u$ n! M9 V( \% [
  37. Mode                                     : 16
    ' L, ]! V! K5 ]2 J" q/ v: Q! ?# P/ w
  38. Format settings, Endianness              : Big
    8 q' z" P, H! i% S7 Q2 Q) f
  39. Codec ID                                 : A_DTS# ]" G+ \* _) S0 ~
  40. Duration                                 : 1 h 41 min, C6 g8 Z( w' ~4 {0 R: y* b2 ~
  41. Bit rate mode                            : Constant
    / ^4 ~. Y  ^6 B, N2 J
  42. Bit rate                                 : 1 344 kb/s
    ' ]4 }. ^4 [1 ~, q/ E  M" U3 {2 ^3 w
  43. Channel(s)                               : 6 channels
    6 g, R8 E& I& p- Z; z7 c# K2 w
  44. Channel positions                        : Front: L C R, Side: L R, LFE
    ' E' S# Y# E' C- G
  45. Sampling rate                            : 48.0 kHz
    9 W4 z! ]  h/ ]
  46. Frame rate                               : 93.750 FPS (512 SPF)2 ?; U% N, a: S6 M3 t
  47. Bit depth                                : 24 bits, @3 @' {  e! z. a- K' K
  48. Compression mode                         : Lossy
    * g, ?3 m6 P' J/ f) n
  49. Stream size                              : 971 MiB (12%); g% d* u; k' r$ A7 L
  50. Language                                 : English: K. y$ Y) Z6 e! [" m
  51. Default                                  : Yes
    ; J! s/ F5 L1 W# z& ^9 s
  52. Forced                                   : No1 e; f% n" T. B, w7 c
  53. Statistics Tags Issue                    : no_variable_data 1970-01-01 00:00:00 / no_variable_data 2010-02-22 21:41:29( K, L3 R: z& b& j8 _
  54. FromStats_BitRate                        : 1343999
    1 M% T0 q; o. l9 l
  55. FromStats_Duration                       : 01:40:59.542000000% z/ p% E2 v( ~' V9 S& W/ S
  56. FromStats_FrameCount                     : 5680824 O' ]% U! h  C9 a7 L# j" p- E
  57. FromStats_StreamSize                     : 1018002944; s/ n8 r; u. L& h1 [

  58. $ n% n! A9 `" Z6 Q5 u
  59. Text #1
    8 b& ~8 A' v8 ]7 K
  60. ID                                       : 3& x" e; V# |# |' ~- ^% k* s
  61. Format                                   : UTF-8- Z0 s# t, \. K* }' v6 k  G
  62. Codec ID                                 : S_TEXT/UTF8! W7 z! f6 y7 H
  63. Codec ID/Info                            : UTF-8 Plain Text
    : ^/ q: _* ?$ F; M
  64. Language                                 : English
    * Q3 B( N. R% S( B. Q8 E8 P
  65. Default                                  : No
    4 T& E, u' q4 p% P, s
  66. Forced                                   : No% o6 \) W) R- y2 D
  67. Statistics Tags Issue                    : no_variable_data 1970-01-01 00:00:00 / no_variable_data 2010-02-22 21:41:29: a( v5 A$ R# B0 S3 M; \* R
  68. FromStats_BitRate                        : 85
    + H4 y% [6 B7 s: `, ^
  69. FromStats_Duration                       : 01:40:17.302000000
    % P8 I+ Y; S- M
  70. FromStats_FrameCount                     : 2069: `& O' J) Q8 l4 G8 Y& t
  71. FromStats_StreamSize                     : 64490# ^" z! z" V9 V4 L9 J
  72. * ?% W. W. T" h4 w. Q7 u; |! ]
  73. Text #2
    : M( Q2 J8 n5 j% m1 X
  74. ID                                       : 4
    # X/ C2 w! w) |9 W0 z' ~. _/ m
  75. Format                                   : UTF-8) w5 G2 t, b4 m. ?
  76. Codec ID                                 : S_TEXT/UTF8
    - O7 ^3 Z! {) ?0 d1 a
  77. Codec ID/Info                            : UTF-8 Plain Text
    6 N4 R* h: ]4 E1 R$ z
  78. Title                                    : SDH
    # u) S5 k+ ^: Q1 r9 P9 S1 }, z8 T
  79. Language                                 : English
    $ v! h/ L+ D8 }; Z9 X* C
  80. Default                                  : No" v$ |/ `8 J. {7 |+ K
  81. Forced                                   : No5 A; N2 S% M# Y8 V! ]* c4 Y5 U
  82. Statistics Tags Issue                    : no_variable_data 1970-01-01 00:00:00 / no_variable_data 2010-02-22 21:41:29
    9 f4 R8 U" J3 g6 O2 A) x7 I
  83. FromStats_BitRate                        : 85
    5 ^" y8 W; K5 }
  84. FromStats_Duration                       : 01:40:17.302000000+ \! [4 H0 g- D: R- R, k- P( E& o
  85. FromStats_FrameCount                     : 2069
    4 Q5 H1 R( W7 Z: T. P0 T: y
  86. FromStats_StreamSize                     : 64490% `. c+ O$ r% c4 F

  87. 7 ~1 p2 P) l9 z! l7 m$ d+ s
  88. Menu/ i. o: h# q" L, e! u5 T! p
  89. 00:00:00.000                             : en:00:00:00.000. e, A2 M8 P% H/ B
  90. 00:08:15.870                             : en:00:08:15.8701 S3 F# W& ?1 [- f  E
  91. 00:14:39.003                             : en:00:14:39.003
    8 z$ M6 i2 P9 p/ Q0 z
  92. 00:19:44.975                             : en:00:19:44.975  ?8 i; [  T0 M9 i% X( r
  93. 00:23:32.995                             : en:00:23:32.995
    , G) c5 J; m# I6 w1 y$ p2 k# v
  94. 00:29:40.946                             : en:00:29:40.946
    2 G# O! C# o. a
  95. 00:33:59.955                             : en:00:33:59.955
    & s: |3 o+ M7 j
  96. 00:41:15.973                             : en:00:41:15.9730 B8 w) h, q# n# Q
  97. 00:47:55.956                             : en:00:47:55.956
      A; v* X1 o1 s6 U
  98. 00:59:45.957                             : en:00:59:45.957
    9 m% J0 A7 W, K( ]
  99. 01:11:55.978                             : en:01:11:55.978
    ) ^. {. \" u0 s  N5 X7 X
  100. 01:18:16.901                             : en:01:18:16.901! K! n( L( }2 Y: r( Y# T1 v$ v& @; W: `
  101. 01:22:22.437                             : en:01:22:22.437
    0 D0 T" R8 V4 H/ H8 H# S) f
  102. 01:28:14.873                             : en:01:28:14.8732 K! R1 d& D* C% r
  103. 01:32:38.970                             : en:01:32:38.970
    & E2 [2 z- }2 F8 o, E
  104. 01:37:37.894                             : en:01:37:37.894
复制代码

9 v! t1 o( a0 ?6 d
5 X) ^) }% R9 X- t( e! w
9 h8 u- a2 f( f7 O
                               
登录/注册后可看大图
7 f5 y5 q" s8 R9 f* ]
. Y5 i; N) y1 e& l# l0 g/ _  b+ X" b
) I; P( B8 L" o7 a7 q, R/ E+ Y
游客,如果您要查看本帖隐藏内容请回复  捐助论坛可免回复查看隐藏内容 详情请点击
发表于 2018-3-8 23:06:54 | 显示全部楼层
谢谢楼主分享
头像被屏蔽
发表于 2018-5-8 10:00:10 | 显示全部楼层
提示: 作者被禁止或删除 内容自动屏蔽
发表于 2018-5-8 10:26:40 | 显示全部楼层
这纪录片很高水准呢,谢谢
您需要登录后才可以回帖 登录 | 立即注册

本版积分规则

封号公示|手机版|Archiver|有问题发邮件到admin#(换成@)hd1tj.org|微博|免责申明|HD一条街

GMT+8, 2018-10-22 19:43

快速回复 返回顶部 返回列表