开启辅助访问 切换到窄版

HD一条街论坛

 找回密码
 立即注册
查看: 87|回复: 8

[欧美] 纪录片:飞行时代/生于飞机时代[记录美国隐形战机的历史和战绩]Living.in.the.Age.of.Airplanes.2015.DOCU.720p.WEB-DL.DD5.1.H264-FGT 1.46G

[复制链接]
发表于 2016-10-30 19:23:42 | 显示全部楼层 |阅读模式
本帖最后由 让心灵去旅行 于 2016-10-31 00:38 编辑 ; P2 X+ ?; `+ d2 P2 r0 [

9 p, s2 c3 P% W$ t p2239056125.jpg
% a2 c* H4 |0 J0 h
7 {' J* X; _, a" p. ?+ B! z2 X% L# D# \
! C2 }# g5 d7 ]  l! d◎译  名 飞行时代/生于飞机时代
! B" B3 d* W  K, t3 h( `/ m: v& t6 c◎片  名 Living in the Age of Airplanes- W  S2 }# Z! A# ~  k
◎年  代 2015
5 @5 `8 S* U1 c- L, O◎国  家 美国: r) Q9 \/ X; G5 K# o; C
◎类  别 纪录片
- i  H( h/ B5 z* p+ ~- h◎语  言 英语' F( L, b) F: C7 ]6 y
◎字  幕   英文
7 {5 D( T" V$ w  Z& b◎整  理   HD一条街 www.hd1tj.org! _! m+ I- {! p7 P9 o: ^
◎上映日期 2015-04-10( I& i5 s, f& H8 z; X; k
◎IMDb评分  8.1/10 from 136 users
9 t) `0 B. E" r9 ~◎IMDb链接  http://www.imdb.com/title/tt3915966/3 c6 E% [4 k2 R8 G. g
◎豆瓣评分 8.4/10 from 15 users! N0 {# Y* U) _" G" k& z( D
◎豆瓣链接 https://movie.douban.com/subject/26101635/: h' ]: w! o5 p5 h" s
◎片  长 47分钟
8 u* E: B2 v9 e% S7 `5 Y1 t0 F' ?. W2 r; c◎导  演 Brian J. Terwilliger6 |( n) O7 I) B# Q* S% l
2 J' W# U5 |- e; S+ a7 c% d& e
◎简  介$ }2 k6 a5 o3 d; O, U* V, z
1 A7 _/ R3 X2 P( k1 Z
  影片记录美国隐形战机的历史,战绩。隐形战斗机是通过机身涂上一层高效吸收电波的物质,造成雷达无法追踪的效果,而还有一种要比涂上一层高效吸收电波的物质还要好的隐形办法,等离子(还在研制),但是只靠涂吸收电波的物质也是达不到很好的效果的,还要在飞机的气动布局上做修改,要使飞机的平面反射面积尽量的小,同时还要对发动机的红外辐射做简化处理,隐形飞机要从很多方面下手才能达到隐形的效果。
  1. Video
    3 v% S* Z+ y" c7 c+ L
  2. ID                                       : 10 c1 N3 c3 e. ?  ?) [% {& ]$ F
  3. Format                                   : AVC
    6 g3 ]  T8 Y" ]7 |. B' y; y7 `
  4. Format/Info                              : Advanced Video Codec# X1 n$ l* B0 [2 p
  5. Format profile                           : [email protected]
    " V3 i- J/ c9 P" h3 N; x8 C
  6. Format settings, CABAC                   : No
    - n1 a9 g3 z7 C' t( g
  7. Format settings, ReFrames                : 2 frames5 }0 T! V/ d( _0 G
  8. Codec ID                                 : V_MPEG4/ISO/AVC, v( R& f4 `2 _2 L5 p- H: @/ J
  9. Duration                                 : 47mn 27s0 I. A( l! {2 t8 T5 v1 I. N9 f
  10. Bit rate                                 : 3 953 Kbps
    * J- j" w' A0 N+ g' f  Z5 D
  11. Width                                    : 1 280 pixels
    1 V( A  T6 [, B1 v
  12. Height                                   : 720 pixels
    0 W+ y% y! y( s* J/ A
  13. Display aspect ratio                     : 16:9, L, b; N3 R& k7 s# l
  14. Frame rate mode                          : Constant
    - Q6 U6 A1 X: P. u2 b
  15. Frame rate                               : 23.976 fps
    ( d1 i/ U) h$ D  H1 S' y# A3 ^" R+ I
  16. Color space                              : YUV* P) J- ?& O( c
  17. Chroma subsampling                       : 4:2:0. V) @' l, s; A
  18. Bit depth                                : 8 bits4 x) Z1 N4 D# v( N8 c* I  \
  19. Scan type                                : Progressive+ a6 G5 E( C6 j/ {2 t
  20. Bits/(Pixel*Frame)                       : 0.1791 `. e" k5 N& Y9 U6 u
  21. Stream size                              : 1.31 GiB (89%)
    6 ~; C( d( I* G  Q1 @! e. g
  22. Title                                    : Living.in.the.Age.of.Airplanes.2015.DOCU.720p.WEB-DL.DD5.1.H264-FGT
    1 W* p  Y# I+ k: b( D; c
  23. Language                                 : English
    * F( c4 Q# ], @0 M; t: ]$ s: l
  24. Default                                  : Yes2 f9 ]/ }: J7 f
  25. Forced                                   : No# d3 H6 G: U/ V0 f8 F
  26. Color range                              : Limited$ g9 @  g5 m' J
  27. Color primaries                          : BT.709
    ! U( ^! C+ o; L6 r$ ^! \2 q& _! p+ i
  28. Transfer characteristics                 : BT.709
    . \" x; Q- j8 O; `% C( g0 h5 n
  29. Matrix coefficients                      : BT.709
    3 U6 ^2 i- f8 e+ L" Q: N! D, Z8 Y3 v

  30. ( d2 u- J+ |, u8 l/ M* ]
  31. Audio  j: ?( M2 a  a% A
  32. ID                                       : 27 B' R: H- j: g7 i
  33. Format                                   : AC-3, S( o  j( E+ q7 ^& h
  34. Format/Info                              : Audio Coding 3
    3 Y6 w  T3 l% w5 e$ x8 N" `1 x
  35. Mode extension                           : CM (complete main)$ S3 b5 W1 V$ E; W# I
  36. Format settings, Endianness              : Big7 Y; ?: U2 [' f% l- u; [" C
  37. Codec ID                                 : A_AC34 w: M: U3 _$ H* c) E: ?0 X
  38. Duration                                 : 47mn 27s
    . Z  k+ j; R+ D) F
  39. Bit rate mode                            : Constant
    , S5 u  z( J* v# V2 H. |
  40. Bit rate                                 : 384 Kbps
    1 f1 t% P2 W( n
  41. Channel(s)                               : 6 channels* D: M# F, |- R4 y
  42. Channel positions                        : Front: L C R, Side: L R, LFE9 x5 S; |1 s" Z$ ]3 h% t
  43. Sampling rate                            : 48.0 KHz% q8 D, v7 S" p) f; f( v
  44. Frame rate                               : 31.250 fps (1536 spf)$ {# i# r7 D+ u/ k: y( h2 ?3 ?& l' [
  45. Compression mode                         : Lossy
    4 F, Y4 @! J6 N( V4 n$ ^6 K; a
  46. Stream size                              : 130 MiB (9%)
    $ S# Q6 g. Y8 J% X0 q5 [6 T' D
  47. Title                                    : Living.in.the.Age.of.Airplanes.2015.DOCU.720p.WEB-DL.DD5.1.H264-FGT
    - i) b0 @7 r- [9 m- F. H  M
  48. Language                                 : English
    7 S9 t  ^9 Q, x! K. a) c7 D
  49. Default                                  : Yes
    & \8 A1 P4 p& r5 J% M3 ^
  50. Forced                                   : No+ P3 G& i3 B, T0 m: ]9 U  @

  51. 7 U! U+ ^1 ?: x8 C- {& n! T
  52. Text# L% G8 k2 ^# m- A8 [- C# b1 U2 Q
  53. ID                                       : 39 a# ~/ F7 z/ k
  54. Format                                   : UTF-8* ~1 ^% |& X1 {4 e/ \
  55. Codec ID                                 : S_TEXT/UTF80 r. p2 D% l0 ?0 J4 F- U
  56. Codec ID/Info                            : UTF-8 Plain Text
    + @1 [) r  x0 e9 i8 N9 Q
  57. Language                                 : English* t) q# h, q( B! R4 y9 u# D
  58. Default                                  : Yes
    . S1 _- {. S" T* z- E
  59. Forced                                   : No
复制代码

. a% a+ s" _0 Y+ G, [2 h; M! F9 ]3 h, X
' z+ B/ ^. Y, v+ [

# }9 Q1 Q% M7 P) [) q- c" _  B% K7 H' A

# m# Q/ k/ n0 ^1 W* ~, F) u
! u' v' y4 n9 M8 X! l! x+ h0 C3 o3 {" v1 w5 v. E& K: i
游客,如果您要查看本帖隐藏内容请回复  捐助论坛可免回复查看隐藏内容详情请点击
HD一条街,身边的一条街。
发表于 2016-10-30 20:18:32 | 显示全部楼层
美國在隱形戰機的研發上一直領先其它國家,感謝分享~~
HD一条街,身边的一条街。
发表于 2016-10-30 21:03:55 | 显示全部楼层
谢谢楼主分享
HD一条街,身边的一条街。
发表于 2016-10-30 21:06:54 | 显示全部楼层
请问楼主,隐藏部分只有图片没有链接,是我浏览器的问题吗?
HD一条街,身边的一条街。
发表于 2016-10-31 00:10:08 | 显示全部楼层
看看usa鬼技术?
HD一条街,身边的一条街。
 楼主| 发表于 2016-10-31 00:38:54 | 显示全部楼层
jerryyang 发表于 2016-10-30 21:06
* Z4 [( g* N# Q0 Y% i请问楼主,隐藏部分只有图片没有链接,是我浏览器的问题吗?
/ X% s5 Y: a# ~0 E# {; E; Z
已更新链接
HD一条街,身边的一条街。
发表于 2016-10-31 07:25:59 | 显示全部楼层
thanks for share
HD一条街,身边的一条街。
发表于 2016-10-31 10:34:27 | 显示全部楼层
谢谢资源分享
HD一条街,身边的一条街。
发表于 2016-11-19 20:52:34 | 显示全部楼层
谢谢分享好的记录片
HD一条街,身边的一条街。
您需要登录后才可以回帖 登录 | 立即注册

本版积分规则

手机版|小黑屋|有问题发邮件到admin#(换成@)hd1tj.org|微博|免责申明|HD一条街

GMT+8, 2016-12-10 07:08

Powered by Discuz! X3.1

© 2001-2013 Comsenz Inc.

快速回复 返回顶部 返回列表