开启辅助访问 切换到窄版

HD一条街论坛

 找回密码
 立即注册
查看: 137|回复: 8

[欧美] 纪录片:飞行时代/生于飞机时代[记录美国隐形战机的历史和战绩]Living.in.the.Age.of.Airplanes.2015.DOCU.720p.WEB-DL.DD5.1.H264-FGT 1.46G

[复制链接]
发表于 2016-10-30 19:23:42 | 显示全部楼层 |阅读模式
本帖最后由 让心灵去旅行 于 2016-10-31 00:38 编辑
3 D$ E; p( b- E  J! X
, K& L" M& g, f$ t9 n4 y# a p2239056125.jpg
/ t# J& h5 p( n4 v' n2 t5 p4 A/ c$ E& t2 G* v) J8 R

6 _! W; m) k! o0 H4 B' L9 S! E◎译  名 飞行时代/生于飞机时代7 ~0 t' o( {$ m1 h
◎片  名 Living in the Age of Airplanes
7 y1 ^* z  E* u7 W◎年  代 2015( `. u" |$ B9 y5 f# k# ]
◎国  家 美国
0 Q$ G! V* ?- n◎类  别 纪录片/ z; T  K' X# s
◎语  言 英语4 M3 I/ m4 S* Y& N. m, W9 \; c
◎字  幕   英文/ b8 l6 \# S. l4 |- _- V: L7 N
◎整  理   HD一条街 www.hd1tj.org& b* N; e% m5 ~7 _
◎上映日期 2015-04-10
! g6 i; c! y. q! B◎IMDb评分  8.1/10 from 136 users
9 S$ w. {! h" f5 O◎IMDb链接  http://www.imdb.com/title/tt3915966/4 o! [2 M8 g$ v0 ^1 V5 C. \9 w
◎豆瓣评分 8.4/10 from 15 users5 ~* B$ ^* `7 H- N+ X& S
◎豆瓣链接 https://movie.douban.com/subject/26101635/
3 y& }: _4 `4 w% J+ B3 P8 @* `◎片  长 47分钟( F, d6 y0 r& s& P
◎导  演 Brian J. Terwilliger4 F: \7 R' m8 v7 S$ b, ?- v3 [

/ W' f7 s. K6 g$ C) B$ E4 J' Z' A; ]◎简  介0 i0 M! ^* q3 T% }" B

- r! n  k0 a6 L% b  @  影片记录美国隐形战机的历史,战绩。隐形战斗机是通过机身涂上一层高效吸收电波的物质,造成雷达无法追踪的效果,而还有一种要比涂上一层高效吸收电波的物质还要好的隐形办法,等离子(还在研制),但是只靠涂吸收电波的物质也是达不到很好的效果的,还要在飞机的气动布局上做修改,要使飞机的平面反射面积尽量的小,同时还要对发动机的红外辐射做简化处理,隐形飞机要从很多方面下手才能达到隐形的效果。
  1. Video+ S7 `) L3 j$ `
  2. ID                                       : 1
    ) L) E6 O6 ?1 S) K" g/ G' J
  3. Format                                   : AVC4 \# a& m' g& Z( o) ^
  4. Format/Info                              : Advanced Video Codec; x) M: O; K( R9 T' R
  5. Format profile                           : [email protected]
    0 L, R5 _  C; j0 p+ U/ I+ B
  6. Format settings, CABAC                   : No
    4 k5 ^4 _: a8 @; [
  7. Format settings, ReFrames                : 2 frames
    - q; p( w2 e: N4 L! }& h
  8. Codec ID                                 : V_MPEG4/ISO/AVC
    . P2 l* N0 G8 L: z0 ?8 _
  9. Duration                                 : 47mn 27s
    , H$ Y$ `  k; ~3 l5 ^7 D, I  u% y' g
  10. Bit rate                                 : 3 953 Kbps4 N) k/ v' H' v: M6 g% F% Z) O' ?
  11. Width                                    : 1 280 pixels
    , p4 C, x+ ]0 y" X4 P# y. {- g
  12. Height                                   : 720 pixels5 e  r8 d' y* Z4 r) B5 {
  13. Display aspect ratio                     : 16:9/ c) K+ X6 D+ e9 U
  14. Frame rate mode                          : Constant; l$ j+ N+ A% r- T6 v' A# v
  15. Frame rate                               : 23.976 fps
    3 @- e; e3 t" R
  16. Color space                              : YUV
    % d0 s% R; Y  y3 E, S
  17. Chroma subsampling                       : 4:2:0
    + ]& ?& W8 s$ V/ d% F% ?' B
  18. Bit depth                                : 8 bits  ^) k+ ~* e) @3 ]
  19. Scan type                                : Progressive
    + v# f- C; P  ^+ g1 Z7 G3 u$ o
  20. Bits/(Pixel*Frame)                       : 0.179
    $ e8 p% ~0 M6 e3 h
  21. Stream size                              : 1.31 GiB (89%)
    ) L  [; S3 f  W8 M! \" T$ \
  22. Title                                    : Living.in.the.Age.of.Airplanes.2015.DOCU.720p.WEB-DL.DD5.1.H264-FGT- t2 U5 d; i% c9 g
  23. Language                                 : English8 M$ B$ Q( Z0 n2 f3 {" c1 U
  24. Default                                  : Yes5 Y; J$ u/ }& S8 C1 q9 w, k6 ^) `
  25. Forced                                   : No4 A) p5 i6 @0 I0 Z
  26. Color range                              : Limited1 d$ b. u3 M! B5 [$ ~' V& C7 W
  27. Color primaries                          : BT.709
    1 u& @4 Y/ N: e' d# E) `' r6 C
  28. Transfer characteristics                 : BT.709
    0 f2 Y$ f- G3 t2 Z( \
  29. Matrix coefficients                      : BT.7093 O+ B3 U7 }& X5 K/ h0 s! K+ z

  30. # L# {0 S4 ?! ?' X6 ]  V
  31. Audio% u1 h( B0 ?2 z5 b' p
  32. ID                                       : 2
    " u8 V; {& E+ E
  33. Format                                   : AC-3
      a. c6 g- T# R: E2 k
  34. Format/Info                              : Audio Coding 3
    . ]& n' F3 `! {2 }$ Y
  35. Mode extension                           : CM (complete main)
    3 n! D3 M8 q/ g  d7 g" k
  36. Format settings, Endianness              : Big
    1 d# w7 [8 \# O% @$ u- ~
  37. Codec ID                                 : A_AC3
    ( a& u: q1 x' R% L
  38. Duration                                 : 47mn 27s
    . }) C7 ~0 I. g/ c" r( U4 j
  39. Bit rate mode                            : Constant+ d, U- S$ j. d1 q5 A  }* ~- p+ O
  40. Bit rate                                 : 384 Kbps
    % C3 U: {8 w- ~- z) \0 C
  41. Channel(s)                               : 6 channels
    " w% i+ p: ^. M: j8 ]
  42. Channel positions                        : Front: L C R, Side: L R, LFE
    ! h* x1 {! p2 F% V4 R$ l$ z
  43. Sampling rate                            : 48.0 KHz4 e4 B" \: W- U2 O
  44. Frame rate                               : 31.250 fps (1536 spf)5 ~' F9 z# {9 I% C
  45. Compression mode                         : Lossy
    - z( a0 B" T" k+ s3 u
  46. Stream size                              : 130 MiB (9%)
    " A' t3 L9 ?/ `6 {% W4 ?4 U
  47. Title                                    : Living.in.the.Age.of.Airplanes.2015.DOCU.720p.WEB-DL.DD5.1.H264-FGT) z4 j2 b6 ^6 I3 y& K7 @3 j; Y
  48. Language                                 : English
    2 l4 w4 }- F3 y6 Y' ^, t, R- k" M& [
  49. Default                                  : Yes
    9 W4 P! Z2 ?  Q3 `# j5 [
  50. Forced                                   : No9 {/ }- }2 i0 X, Y
  51. - k  m! T- l7 Y/ S$ G" D) W! M0 Z
  52. Text. v) j$ ~* F% P5 p. I6 ?
  53. ID                                       : 39 E4 \* G6 Y' ]* \* E1 L$ O1 r- o
  54. Format                                   : UTF-85 t5 j! q3 @4 [3 K" _1 T4 M' z5 V
  55. Codec ID                                 : S_TEXT/UTF8) x. f$ X! p8 B+ ]* Y! E7 @/ i
  56. Codec ID/Info                            : UTF-8 Plain Text
    / o/ W/ t" p; k  m
  57. Language                                 : English
    $ v. ~/ q! @7 W0 i1 G+ c5 z
  58. Default                                  : Yes8 u9 T* A0 W; s0 H4 }% h, q! s
  59. Forced                                   : No
复制代码

; L, A5 N  F) U* E+ L* e% ~1 R" R0 a2 A' z  g, C
; R7 |) J2 r: g; }
+ B/ }4 ^2 ^1 [/ ^9 L4 r
2 W: Z( B! }% l6 A5 O% K5 @
; E) v9 M" s: N! I/ u
8 b  P. X) Q! P

% a# B6 i8 {9 z3 }: m4 p
游客,如果您要查看本帖隐藏内容请回复  捐助论坛可免回复查看隐藏内容 详情请点击
最近访问 头像模式 列表模式
HD一条街,身边的一条街。
发表于 2016-10-30 20:18:32 | 显示全部楼层
美國在隱形戰機的研發上一直領先其它國家,感謝分享~~
HD一条街,身边的一条街。
发表于 2016-10-30 21:03:55 | 显示全部楼层
谢谢楼主分享
HD一条街,身边的一条街。
发表于 2016-10-30 21:06:54 | 显示全部楼层
请问楼主,隐藏部分只有图片没有链接,是我浏览器的问题吗?
HD一条街,身边的一条街。
发表于 2016-10-31 00:10:08 | 显示全部楼层
看看usa鬼技术?
HD一条街,身边的一条街。
 楼主| 发表于 2016-10-31 00:38:54 | 显示全部楼层
jerryyang 发表于 2016-10-30 21:06
; w5 Y( [- _, u) U请问楼主,隐藏部分只有图片没有链接,是我浏览器的问题吗?

' l' R+ {, M8 ]7 n" y已更新链接
HD一条街,身边的一条街。
头像被屏蔽
发表于 2016-10-31 07:25:59 | 显示全部楼层
提示: 作者被禁止或删除 内容自动屏蔽
HD一条街,身边的一条街。
发表于 2016-10-31 10:34:27 | 显示全部楼层
谢谢资源分享
HD一条街,身边的一条街。
发表于 2016-11-19 20:52:34 | 显示全部楼层
谢谢分享好的记录片
HD一条街,身边的一条街。

手机版|小黑屋|有问题发邮件到admin#(换成@)hd1tj.org|微博|免责申明|HD一条街

GMT+8, 2017-3-31 00:38

Powered by Discuz! X3.1

© 2001-2013 Comsenz Inc.

快速回复 返回顶部 返回列表