开启辅助访问 切换到窄版

HD一条街论坛

 找回密码
 加入我们
查看: 451|回复: 18

[1080p] 群龙戏凤[国粤]1989 1080i BluRay REMUX AVC DD2 0-VEDIGO 22G

[复制链接]
发表于 2016-1-4 21:15:56 | 显示全部楼层 |阅读模式
201601021322083b4c05e783a6b43094ed9e60b28db2d4.jpg * Z7 q0 E7 |  S5 V& Q: g* d* m
◎译   名:Pedicab Driver
, s, b. E9 d- @  F9 Q, T& F, O ◎片  名:群龙戏凤 7 i2 n. H) O& P* ^9 Z! X% q+ M7 \
◎年  代:1989
( Y7 D5 l8 M+ C. y% u. I ◎国  家:中国香港
  m0 K5 o5 d0 I8 e7 C ◎类  别:动作 0 o1 a- _1 j) `) C0 b9 q6 C4 Z, J! G; Y: ^
◎语  言:粤语/国语
8 J6 N0 Y) k% m" C, r ◎IMDB评分:7.1/10 from 434 users 3 G' g, y) o4 B2 S: X5 v: Y) P
◎IMDB链接:http://www.imdb.com/title/tt0098155/ : H5 h) `; x) s: O0 B
◎制作公司:宝祥影业有限公司 [中国香港]
1 F/ A& N  C' Y" R. O& d6 h ◎导  演:洪金宝 Sammo Hung
2 ^, `3 e( k3 I! ?  K ◎编  剧:黄炳耀 Barry Wong  阮继志 Kai-Chi Yun
8 a& f% u' z& z7 K1 y; @ ◎主  演:洪金宝 Sammo Hung ....Lo Tung 6 H7 p8 u! w9 c  M
                    Lowell Lo卢冠廷 Lowell Lo ....Shan Cha Cake
& `/ t5 Z3 A, f- W8 g                    Yuen Biao元彪 Yuen Biao . V" Y1 ?9 I7 m) V& o, A$ z3 q1 o
                    Lung Chan陈龙 Lung Chan ....Coolie 6 Z# y5 j( ~' j/ ^
                    Alfred Cheung张坚庭 Alfred Cheung ....Jewelry Store Owner
% N' ~  a. |: {                    Billy Chow周比利 Billy Chow ....Master 5's Man & e' Y* C9 `: O' t
                    Fat Chung钟发 Fat Chung ....Thug
/ U2 Q, P5 `; `) a& M3 ]* g                    Maria Cordero玛利亚 Maria Cordero ....Auntie 4 a; y2 b% {" P$ u2 T5 W" s
                    Ching-Ying Lam林正英 Ching-Ying Lam ....Sheng
- {  u- v  C5 C1 x# Z2 x. m                    Billy Lau楼南光 Billy Lau ....Tan
+ o% C* q1 r' C1 [1 k* ~4 u                    Nina Li利智 Nina Li ....Ping
. o5 f8 j3 Y  W1 ~/ w6 C; ?3 E                    Chia-Liang Liu刘家良 Chia-Liang Liu ....Boss of Gambling House (as Kar-Leung Lau)
6 e0 H, a: ?6 Z                    Hoi Mang孟海 Hoi Mang ....Rice Pudding 0 o3 q; y( ^5 C4 X, \0 X; e
                    Siu Chung Mok莫少聪 Siu Chung Mok ....Mai Chien-Tang/Malted Candy
3 S  g$ @; H: q4 N" \( \- P, [                    John Sham岑建勋 John Sham ....Master 5
% T0 @4 B) Y1 S: S                    Eric Tsang曾志伟 Eric Tsang ....Man with Cleaver
, E. @4 _9 _4 P, s9 m* H                    Dick Wei狄威 Dick Wei ....Wei 2 c" ^. y% _. J; R' P2 ^
                    Manfred Wong文隽 Manfred Wong ....Pork Bun Seller ( p- c# C( R2 g* H4 s! W5 D
                    Corey Yuen元奎 Corey Yuen ....Coolie (as Kwai Yuen) : ~# g0 ?" L+ J) p# G+ _0 R1 t

; A2 v" L% d, b$ J' T  ◎简  介 , f( h  E8 Y8 P
  
& ]; }2 e$ X3 s. ], X; ]$ G  
" W7 {7 ~. w7 ^  " B3 M. n, `. Z+ i
  罗通是澳门三轮车工人的头目之一。他和制饼女工阿冰相爱。制饼方师傅亦深爱阿冰,最后方知道阿冰和罗通真心相爱,他无奈地放弃了对阿冰的追求。 ( s0 O3 f. c' @' g5 n
罗通的三个死党是麦牙糖、山楂饼和砵仔糕。麦牙糖爱上了妓女小翠。他以为她是小家碧玉。从山楂饼处得知,小翠是一个妓女,他非常悲愤,小翠亦极之伤心。在
$ U2 K6 a' ]. k( K2 E% B& N阿冰等的指责、开解,和罗通等死党的帮助下,他和小翠成了亲,不幸在洞房当晚,恶霸尤五无理地把他俩杀死。
/ m1 Q# B. \6 z; r& O8 L罗通和砵仔糕愤怒地去找尤五报仇,一番剧斗,尤五的抓牙被罗通等打得非死即伤,尤五则被一向受他凌辱的父亲推下楼杀死。
. h2 R. T$ J4 E6 ^: F4 Y7 M 引用
4 q3 v* q: p9 L1 O General % Z! p8 `" b7 p
Unique ID                                : 185226678544899291388060071901248818496 (0x8B595C54ED9C8B70B5FB6EFC155B0D40)
8 _" W% I" Z4 V- z Complete name                            : E:\Pedicab.Driver.1989.1080i.BluRay.REMUX.AVC.DD2.0-VEDIGO.mkv
2 K3 D. O% k2 x Format                                   : Matroska 6 }& A6 y8 W9 ^/ n
Format version                           : Version 4 / Version 2 7 [1 t& o0 z% L% {7 ~4 W$ c  K
File size                                : 22.4 GiB
" ~$ g" x! C6 s, ^# U' R6 e/ r Duration                                 : 1h 35mn " O. X$ V$ i% ]
Overall bit rate                         : 33.6 Mbps
: Q# W! \! d* l) k# J Movie name                               : Pedicab.Driver.1989.BDRemux.1080i_by_vedigo 6 ]) V8 A" Q8 w4 [
Encoded date                             : UTC 2015-12-28 08:48:10 4 {6 e: F9 e8 N% ^, n' Z
Writing application                      : mkvmerge v7.6.0 ('Garden of Dreams') 32bit built on Feb  8 2015 12:51:39 0 |1 {9 o/ K+ f6 V2 K( i. c
Writing library                          : libebml v1.3.1 + libmatroska v1.4.2 0 }3 Z" |# R4 o% v& a# _/ [( W2 {
DURATION                                 : 01:35:10.208000000
5 g1 z' f9 w. c# Y* O+ C NUMBER_OF_FRAMES                         : 178444
7 s6 X) ~* u% W  M& l NUMBER_OF_BYTES                          : 228408320
' l5 w2 T+ M2 D, M. _, A _STATISTICS_WRITING_APP                  : mkvmerge v7.6.0 ('Garden of Dreams') 32bit built on Feb  8 2015 12:51:39
0 h/ \4 b, P5 `  q9 A* t _STATISTICS_WRITING_DATE_UTC             : 2015-12-28 08:48:10 : a5 h" l2 W. D
_STATISTICS_TAGS                         : BPS DURATION NUMBER_OF_FRAMES NUMBER_OF_BYTES
# t9 D8 Q% j" Y  / Y. ~- O) Z( k, @' `
Video 5 j1 J. u; F4 o$ q
ID                                       : 1 ) W: j2 i! J8 g" `( C: F7 A$ ^. i
Format                                   : AVC
4 {# e( y6 o8 {. I7 i* p Format/Info                              : Advanced Video Codec
/ S3 w4 v) z2 d7 h Format profile                           : [email protected]
6 G: U3 P9 r% s( r Format settings, CABAC                   : Yes 9 {$ `+ r1 T/ L; E- ^
Format settings, ReFrames                : 4 frames
2 q6 O% ]( }* |9 c$ j) h. t! O Codec ID                                 : V_MPEG4/ISO/AVC
, f. C: e) J3 s2 g! Y/ A; L. i Duration                                 : 1h 35mn " z3 _- e' g9 O) m0 \: e, y, ?
Bit rate                                 : 32.3 Mbps
; R+ Y* O! D4 Q Width                                    : 1 920 pixels - N+ y9 C& \" K. H% \/ r
Height                                   : 1 080 pixels 0 i$ n  d5 o+ f$ g; v( l
Display aspect ratio                     : 16:9 & X8 _' e; \9 [4 `
Frame rate mode                          : Constant
- {3 h9 h  N* A* g  e7 _ Frame rate                               : 29.940 fps ; L  h6 x" L' a9 R6 L1 Q+ k
Original frame rate                      : 29.970 fps
& D- g4 L: _# V6 R, ] Standard                                 : NTSC 4 B0 j) i3 H" k8 W: j/ U: O7 K' N) e
Color space                              : YUV 1 d( Z$ k/ p2 |7 o% T, q0 [" w
Chroma subsampling                       : 4:2:0 , o2 l% Y/ a" i2 m2 A
Bit depth                                : 8 bits ' c3 G  s/ U* z9 K( L
Scan type                                : Interlaced
* }3 F$ |; H4 Q- ^. F Scan order                               : Top Field First
( X: H# q" b3 v* y$ I Bits/(Pixel*Frame)                       : 0.521
8 `+ H& @( @2 l Stream size                              : 21.5 GiB (96%) 9 `1 L' i, f1 A  o  s9 z& U0 K
Title                                    : Pedicab.Driver.1989.BDRemux.1080i_by_vedigo ) c5 D8 T( w4 R- y8 P6 R9 w' E  J
Default                                  : Yes
- F: q* P5 D8 \- {  n- g Forced                                   : No
* L0 w5 u# Z3 j1 Z% J Color range                              : Limited
/ ~' g3 \3 \, }7 s) r% D! ^ Color primaries                          : BT.709
& D" g) R1 p' g: R- Z Transfer characteristics                 : BT.709
5 z2 v* o5 S8 w Matrix coefficients                      : BT.709 5 q$ ]1 o& h5 D$ ?0 `4 l
DURATION                                 : 01:35:10.255000000 6 B/ e3 B  ?- G# s$ w4 B5 v
NUMBER_OF_FRAMES                         : 342272 ' {- s& G8 u: i5 M
NUMBER_OF_BYTES                          : 23551955259 / ?/ y# o9 ]9 e' ~5 v9 w6 _! c7 }
_STATISTICS_WRITING_APP                  : mkvmerge v7.6.0 ('Garden of Dreams') 32bit built on Feb  8 2015 12:51:39
+ h9 x0 L$ A6 {/ |$ N _STATISTICS_WRITING_DATE_UTC             : 2015-12-28 08:48:10 / l2 r! G1 L* x, V, l8 B% E
_STATISTICS_TAGS                         : BPS DURATION NUMBER_OF_FRAMES NUMBER_OF_BYTES
6 e) b& s4 E/ Y6 P6 C' @  
- H) z8 d$ v4 j! w6 z1 O Audio #1 2 V+ K- g7 V, |9 i0 j# b  Q; o9 y' e
ID                                       : 2
6 x, `7 }2 a* C Format                                   : AC-3 5 L8 A( C. a6 t& U- A! [, G
Format/Info                              : Audio Coding 3 ' @$ s* T8 x7 H# b: C7 @
Mode extension                           : CM (complete main)
$ d' i6 G7 v: @% K Format settings, Endianness              : Big
& S1 }: {/ N* i2 Q9 c5 {; } Codec ID                                 : A_AC3
, k9 M  B# Y2 G# d" f Duration                                 : 1h 35mn
; G' w- @3 q/ L- T$ T$ W; h# E Bit rate mode                            : Constant
$ V% C: R$ ]+ l8 F1 Z Bit rate                                 : 320 Kbps " O  d" q2 |0 a1 i9 j! @6 H/ {
Channel(s)                               : 2 channels 7 Y/ w! |+ A& l. o' [9 b6 h5 n
Channel positions                        : Front: L R
- Z6 o* K! u* N% ~ Sampling rate                            : 48.0 KHz
+ o/ O" K% e8 R- e Compression mode                         : Lossy + \  P; w; y5 ]7 L
Stream size                              : 218 MiB (1%)
# u- t. h& j- ^4 |) R' q Title                                    : Cantonese 7 q0 B1 t5 o- Z5 j4 B; q& ?6 r7 z
Language                                 : Chinese
1 k0 j) s  {7 A Default                                  : No 7 W! N9 S- y8 `8 t: i- l
Forced                                   : No
3 Y" Q1 ]9 J4 ^5 [- V: C  J3 q  
9 C" m: l4 v( N2 n1 r/ l. ~ Audio #2
$ T9 i" {/ K6 K. r ID                                       : 3
' V: b( r7 R( c1 B2 w$ [; Y Format                                   : AC-3 9 Q& M0 w7 B" Z- D) k
Format/Info                              : Audio Coding 3
2 M, t3 K, m; M" u. E; ^! [2 \ Mode extension                           : CM (complete main) 6 F9 L2 @6 f" _% v
Format settings, Endianness              : Big " o) i" n* Y# X  n# x
Codec ID                                 : A_AC3 # u# k6 Q# t1 t7 _7 V
Duration                                 : 1h 35mn 9 v& p& G: s  f( w  F1 i
Bit rate mode                            : Constant 0 }) L5 c" W' |
Bit rate                                 : 320 Kbps ) i$ @3 K) \8 Z5 Q) }, e+ q# H
Channel(s)                               : 2 channels - O* D; Z4 G/ E. V) }- t( C# y5 e
Channel positions                        : Front: L R
6 I% N: {. D( K! d9 | Sampling rate                            : 48.0 KHz
0 M0 |* \5 G/ o$ x7 |3 _/ ~ Compression mode                         : Lossy 8 k+ I. b# L0 ]& f0 y% J1 ^4 N
Stream size                              : 218 MiB (1%)
* u- T: w1 R, b: I( U8 B6 f: ^ Default                                  : Yes
2 v( j- R% y/ S Forced                                   : No
! `! S+ y2 p1 Q) t8 o4 D1 r4 M
游客,如果您要查看本帖隐藏内容请回复  捐助论坛可免回复查看隐藏内容 详情请点击
最近访问 头像模式 列表模式
HD一条街,身边的一条街。
发表于 2016-1-4 22:16:12 | 显示全部楼层
谢谢楼主分享的高清电影。
HD一条街,身边的一条街。
发表于 2016-1-4 23:17:21 | 显示全部楼层
经典港片,感谢楼主分享
HD一条街,身边的一条街。
发表于 2016-1-5 00:43:06 | 显示全部楼层
不错的资源 收下了
HD一条街,身边的一条街。
发表于 2016-1-5 05:34:34 | 显示全部楼层
经典,收藏了,谢谢
HD一条街,身边的一条街。
发表于 2016-1-5 10:23:32 来自手机 | 显示全部楼层
楼主你太伟大了,在哪弄的那么高清版本。
HD一条街,身边的一条街。
HuangXiaoxian 该用户已被删除
发表于 2016-1-5 19:11:33 | 显示全部楼层
提示: 作者被禁止或删除 内容自动屏蔽
HD一条街,身边的一条街。
发表于 2016-1-6 20:03:18 | 显示全部楼层
经典中的经典。
HD一条街,身边的一条街。
发表于 2016-1-8 09:30:39 | 显示全部楼层
先收下了,有时间慢慢看
HD一条街,身边的一条街。
您需要登录后才可以回帖 登录 | 加入我们

本版积分规则

手机版|小黑屋|有问题发邮件到admin#(换成@)hd1tj.org|微博|免责申明|HD一条街

GMT+8, 2017-2-25 17:06

Powered by Discuz! X3.1

© 2001-2013 Comsenz Inc.

快速回复 返回顶部 返回列表