开启辅助访问 切换到窄版

HD一条街论坛

 找回密码
 立即注册
搜索
查看: 515|回复: 19

[1080p] 群龙戏凤[国粤]1989 1080i BluRay REMUX AVC DD2 0-VEDIGO 22G

[复制链接]
发表于 2016-1-4 21:15:56 | 显示全部楼层 |阅读模式
201601021322083b4c05e783a6b43094ed9e60b28db2d4.jpg
9 Q- s! Q" w5 R$ K! Y3 W◎译   名:Pedicab Driver
9 t, |& k% K' Z7 | ◎片  名:群龙戏凤 $ M6 \! O/ Y4 Y* k3 ?9 ?
◎年  代:1989
) U& P& G- J4 V! x$ t/ u ◎国  家:中国香港 5 d& N' r( D9 ]* r5 \% h+ q% I
◎类  别:动作 * u2 t* r# ^0 l6 z, l" m
◎语  言:粤语/国语 5 D; C$ b  q5 x8 q( C  Z# J, b2 H  a
◎IMDB评分:7.1/10 from 434 users 9 X0 O1 d: L' j9 g
◎IMDB链接:http://www.imdb.com/title/tt0098155/
6 R& L' f& h7 U4 ~3 H% x ◎制作公司:宝祥影业有限公司 [中国香港]
! n2 x8 a# q: m ◎导  演:洪金宝 Sammo Hung
! s. M% L  T$ [' J: v) C( v# ? ◎编  剧:黄炳耀 Barry Wong  阮继志 Kai-Chi Yun
( L% F) R* f) f' T ◎主  演:洪金宝 Sammo Hung ....Lo Tung
! R5 I6 G7 l" [9 g                    Lowell Lo卢冠廷 Lowell Lo ....Shan Cha Cake + r9 k5 c, D" Q, s( c- D$ [
                    Yuen Biao元彪 Yuen Biao
5 T2 Q3 u& D5 H8 ~2 w                    Lung Chan陈龙 Lung Chan ....Coolie : e+ e; q8 ]" O1 f
                    Alfred Cheung张坚庭 Alfred Cheung ....Jewelry Store Owner 5 {9 U' Y/ T% A" p8 K. B
                    Billy Chow周比利 Billy Chow ....Master 5's Man
$ p  t# \# S8 @! c1 n& [; j1 v                    Fat Chung钟发 Fat Chung ....Thug
3 |8 X+ x: j$ W  a1 D" [" y3 ]                    Maria Cordero玛利亚 Maria Cordero ....Auntie
) }3 X( x7 Z' ?                    Ching-Ying Lam林正英 Ching-Ying Lam ....Sheng
4 C1 l' ]4 B5 c3 z) g                    Billy Lau楼南光 Billy Lau ....Tan
: J# o/ p' h/ y" n4 }                    Nina Li利智 Nina Li ....Ping ( H1 |; T; X0 J
                    Chia-Liang Liu刘家良 Chia-Liang Liu ....Boss of Gambling House (as Kar-Leung Lau) - D& T! [& \) f4 l! |
                    Hoi Mang孟海 Hoi Mang ....Rice Pudding
/ z2 u# T+ v: G/ t4 E                    Siu Chung Mok莫少聪 Siu Chung Mok ....Mai Chien-Tang/Malted Candy & F8 n/ P6 L) E$ C! e5 n- P% |& \
                    John Sham岑建勋 John Sham ....Master 5
# C4 V6 |* O/ O# s. R                    Eric Tsang曾志伟 Eric Tsang ....Man with Cleaver
; v  o6 e$ r! _& v  V3 I* l                    Dick Wei狄威 Dick Wei ....Wei
4 ^. ]: F* k5 Y) A$ b                    Manfred Wong文隽 Manfred Wong ....Pork Bun Seller , G8 z, p$ q7 A  N7 [
                    Corey Yuen元奎 Corey Yuen ....Coolie (as Kwai Yuen)
  D( {) q& F1 e4 @  g2 P: j - A5 y0 X3 Y- P( P! G' Y6 d
  ◎简  介
; T# B4 h( O1 A6 I5 b3 q0 Y  
' Q, [) n+ b9 a; [  
6 u* n0 U# _$ ]( Y$ K  + P& a% j) p1 k- z' M' }
  罗通是澳门三轮车工人的头目之一。他和制饼女工阿冰相爱。制饼方师傅亦深爱阿冰,最后方知道阿冰和罗通真心相爱,他无奈地放弃了对阿冰的追求。 ; \9 _& b/ l( e0 o# d% f. o# g
罗通的三个死党是麦牙糖、山楂饼和砵仔糕。麦牙糖爱上了妓女小翠。他以为她是小家碧玉。从山楂饼处得知,小翠是一个妓女,他非常悲愤,小翠亦极之伤心。在
8 w4 \% Z0 V& F2 z阿冰等的指责、开解,和罗通等死党的帮助下,他和小翠成了亲,不幸在洞房当晚,恶霸尤五无理地把他俩杀死。
9 A9 |) X) ?/ B罗通和砵仔糕愤怒地去找尤五报仇,一番剧斗,尤五的抓牙被罗通等打得非死即伤,尤五则被一向受他凌辱的父亲推下楼杀死。
6 [% d3 M# o5 }* b  M 引用
2 q* h& G, g3 A" H5 M7 X General
0 W% a/ a: z# a& N0 j$ z( M7 { Unique ID                                : 185226678544899291388060071901248818496 (0x8B595C54ED9C8B70B5FB6EFC155B0D40) 8 V% u3 D& m2 D# _& N
Complete name                            : E:\Pedicab.Driver.1989.1080i.BluRay.REMUX.AVC.DD2.0-VEDIGO.mkv - @2 r. }/ e, e8 j# i2 ?
Format                                   : Matroska " X/ w* w" I' q
Format version                           : Version 4 / Version 2
. ]+ o  K9 I8 g$ z' J File size                                : 22.4 GiB
% @4 ~' e( u  M5 w Duration                                 : 1h 35mn
5 w' a7 v2 |8 p3 ?4 ?: i Overall bit rate                         : 33.6 Mbps
% _4 f9 `6 |( o Movie name                               : Pedicab.Driver.1989.BDRemux.1080i_by_vedigo 4 w8 l5 p8 n) u
Encoded date                             : UTC 2015-12-28 08:48:10
+ ~+ Z& I6 ?8 C7 C8 d Writing application                      : mkvmerge v7.6.0 ('Garden of Dreams') 32bit built on Feb  8 2015 12:51:39
  E$ B. Y/ p  R& X. x2 Y Writing library                          : libebml v1.3.1 + libmatroska v1.4.2 3 k2 _; y' y  h8 s5 S  \' G& A
DURATION                                 : 01:35:10.208000000
% X$ u! }: u7 c2 }$ Y2 Y NUMBER_OF_FRAMES                         : 178444
5 z. h  d( C# [% O3 t0 r NUMBER_OF_BYTES                          : 228408320
" B5 m4 R; N. i  @+ g _STATISTICS_WRITING_APP                  : mkvmerge v7.6.0 ('Garden of Dreams') 32bit built on Feb  8 2015 12:51:39
$ C1 d0 {# W# ~( [- E _STATISTICS_WRITING_DATE_UTC             : 2015-12-28 08:48:10
1 _  S# G- o- H" a/ q- k4 ?" ~ _STATISTICS_TAGS                         : BPS DURATION NUMBER_OF_FRAMES NUMBER_OF_BYTES
0 P3 k8 b' p  T1 H) s" G  ; P3 I+ v! c# ?& w" Y
Video
3 g! h+ w& a- X: U3 Y( F ID                                       : 1
: d/ ~3 ^: P, u$ p$ Y; i Format                                   : AVC ( t- w2 }7 O7 B" l3 L! R. F
Format/Info                              : Advanced Video Codec - p/ S, A% ]0 ]/ a
Format profile                           : [email protected]
0 |0 K, {1 {& e: j Format settings, CABAC                   : Yes
7 Y$ l- [& s4 ?% \" m Format settings, ReFrames                : 4 frames
) J9 M: o0 n: O& U% n; S5 S Codec ID                                 : V_MPEG4/ISO/AVC
$ M. k& n% A4 T; j4 A- J! n' F Duration                                 : 1h 35mn
- y6 m4 e+ s, X9 v/ T% _6 k, K Bit rate                                 : 32.3 Mbps ) ^& ]2 r3 c( {% p8 k  x
Width                                    : 1 920 pixels
' z; M: B' T# ~8 T* `* e3 V/ J7 O Height                                   : 1 080 pixels
4 y" h1 S2 f- u! {0 m4 Q" Q( T Display aspect ratio                     : 16:9 ' \7 E. ]- p. U- |$ c: x9 m
Frame rate mode                          : Constant
' R- U% n# U* U( l! {' I Frame rate                               : 29.940 fps 4 r5 E2 V/ v% h2 b
Original frame rate                      : 29.970 fps 6 u% N5 Y7 f. n. }  l
Standard                                 : NTSC
+ M7 m9 l5 y5 W1 S Color space                              : YUV
6 K+ _2 g, W/ J. Y4 C Chroma subsampling                       : 4:2:0
5 D& a, m3 W) ^- L; W! E+ A6 R Bit depth                                : 8 bits
- D3 e6 S4 F, M Scan type                                : Interlaced   M; I' L+ Q2 I; ^* `, L- k
Scan order                               : Top Field First - w7 h. |( b4 E2 r; V' X- {( e9 a3 K+ t
Bits/(Pixel*Frame)                       : 0.521   ]- c! E' @7 p4 R* i
Stream size                              : 21.5 GiB (96%)
& _. v- C0 i7 v1 z% _2 m Title                                    : Pedicab.Driver.1989.BDRemux.1080i_by_vedigo
* k3 S# _: f: J+ F Default                                  : Yes
4 ?8 d9 O2 i0 b8 c0 K6 D0 L( @ Forced                                   : No 4 |. w$ @/ h9 \/ X- C0 V6 f
Color range                              : Limited
. f# |) s! D6 c Color primaries                          : BT.709 ) [. N/ J: I5 R! e" u6 @, K
Transfer characteristics                 : BT.709 6 q* I3 K& u( C" V/ w
Matrix coefficients                      : BT.709 " ~; c2 y0 y( e3 b8 F: x
DURATION                                 : 01:35:10.255000000 ' P9 D# j6 |& a4 V- Z
NUMBER_OF_FRAMES                         : 342272
* {3 \9 x; l( I0 e0 p NUMBER_OF_BYTES                          : 23551955259 . ]8 Z% t' ], c
_STATISTICS_WRITING_APP                  : mkvmerge v7.6.0 ('Garden of Dreams') 32bit built on Feb  8 2015 12:51:39
1 g! O' Y" z. E6 M* M( t- G _STATISTICS_WRITING_DATE_UTC             : 2015-12-28 08:48:10
% Q8 g# \9 E; p/ W4 b _STATISTICS_TAGS                         : BPS DURATION NUMBER_OF_FRAMES NUMBER_OF_BYTES 1 K; d! P2 C7 W' P9 [. ]5 ]
  4 H9 z* {9 s7 y1 S+ z3 V
Audio #1
" N8 S$ C! H1 k ID                                       : 2
7 B/ d6 S4 u( T- a, d Format                                   : AC-3
% A2 n4 P7 g- O Format/Info                              : Audio Coding 3 ! S0 d6 o% _% l/ ~  f2 x
Mode extension                           : CM (complete main) + S: e* {2 J6 m& M- J
Format settings, Endianness              : Big 7 V: ~8 z/ `" J% u( T
Codec ID                                 : A_AC3   q% e% t0 B5 _, t2 q5 \/ f* l" C) L
Duration                                 : 1h 35mn
$ J( o1 B) S4 o Bit rate mode                            : Constant
# n2 `& R8 R/ a" o1 D! T) V! Y' n Bit rate                                 : 320 Kbps 6 _1 a$ }2 d% i0 S- d
Channel(s)                               : 2 channels
7 C6 v/ J+ w! m7 C  K/ g* u Channel positions                        : Front: L R
' d" D3 p. D, g. v2 t Sampling rate                            : 48.0 KHz 4 ^5 d6 y" d' l0 L; W# t+ M: Z/ _
Compression mode                         : Lossy
8 L% V$ G3 `0 P$ I* {( o4 r1 ] Stream size                              : 218 MiB (1%)
/ g. R- a1 n2 n  K$ K9 E9 m Title                                    : Cantonese 3 a5 M  S3 V( D
Language                                 : Chinese 3 N  j4 |7 j! g+ @# }
Default                                  : No 1 y9 L0 P3 j1 y8 Y: i; L
Forced                                   : No
, R/ q, x, g( S5 t% d  
% R; G$ Z" i0 {' f6 s. t' {# @ Audio #2
" n& a: |4 ^( g/ t ID                                       : 3 $ E) o1 K$ H; X0 r
Format                                   : AC-3 ; t! o! y8 L- M3 B! g+ |
Format/Info                              : Audio Coding 3 + O8 G6 Z' g/ k; P6 k+ @
Mode extension                           : CM (complete main)
$ Q2 k: i' ~0 ?1 e6 O! H$ T" T Format settings, Endianness              : Big
. L: B: s: w, j  m: L: \. M Codec ID                                 : A_AC3
* ~4 ]$ O/ o: R* H$ P% ~; a6 ?6 D3 ~ Duration                                 : 1h 35mn ) L, ]) ^: e" [
Bit rate mode                            : Constant 0 C: P' ^1 \5 b! L3 s4 o. N. D
Bit rate                                 : 320 Kbps 7 [1 N* K% ?9 k' N
Channel(s)                               : 2 channels
' A8 ^1 x, Z" ?, x Channel positions                        : Front: L R ) e! m: v8 H- Q% F: M$ j
Sampling rate                            : 48.0 KHz
* ~4 q" p4 _+ D Compression mode                         : Lossy ! X: S) N' j) v
Stream size                              : 218 MiB (1%)
( d  P* S+ P. H  S; b/ s Default                                  : Yes
0 W9 B( R) t; g- P0 J  u Forced                                   : No 9 s; d" l1 o# x$ o
游客,如果您要查看本帖隐藏内容请回复  捐助论坛可免回复查看隐藏内容 详情请点击
最近访问 头像模式 列表模式
HD一条街,身边的一条街。
发表于 2016-1-4 22:16:12 | 显示全部楼层
谢谢楼主分享的高清电影。
HD一条街,身边的一条街。
发表于 2016-1-4 23:17:21 | 显示全部楼层
经典港片,感谢楼主分享
HD一条街,身边的一条街。
发表于 2016-1-5 00:43:06 | 显示全部楼层
不错的资源 收下了
HD一条街,身边的一条街。
发表于 2016-1-5 05:34:34 | 显示全部楼层
经典,收藏了,谢谢
HD一条街,身边的一条街。
发表于 2016-1-5 10:23:32 来自手机 | 显示全部楼层
楼主你太伟大了,在哪弄的那么高清版本。
HD一条街,身边的一条街。
HuangXiaoxian 该用户已被删除
发表于 2016-1-5 19:11:33 | 显示全部楼层
提示: 作者被禁止或删除 内容自动屏蔽
HD一条街,身边的一条街。
发表于 2016-1-6 20:03:18 | 显示全部楼层
经典中的经典。
HD一条街,身边的一条街。
发表于 2016-1-8 09:30:39 | 显示全部楼层
先收下了,有时间慢慢看
HD一条街,身边的一条街。

手机版|小黑屋|有问题发邮件到admin#(换成@)hd1tj.org|微博|免责申明|HD一条街

GMT+8, 2017-4-29 13:29

Powered by Discuz! X3.1

© 2001-2013 Comsenz Inc.

快速回复 返回顶部 返回列表