开启辅助访问 切换到窄版

HD一条街论坛

 找回密码
 立即注册
查看: 395|回复: 18

[1080p] 群龙戏凤[国粤]1989 1080i BluRay REMUX AVC DD2 0-VEDIGO 22G

[复制链接]
发表于 2016-1-4 21:15:56 | 显示全部楼层 |阅读模式
201601021322083b4c05e783a6b43094ed9e60b28db2d4.jpg " r/ a% u( d% L0 R  t8 p' i) v4 E
◎译   名:Pedicab Driver
. \7 `# h5 T3 D% i1 n7 k, g ◎片  名:群龙戏凤 3 m7 D" L& ]& s- t3 |
◎年  代:1989
# I3 M" a" y1 ~. F ◎国  家:中国香港
8 w" k$ Y9 V: W& t1 l" P ◎类  别:动作 2 I6 `- M" L  ~) l8 S
◎语  言:粤语/国语
3 O& Q& A  F! @ ◎IMDB评分:7.1/10 from 434 users
8 N+ l: L3 h. m* B+ `2 V ◎IMDB链接:http://www.imdb.com/title/tt0098155/ & W' Z; A! N! h4 k& g
◎制作公司:宝祥影业有限公司 [中国香港]
2 w" ~* K2 g% R ◎导  演:洪金宝 Sammo Hung
. k4 `8 C, f8 f* H5 H, Y. ?/ y: p" T ◎编  剧:黄炳耀 Barry Wong  阮继志 Kai-Chi Yun 8 U/ ~$ I- `3 w5 b
◎主  演:洪金宝 Sammo Hung ....Lo Tung ! {4 |2 a/ [7 D, E( x4 w- |) g
                    Lowell Lo卢冠廷 Lowell Lo ....Shan Cha Cake * `8 j. a( |5 M6 q' N
                    Yuen Biao元彪 Yuen Biao : h3 k* a3 c7 G" B/ s+ ~- P5 ~! ^
                    Lung Chan陈龙 Lung Chan ....Coolie 6 w' t! s4 @( E2 E, U
                    Alfred Cheung张坚庭 Alfred Cheung ....Jewelry Store Owner 9 x, H4 S' X  x: U, u0 K
                    Billy Chow周比利 Billy Chow ....Master 5's Man
" G; a! y5 r  [. f( U6 w                    Fat Chung钟发 Fat Chung ....Thug
3 n4 d$ g9 j; [/ P0 v                    Maria Cordero玛利亚 Maria Cordero ....Auntie
, D" J. N% T) i, _                    Ching-Ying Lam林正英 Ching-Ying Lam ....Sheng & R& r+ Z5 k) L8 P% m5 _4 o
                    Billy Lau楼南光 Billy Lau ....Tan . _4 s) r' w/ |5 i  p# J% \
                    Nina Li利智 Nina Li ....Ping 8 i" X; H, x6 C1 b- k% k3 o/ F
                    Chia-Liang Liu刘家良 Chia-Liang Liu ....Boss of Gambling House (as Kar-Leung Lau)
" U& n9 D' L+ K                    Hoi Mang孟海 Hoi Mang ....Rice Pudding
1 H. @5 l* @- m9 g) V4 K: |                    Siu Chung Mok莫少聪 Siu Chung Mok ....Mai Chien-Tang/Malted Candy & b0 k) e+ x# M0 s
                    John Sham岑建勋 John Sham ....Master 5
/ K6 a8 C# E  t/ k2 G# {- \                    Eric Tsang曾志伟 Eric Tsang ....Man with Cleaver
  n+ U3 Q, }* T7 r                    Dick Wei狄威 Dick Wei ....Wei . S7 o, y8 q7 p  }# j& v  P6 a6 F
                    Manfred Wong文隽 Manfred Wong ....Pork Bun Seller - C$ F& z) ?' h6 A, K
                    Corey Yuen元奎 Corey Yuen ....Coolie (as Kwai Yuen) 6 V0 t+ g" p- n, n
. ^" N- P  K7 Y7 g/ A  n& N7 e$ }
  ◎简  介 7 ~/ U) [: ^0 j+ Z, i& g
  
; l/ {4 J5 m) I- L, D1 _  6 n+ r( R! J: D& |1 {9 Y/ s
  , F* d/ a, s" t0 i$ b
  罗通是澳门三轮车工人的头目之一。他和制饼女工阿冰相爱。制饼方师傅亦深爱阿冰,最后方知道阿冰和罗通真心相爱,他无奈地放弃了对阿冰的追求。 ! K, X7 c! s7 g/ g( b# f
罗通的三个死党是麦牙糖、山楂饼和砵仔糕。麦牙糖爱上了妓女小翠。他以为她是小家碧玉。从山楂饼处得知,小翠是一个妓女,他非常悲愤,小翠亦极之伤心。在
1 T: U0 Z# o8 O: q$ i) r; u阿冰等的指责、开解,和罗通等死党的帮助下,他和小翠成了亲,不幸在洞房当晚,恶霸尤五无理地把他俩杀死。
  ?# {, C" T3 d8 O罗通和砵仔糕愤怒地去找尤五报仇,一番剧斗,尤五的抓牙被罗通等打得非死即伤,尤五则被一向受他凌辱的父亲推下楼杀死。
% E% _8 h2 F! P; W! A9 A3 T' D 引用 + ?( Z: |2 m2 Y+ D0 P" d
General
/ g- n- X- D/ m( X8 ? Unique ID                                : 185226678544899291388060071901248818496 (0x8B595C54ED9C8B70B5FB6EFC155B0D40)
( @7 K4 {6 N3 S Complete name                            : E:\Pedicab.Driver.1989.1080i.BluRay.REMUX.AVC.DD2.0-VEDIGO.mkv
/ Q' V5 \& r$ R( h6 L Format                                   : Matroska
& B! y# f* a# _8 \ Format version                           : Version 4 / Version 2
8 u& ~0 q: O! m6 U5 r8 E File size                                : 22.4 GiB 6 x( f) K8 m8 E
Duration                                 : 1h 35mn 6 j/ a2 U% `0 a- @/ g& }
Overall bit rate                         : 33.6 Mbps
% w" {/ k( p: q: o Movie name                               : Pedicab.Driver.1989.BDRemux.1080i_by_vedigo
4 j6 A1 D& E3 O) G" j) C7 D* w1 _ Encoded date                             : UTC 2015-12-28 08:48:10 0 ]& L/ c6 E" m6 c& `
Writing application                      : mkvmerge v7.6.0 ('Garden of Dreams') 32bit built on Feb  8 2015 12:51:39 ( Y6 V' c/ S) k2 c
Writing library                          : libebml v1.3.1 + libmatroska v1.4.2 ) Z/ Z6 |6 p9 U7 Q! X8 e: b: I# ]. v
DURATION                                 : 01:35:10.208000000
; w+ n+ E, r/ ^' C NUMBER_OF_FRAMES                         : 178444 5 w- S, A' @$ l/ n$ N) G3 A
NUMBER_OF_BYTES                          : 228408320
! q( t5 Y5 V* A _STATISTICS_WRITING_APP                  : mkvmerge v7.6.0 ('Garden of Dreams') 32bit built on Feb  8 2015 12:51:39
1 P3 X& t. a% h _STATISTICS_WRITING_DATE_UTC             : 2015-12-28 08:48:10
% b" U1 t0 c$ R _STATISTICS_TAGS                         : BPS DURATION NUMBER_OF_FRAMES NUMBER_OF_BYTES 8 |# i$ i* }# O9 W# k0 {( T- g4 H
  
2 o9 J, Z0 x/ a5 G$ P  k7 a Video
0 I0 K1 L5 }& W+ L8 N ID                                       : 1 * L8 l: e: V% s6 x7 H3 d
Format                                   : AVC
& Z4 j5 ?" H  C# [ Format/Info                              : Advanced Video Codec * ?% ~# [$ P2 E% c  Q
Format profile                           : [email protected] / x; j, v/ l3 J0 }$ Z* k
Format settings, CABAC                   : Yes 7 T6 Z  I; }0 A2 e  k& H
Format settings, ReFrames                : 4 frames ) G: Z! R* k  p
Codec ID                                 : V_MPEG4/ISO/AVC 3 e2 c! @2 A9 Z
Duration                                 : 1h 35mn
8 `  s& S3 @; V Bit rate                                 : 32.3 Mbps # r4 [' n" \6 o5 @4 g. E
Width                                    : 1 920 pixels
9 Y2 e' ]& Y4 ?9 n* T+ p7 o Height                                   : 1 080 pixels + D5 g# y5 X9 ?  J6 x$ L" r
Display aspect ratio                     : 16:9
2 m, P" M/ L' G4 a  b" K Frame rate mode                          : Constant $ d3 B5 e* `+ D. {* P4 _
Frame rate                               : 29.940 fps ! F- J5 ~/ V5 t5 @- }6 `! C9 d$ T' k
Original frame rate                      : 29.970 fps ' h% C* ~' c& _  p+ S& ?3 k- S3 S' @! s
Standard                                 : NTSC ! K  r/ d. H3 t$ w) D- v3 d
Color space                              : YUV
& y) [: N) A+ p1 }+ [ Chroma subsampling                       : 4:2:0
- |. ?7 t% O0 y Bit depth                                : 8 bits
" K0 e4 O2 B% M: }) r) ~ Scan type                                : Interlaced
( e0 r2 e0 V- e3 C. ~! H. z( M Scan order                               : Top Field First
; B9 C8 ?0 N4 `: Y5 l5 a Bits/(Pixel*Frame)                       : 0.521
7 w) t% B5 l, ^% v Stream size                              : 21.5 GiB (96%)
) b! V1 ^" b( q2 N5 K Title                                    : Pedicab.Driver.1989.BDRemux.1080i_by_vedigo , P* }; ^! I$ k/ k
Default                                  : Yes 1 P2 V0 q: H7 B6 W( R$ |
Forced                                   : No
* ]! C  l# ~" j, H Color range                              : Limited
( T" ^8 l2 y7 f5 t Color primaries                          : BT.709
" f4 O0 J/ @4 A5 L Transfer characteristics                 : BT.709
1 f/ E6 r6 c8 a: X* I9 N* v- c Matrix coefficients                      : BT.709
, R8 _9 [6 _6 L/ h DURATION                                 : 01:35:10.255000000
6 X* I+ o, m* u* g% l# m5 E NUMBER_OF_FRAMES                         : 342272
5 X% Z: P9 \* C% [/ H% f4 ?+ t NUMBER_OF_BYTES                          : 23551955259 + p! h# i" e% O6 f7 s6 o* |
_STATISTICS_WRITING_APP                  : mkvmerge v7.6.0 ('Garden of Dreams') 32bit built on Feb  8 2015 12:51:39 4 [7 U5 R6 w8 |  @; T+ s1 _- R
_STATISTICS_WRITING_DATE_UTC             : 2015-12-28 08:48:10
( e( e! Y1 H- J, ?) H2 c3 v _STATISTICS_TAGS                         : BPS DURATION NUMBER_OF_FRAMES NUMBER_OF_BYTES
5 t8 N; W. u. m  
8 F6 o' E/ r( ~% Y0 W' E Audio #1 ; V: ]& a  y- d( \6 G2 T
ID                                       : 2
9 l7 m" a3 P! J7 A6 R- o; f Format                                   : AC-3 1 s6 C4 x+ p) l, s5 {9 b0 A6 k$ ?
Format/Info                              : Audio Coding 3 : K' Q: J4 q  w: i+ y; Y: |
Mode extension                           : CM (complete main)
: W) V* w. g' e. F( a Format settings, Endianness              : Big * V6 M5 a$ a3 v
Codec ID                                 : A_AC3 9 @7 I- ~* ~  g3 _. A7 B& o
Duration                                 : 1h 35mn
* R% [% f" C0 E# ?  Y( I9 U5 ^6 y5 d Bit rate mode                            : Constant ( K! n' ?. Q6 v3 w
Bit rate                                 : 320 Kbps
. Q9 d) h0 ?6 G2 }6 o& Y, L) n Channel(s)                               : 2 channels " A; i" G' K, T0 O, U
Channel positions                        : Front: L R 8 J8 ?6 q! P* V) s8 c  f$ }/ n
Sampling rate                            : 48.0 KHz 5 C6 U& V# A+ I9 j. ~
Compression mode                         : Lossy
( {. L1 t7 U2 Z1 R+ e0 r1 G8 e Stream size                              : 218 MiB (1%) 3 o. N2 ]. x# K7 Z" _9 o+ y& w
Title                                    : Cantonese
9 |1 {  B+ ^% J" p* e Language                                 : Chinese   p/ V  m8 Y2 D5 R
Default                                  : No ' _5 s4 X/ R$ }$ ?/ v
Forced                                   : No
" T' V7 _5 L3 t  
) a  z7 x& ~) {2 `1 Z3 H( G Audio #2
7 t/ q: N$ m7 G+ k! L2 @, j3 v  L ID                                       : 3
) t4 b$ D! d6 m Format                                   : AC-3
9 E4 `0 j  ~3 x Format/Info                              : Audio Coding 3 8 H' W+ i: q! R/ ^) w6 K; s
Mode extension                           : CM (complete main)
) Z4 [* m+ o. z8 A0 \0 B Format settings, Endianness              : Big
! ~  i9 ?3 p3 Q Codec ID                                 : A_AC3 ( c: u5 n% W; C0 G# v5 \
Duration                                 : 1h 35mn ! n: B, @" x+ A9 @1 t' G
Bit rate mode                            : Constant + _  L. M% Y. j7 C) Y1 ~
Bit rate                                 : 320 Kbps
/ E, ~$ Q* J! B9 n" Q# D Channel(s)                               : 2 channels
" v6 s: u+ |% @+ ]2 n Channel positions                        : Front: L R
  R- b4 }4 d$ p' b Sampling rate                            : 48.0 KHz % j9 p$ c, W" f* W' |+ o
Compression mode                         : Lossy 0 B/ z, B8 d7 s, o. r
Stream size                              : 218 MiB (1%) 5 n2 A/ z! Z2 i. ]
Default                                  : Yes ) k% Z; A# F  d& J% A7 [! ?$ C
Forced                                   : No
4 N8 {$ a. I9 o% s! `
游客,如果您要查看本帖隐藏内容请回复  捐助论坛可免回复查看隐藏内容详情请点击
最近访问 头像模式 列表模式
HD一条街,身边的一条街。
发表于 2016-1-4 22:16:12 | 显示全部楼层
谢谢楼主分享的高清电影。
HD一条街,身边的一条街。
发表于 2016-1-4 23:17:21 | 显示全部楼层
经典港片,感谢楼主分享
HD一条街,身边的一条街。
发表于 2016-1-5 00:43:06 | 显示全部楼层
不错的资源 收下了
HD一条街,身边的一条街。
发表于 2016-1-5 05:34:34 | 显示全部楼层
经典,收藏了,谢谢
HD一条街,身边的一条街。
发表于 2016-1-5 10:23:32 来自手机 | 显示全部楼层
楼主你太伟大了,在哪弄的那么高清版本。
HD一条街,身边的一条街。
HuangXiaoxian 该用户已被删除
发表于 2016-1-5 19:11:33 | 显示全部楼层
提示: 作者被禁止或删除 内容自动屏蔽
HD一条街,身边的一条街。
发表于 2016-1-6 20:03:18 | 显示全部楼层
经典中的经典。
HD一条街,身边的一条街。
发表于 2016-1-8 09:30:39 | 显示全部楼层
先收下了,有时间慢慢看
HD一条街,身边的一条街。
您需要登录后才可以回帖 登录 | 立即注册

本版积分规则

手机版|小黑屋|有问题发邮件到admin#(换成@)hd1tj.org|微博|免责申明|HD一条街

GMT+8, 2016-12-10 16:53

Powered by Discuz! X3.1

© 2001-2013 Comsenz Inc.

快速回复 返回顶部 返回列表