开启辅助访问 切换到窄版

HD一条街论坛

 找回密码
 立即注册
查看: 467|回复: 9

[国产] 江苏卫视 历史文献纪录片《外国人眼中的南京大屠杀》全10集 JSTV A Foreign Perspective of Nanjing Massacre Complete HDTV 1080i H264-HDATV 30.71G

[复制链接]
发表于 2016-1-3 14:19:37 | 显示全部楼层 |阅读模式
9 o. J& a* R$ K+ n- F9 A* |
                               
登录/注册后可看大图

+ \0 k7 P, G  {. G, _) H; `4 e6 J* H

, U6 V' X. k0 z& \+ g0 I9 M8 h1 ?简介, k  D5 s3 `9 L* u

7 i/ p, S- F. N1 t7 l; @该片是第一部以见证、亲历以及探寻南京大屠杀这一历史惨剧的外国人视角来表现的作品,首次以外国人视角还原南京大屠杀。在共500分钟的时间里,讲述了和南京大屠杀息息相关的10位外国人的故事。这也是第一部以见证、亲历以及探寻南京大屠杀这一历史惨剧的外国人视角来表现的作品。其中,德国人约翰·拉贝,美国人约翰·马吉、明妮·魏特琳、乔治·费奇、罗伯特·威尔逊、贝德士,丹麦人辛德贝格等,他们在南京大屠杀期间,冒着生命危险留在了南京,以各种方式保护南京民众免遭屠戮,并记录下日本侵略者的残暴行径。也有勇于向中国人民忏悔的原侵华老兵东史郎、揭露南京大屠杀真相的日本普通民众松冈环和历史学者笠原十九司,他们对日本人对历史认识的错乱感到震惊,努力将历史真相告诉更多的日本人。该片于12月7日开始在央视科教频道22:00和江苏卫视频道17:40播出。
8 u: Y+ D( n+ g* q9 w0 h/ |6 v$ e" k

! S  G. d; N( u8 t# `9 u
  1. General
    $ V0 Q% L- g. X' P8 z7 j- V
  2. ID                             : 0 (0x0)& Z( B7 q* d7 L! V1 i
  3. Complete name                  : H:\pt\JSTV A Foreign Perspective of Nanjing Massacre Complete HDTV 1080i H264-HDATV\JSTV.20151207.Ep01.HDTV.1080i.H264-HDATV.ts
    , F: \7 h) P+ d9 _3 t+ v8 F
  4. Format                         : BDAV
    1 }1 U3 s* o6 H' P& S/ I! v
  5. Format/Info                    : Blu-ray Video
    * q5 ^5 f' i" N4 E) m) X  p
  6. File size                      : 3.18 GiB
    % [$ H: e8 w6 l
  7. Duration                       : 50mn 48s
      G$ o" c% k$ D3 \. H
  8. Overall bit rate mode          : Variable
    ( E% C4 F& Y3 @5 S. M/ g) S
  9. Overall bit rate               : 8 961 Kbps# i6 i: v' M8 `, S8 X3 z% c. R5 r! K" R
  10. Maximum Overall bit rate       : 12.1 Mbps" X# I0 R3 W8 ?; |

  11. 3 u) L' ]0 P( {( Z
  12. Video
    4 Y& b8 w+ d' j7 \4 k- `
  13. ID                             : 4113 (0x1011)$ V9 H; J& C0 r* [9 s4 ?& N4 \/ ?
  14. Menu ID                        : 1 (0x1)
    5 I. E4 p1 Y4 G/ h
  15. Format                         : AVC) u  B5 ]; G  Q) q
  16. Format/Info                    : Advanced Video Codec6 F4 I! g% s4 Y( y/ R8 r& o* b2 L
  17. Format profile                 : [email protected]% o) i5 f: K- m$ m$ I( K; _! S& a
  18. Format settings, CABAC         : Yes
    9 J4 ]6 }8 s# [1 z' N/ _
  19. Format settings, ReFrames      : 3 frames2 m' C; J% q1 o+ a
  20. Codec ID                       : 270 c$ R; i4 _+ y" V4 e
  21. Duration                       : 50mn 48s0 i( m* D0 n3 x/ V
  22. Bit rate                       : 8 277 Kbps  @' l) W3 S$ a/ _! l6 X3 C
  23. Width                          : 1 920 pixels
    ' }# Q8 B/ {/ b; O" {
  24. Height                         : 1 080 pixels" B8 r" G0 a+ Y3 C
  25. Display aspect ratio           : 16:9
    5 z% D0 B/ G2 h0 k. g
  26. Frame rate mode                : Variable
    , U9 u' Y4 X& H( P$ b5 x% |2 N
  27. Color space                    : YUV
    ! J  J6 c  |+ l9 {8 J
  28. Chroma subsampling             : 4:2:0
    1 Q3 m) y6 W8 Y: F! X. d4 j- z
  29. Bit depth                      : 8 bits
      V% C& `4 c' u# ]) v0 y. {, [$ D
  30. Scan type                      : Progressive
    6 z% n7 n  V# w2 ^$ E
  31. Stream size                    : 2.94 GiB (92%)- Q; F" I7 R- j8 l' k6 W9 K1 G
  32. 4 N: o7 w' E- o# U' B2 X! ^
  33. Audio4 ]2 {6 ?8 Y) G9 X& c/ m
  34. ID                             : 4352 (0x1100)
    0 n0 ^7 r9 ^/ f4 z; ]# A2 C- S
  35. Menu ID                        : 1 (0x1)
    . T! M, i* L8 v/ v( _8 a( h7 X# o
  36. Format                         : AC-3
    - ]$ j8 r' Q. F% C+ \; }
  37. Format/Info                    : Audio Coding 39 t; M# v+ I2 n/ D6 {- Z
  38. Mode extension                 : CM (complete main)# n1 j9 I9 o+ @% W4 T6 [
  39. Format settings, Endianness    : Big& b0 g9 f; D" k  w4 L- |! T
  40. Codec ID                       : 129, T1 l  J: m9 s- m
  41. Duration                       : 50mn 48s
    & {  Q3 L6 w! y' `6 Q
  42. Bit rate mode                  : Constant
    - M4 P- L3 Y7 L8 b) |5 Q
  43. Bit rate                       : 320 Kbps
    $ u% F  g; }0 E; M0 Z9 f
  44. Channel(s)                     : 2 channels' i% ^& X2 d# ^% C- ^
  45. Channel positions              : Front: L R
      {, U+ ?! R4 b) }" l" p2 u6 Y
  46. Sampling rate                  : 48.0 KHz
    ; ?9 ~2 y% K' n: Y& x* g) u1 R
  47. Frame rate                     : 31.250 fps (1536 spf)
    ( E5 C* e, x( ?" N% w" m
  48. Compression mode               : Lossy
    & z& ?8 a7 k1 E: a9 M7 X, \
  49. Stream size                    : 116 MiB (4%)
复制代码

% t, n  x; j$ T4 c: S5 t" v) P1 L& ^+ Z" y) e8 f

+ T% _& l: L0 F6 Z! w+ |
郑重声明:# h$ ^5 g; M: e; H
本站提供的所有影视综艺作品均是在网上搜集,任何涉及商业盈利目的均不得使用,否则产生的一切后果将由您自己承担!本站将不对本站的任何内容负任何法律责任!该下载内容仅做宽带测试使用,请在下载后24小时内删除。请购买正版!
1 g, {9 }1 y2 K; b& I4 a! N

9 z( W3 m( L9 ~% }  p115网盘  受分享限制请自行修改文件扩展名*.ts
' |0 w* Z2 Q0 n; b! x  i/ L
/ C0 s6 _% y4 D' `& A
游客,如果您要查看本帖隐藏内容请回复  捐助论坛可免回复查看隐藏内容 详情请点击
最近访问 头像模式 列表模式
HD一条街,身边的一条街。
发表于 2016-1-3 16:19:36 | 显示全部楼层
谢谢分享,在其他网站下了
HD一条街,身边的一条街。
头像被屏蔽
发表于 2016-1-3 19:07:16 | 显示全部楼层
提示: 作者被禁止或删除 内容自动屏蔽
HD一条街,身边的一条街。
发表于 2016-1-4 10:21:11 | 显示全部楼层
历史永远不能忘记,谢谢分享
HD一条街,身边的一条街。
发表于 2016-1-5 00:22:07 | 显示全部楼层
对于国人来说是一段不该忘记的历史,那外国人眼中呢?
HD一条街,身边的一条街。
事務局 该用户已被删除
发表于 2016-1-7 16:09:06 | 显示全部楼层
提示: 作者被禁止或删除 内容自动屏蔽
HD一条街,身边的一条街。
发表于 2016-1-14 20:38:08 | 显示全部楼层
哇,好大的资源
HD一条街,身边的一条街。
发表于 2016-7-9 18:23:20 | 显示全部楼层
可惜115已经没有用了
HD一条街,身边的一条街。
发表于 2016-12-7 20:51:13 | 显示全部楼层
比较好看的一部纪录片,每一集都很有意义
HD一条街,身边的一条街。
发表于 2016-12-7 21:41:14 | 显示全部楼层
这个问题很想知道
HD一条街,身边的一条街。

手机版|小黑屋|有问题发邮件到admin#(换成@)hd1tj.org|微博|免责申明|HD一条街

GMT+8, 2017-3-29 05:46

Powered by Discuz! X3.1

© 2001-2013 Comsenz Inc.

快速回复 返回顶部 返回列表