开启辅助访问 切换到窄版

HD一条街论坛

 找回密码
 加入我们
查看: 442|回复: 9

[国产] 江苏卫视 历史文献纪录片《外国人眼中的南京大屠杀》全10集 JSTV A Foreign Perspective of Nanjing Massacre Complete HDTV 1080i H264-HDATV 30.71G

[复制链接]
发表于 2016-1-3 14:19:37 | 显示全部楼层 |阅读模式
$ {% j% A3 ?0 M/ D9 ?8 r1 F
                               
登录/注册后可看大图
; n" u0 u$ w; O. _
* x! }& `; {0 S& P4 @9 C$ v# U8 D

0 _8 E# Z/ D4 h0 o: a简介3 |: i6 ?2 w- t

  K/ P% j, k7 j0 ^* B7 R该片是第一部以见证、亲历以及探寻南京大屠杀这一历史惨剧的外国人视角来表现的作品,首次以外国人视角还原南京大屠杀。在共500分钟的时间里,讲述了和南京大屠杀息息相关的10位外国人的故事。这也是第一部以见证、亲历以及探寻南京大屠杀这一历史惨剧的外国人视角来表现的作品。其中,德国人约翰·拉贝,美国人约翰·马吉、明妮·魏特琳、乔治·费奇、罗伯特·威尔逊、贝德士,丹麦人辛德贝格等,他们在南京大屠杀期间,冒着生命危险留在了南京,以各种方式保护南京民众免遭屠戮,并记录下日本侵略者的残暴行径。也有勇于向中国人民忏悔的原侵华老兵东史郎、揭露南京大屠杀真相的日本普通民众松冈环和历史学者笠原十九司,他们对日本人对历史认识的错乱感到震惊,努力将历史真相告诉更多的日本人。该片于12月7日开始在央视科教频道22:00和江苏卫视频道17:40播出。3 ^: u7 l, M" a: `
* R, ^' F; \# q, L0 \. c

9 F  S0 Y1 y. E- q0 E6 |6 ~& ]
  1. General0 Q( a; T0 \; E2 N
  2. ID                             : 0 (0x0)4 C4 }" e1 W7 T8 b  u! U1 Z
  3. Complete name                  : H:\pt\JSTV A Foreign Perspective of Nanjing Massacre Complete HDTV 1080i H264-HDATV\JSTV.20151207.Ep01.HDTV.1080i.H264-HDATV.ts
    2 I! B8 u0 P/ L# \. j8 ]9 \
  4. Format                         : BDAV, l* Z& G( A$ T8 T& }0 J+ k
  5. Format/Info                    : Blu-ray Video
    7 T6 c2 L* C8 v/ D1 w
  6. File size                      : 3.18 GiB
    ' L# Z+ Y( a& u+ L
  7. Duration                       : 50mn 48s% R8 X$ a+ J3 d$ y- J
  8. Overall bit rate mode          : Variable
    7 ~0 _8 R  }3 C4 o
  9. Overall bit rate               : 8 961 Kbps& E* U' o& T5 o7 ^& T: D8 B
  10. Maximum Overall bit rate       : 12.1 Mbps9 z0 M' o6 h. T& {0 F
  11. 9 y4 c! ]; O+ g9 ^. `. t8 h* i
  12. Video
    6 |, S$ l+ R* r+ T5 `
  13. ID                             : 4113 (0x1011)
    ( A+ @8 p( W. X+ B% i
  14. Menu ID                        : 1 (0x1)5 {; a. m' j; L! u
  15. Format                         : AVC1 P' ~2 C: B& Q: L, f$ n7 l: f0 x! d
  16. Format/Info                    : Advanced Video Codec
    : r  {6 ^% f, I  _
  17. Format profile                 : [email protected]  n1 h. b4 r  Q/ S# W6 F
  18. Format settings, CABAC         : Yes
    ; o/ @7 e% E1 w' |/ O7 A
  19. Format settings, ReFrames      : 3 frames
    9 L" i8 i" d' Y, }! a
  20. Codec ID                       : 27
    2 |% H7 s4 X& K( A& {0 j* U# @) W
  21. Duration                       : 50mn 48s
    ) O9 ?4 q* ?% E  _9 _5 L! i
  22. Bit rate                       : 8 277 Kbps
    ( c2 N) B, D: I& S% o3 T
  23. Width                          : 1 920 pixels9 C' E  Z0 U2 K( K$ h& m
  24. Height                         : 1 080 pixels+ H5 F6 z1 q* w3 k: T
  25. Display aspect ratio           : 16:9
    1 h3 \( o" P/ \
  26. Frame rate mode                : Variable& b* ]( M& y' H0 ~6 N, E: B
  27. Color space                    : YUV
    ( f9 `6 L4 Y9 \$ h; J( n$ c+ m
  28. Chroma subsampling             : 4:2:0' H: H# R9 k6 L8 l$ x
  29. Bit depth                      : 8 bits1 K1 s3 o' P& c! K/ u/ ~  j! w
  30. Scan type                      : Progressive
    ; }7 ]% B4 `4 u2 x7 K. S' A* U
  31. Stream size                    : 2.94 GiB (92%)
    4 t: I) s! i( R

  32. + N% Z# ]" [3 I. D
  33. Audio
    5 U1 z9 j1 S  E9 I$ I- _5 s& m
  34. ID                             : 4352 (0x1100)
    $ a, T7 Y$ H9 ~4 S! K3 N
  35. Menu ID                        : 1 (0x1)
    $ j9 N; ^4 o5 P% O
  36. Format                         : AC-3& k7 Z3 V. \. @, r& t
  37. Format/Info                    : Audio Coding 3
    % k& {' {# L; y( C
  38. Mode extension                 : CM (complete main)
    # T! p6 h. C, R3 a
  39. Format settings, Endianness    : Big, r5 J1 b$ L; |. I- y
  40. Codec ID                       : 129
    4 K/ o# K& D8 w# ^' v3 r8 M
  41. Duration                       : 50mn 48s2 X7 t: ~2 g  F- V
  42. Bit rate mode                  : Constant) c3 X9 c; p2 A& t: v" {9 e
  43. Bit rate                       : 320 Kbps' m$ }6 ~- n$ u" d( n
  44. Channel(s)                     : 2 channels( I+ o9 t" i: s7 [/ D
  45. Channel positions              : Front: L R: Q) p, B. C2 c4 ~
  46. Sampling rate                  : 48.0 KHz
    4 V7 g% T  |5 H* \# G
  47. Frame rate                     : 31.250 fps (1536 spf)
    ) m' z" H, X9 P/ D
  48. Compression mode               : Lossy
    * W. K6 y) S  S8 N! o/ c* a8 s0 ]
  49. Stream size                    : 116 MiB (4%)
复制代码

" ^/ \4 [3 E: A5 c% {1 ?1 [8 Q& {
: M9 t  E2 V) ^$ T, G# V5 }4 h9 U- |0 b/ H6 x0 @; O& F8 }
郑重声明:
. p* @+ b" v- M- _& c本站提供的所有影视综艺作品均是在网上搜集,任何涉及商业盈利目的均不得使用,否则产生的一切后果将由您自己承担!本站将不对本站的任何内容负任何法律责任!该下载内容仅做宽带测试使用,请在下载后24小时内删除。请购买正版!

9 w# d8 B% U# Z8 Z0 F
4 z; o) d7 z) i4 J115网盘  受分享限制请自行修改文件扩展名*.ts
; d; N) Z* w* e  C& L# ^/ Q  D$ j1 B5 i! D( N6 f/ \
游客,如果您要查看本帖隐藏内容请回复  捐助论坛可免回复查看隐藏内容 详情请点击
最近访问 头像模式 列表模式
HD一条街,身边的一条街。
发表于 2016-1-3 16:19:36 | 显示全部楼层
谢谢分享,在其他网站下了
HD一条街,身边的一条街。
头像被屏蔽
发表于 2016-1-3 19:07:16 | 显示全部楼层
提示: 作者被禁止或删除 内容自动屏蔽
HD一条街,身边的一条街。
发表于 2016-1-4 10:21:11 | 显示全部楼层
历史永远不能忘记,谢谢分享
HD一条街,身边的一条街。
发表于 2016-1-5 00:22:07 | 显示全部楼层
对于国人来说是一段不该忘记的历史,那外国人眼中呢?
HD一条街,身边的一条街。
事務局 该用户已被删除
发表于 2016-1-7 16:09:06 | 显示全部楼层
提示: 作者被禁止或删除 内容自动屏蔽
HD一条街,身边的一条街。
发表于 2016-1-14 20:38:08 | 显示全部楼层
哇,好大的资源
HD一条街,身边的一条街。
发表于 2016-7-9 18:23:20 | 显示全部楼层
可惜115已经没有用了
HD一条街,身边的一条街。
发表于 2016-12-7 20:51:13 | 显示全部楼层
比较好看的一部纪录片,每一集都很有意义
HD一条街,身边的一条街。
发表于 2016-12-7 21:41:14 | 显示全部楼层
这个问题很想知道
HD一条街,身边的一条街。
您需要登录后才可以回帖 登录 | 加入我们

本版积分规则

手机版|小黑屋|有问题发邮件到admin#(换成@)hd1tj.org|微博|免责申明|HD一条街

GMT+8, 2017-1-20 11:50

Powered by Discuz! X3.1

© 2001-2013 Comsenz Inc.

快速回复 返回顶部 返回列表