开启辅助访问 切换到窄版

HD一条街论坛

 找回密码
 立即注册
搜索
查看: 382|回复: 16

[1080p] 【希区柯克10大经典悬疑】夺魂索.Rope.1948.1080p.BluRay.X264-AMIABLE 6.56G

[复制链接]
发表于 2015-12-1 08:59:54 | 显示全部楼层 |阅读模式
本帖最后由 秦焉 于 2015-12-1 08:59 编辑 & o& d3 H/ U7 W, p9 `

9 Q$ u5 D4 ~) M! J2 b p2154845412.jpg
2 e! |$ u) X6 M# o◎译  名 Rope! X) s2 Z' b. E8 C
◎片  名 夺魂索 / 绳索 / Alfred Hitchcock's Rope
9 B5 }2 x; H. p, K: C; e. o, H◎年  代 1948) y3 V- N/ |- |1 \. W, ~* [9 o
◎国  家 美国* S* G" _0 g7 _& j+ U( R( r6 y; [
◎类  别 悬疑 / 惊悚 / 犯罪
% m; ~% W$ B& e◎语  言 英语
! q3 L( v" ?1 }0 k6 N* N◎上映日期 1948-08-28' A# J" t& p3 T# j
◎IMDb评分  8.0/10 from 90,411 users   8 F8 Z. ^( j8 h- `* O2 A& D& R
◎IMDb链接  http://www.imdb.com/title/tt0040746/
+ T* b) n- j" [* S/ x◎豆瓣评分 8.0/10 from 9,864 users1 C9 b; o: N9 u1 s
◎豆瓣链接 http://movie.douban.com/subject/1301230/
: c! q. D3 I/ u3 Y( y( O◎片  长 80 分钟5 `( p1 @" j: G4 A* Z0 G5 T
◎导  演 阿尔弗雷德·希区柯克 Alfred Hitchcock
3 b+ ]) K9 z; E% a- F- V; Q  M◎主  演 詹姆斯·斯图尔特 James Stewart
- g8 n5 [1 Z5 L' H+ e                   约翰·道尔 John Dall : ^. Q6 D# j3 F! m
                   法利·格兰杰 Farley Granger
4 k$ [9 x4 i, u" J" x                   琼·钱德勒 Joan Chandler( b" A; l1 X; ~- ^- Q8 m2 l
                   道格拉斯·迪克 Douglas Dick1 @+ w% a) n' }) X
& v/ |! j9 s; W9 L3 k* V
◎剧情简介1 c$ s/ y. k# i- e
       博兰顿(约翰达尔John Dall 饰)和菲利普(法利格兰杰 Farley Granger 饰)都是哈佛的高才生,一天,都是同性恋的两人合谋杀害了同学戴维,并藏尸于一个大箱子中。或许是出于炫耀,他们做出了一个惊人的举动。那就是用装着戴维尸体的箱子当餐桌,邀请了戴维的父母、未婚妻、同学和茹伯特教授(詹姆斯斯图尔特 James Stewart 饰)来赴宴。他们谎称戴维外出了,和客人们在戴维的“棺材”上进行着宴会。胆小的菲利普从宴会开始就开始坐立不安,但是博兰顿却不慌不忙,在客人中滔滔不绝。然而,聪明的茹伯特教授从博兰顿的谈话中渐渐察觉出事有蹊跷……' a9 o! t* _. V" t" S' d, f& |& v

* ?2 Q( `8 {3 c7 s5 I, Q0 _
# g/ P& N0 |7 N1 D- W2 Q◎幕后花絮" m- o9 r. s( ^
* ]- o: q1 `+ M, B( g* ]
       本片根据著名案件改编,是希区柯克的一次大胆实验。希区柯克尤其钟爱长镜头,《夺魂索》中他把长镜头发挥到了极致,全片几乎不用剪辑,完全打破了蒙太奇的规则,没有切换,没有正反打,一个镜头从头到尾。影片的场面调度不容一点差错,好比舞台表演。希区柯克本人对它有特殊的感情。多年后,他要求销毁电影胶片,使观众长达20年无法看到本片。影史罕见的“一部电影只用一个镜头”的大胆实验,同时也是希区柯克的第一部彩色片。导演以流畅的镜头运动和无缝的剪接手法,将几个长达十多分钟的镜头巧妙地连接在一起。多数拍摄的衔接处采用了人物背部的全暗特写,但是仍有几处特意的镜头转换,很有冲击力。整部影片属于话剧加实验电影。该题材来自一个真实事件,1959年拍成《朱门孽种》(Compulsion,又译《凶杀学生》);1991年拍成《情迷意乱》(Swoon)。
, ]8 K7 ^" y$ Z" g! y/ Q& N+ B7 _% @' E: r
◎制作手法8 E2 Z7 {* i8 [. D& I  B
! n) M6 V2 G7 D
       电影预告片由于希区考克在本片采用单一镜头的手法拍摄,但是当时一卷35毫米长度的电影底片只能录约10分钟。所以整部影片分成10个部份连续拍摄,每一部份的时间略少于10分钟。摄影时,一旦前一卷胶卷用完,就将摄影机停机,镜头对准某位演员(或者沙发、墙角)的背影,再换上新的胶卷。此时是彩色电影的早期,摄影机非常庞大,为了迁就摄影机的行动,镜头外的道具摆设其实不停的被搬移。0 K% O7 v/ B' [3 R' w
       《夺魂索》的悬疑,不在对事件的存疑,而是对剧中人物心理变化的不确定。所以事件的谜底一开始就让观众知道,让观众可以全心贯注于观察剧中人物,后来希区考克另一部经典《迷魂记》也采取这样的风格。在《夺魂索》中,观众耳里听到的对白,不见得是眼中所看到的人事物。亚弗列德·希区考克用镜头掌控观众的视线──以及心理情绪。此种方式与希区考克另一部经典《后窗》不同,《后窗》大部分是以男主角的主观镜头(SUBJECT)呈现。
3 V/ A" |( N1 q4 Z7 b- p  Q! S/ G8 `0 L4 a8 E' E
  1. Video( h6 [8 a9 h! U  E* k
  2. ID                                       : 1
    9 D0 I8 U2 F9 q2 Z( w. k
  3. Format                                   : AVC& K% N5 o, l5 Q( B7 I
  4. Format/Info                              : Advanced Video Codec
    - C/ L/ i1 Y0 E4 o7 l* d$ b9 l: O! Y
  5. Format profile                           : [email protected]
    6 N1 i; ~1 z! p) o
  6. Format settings, CABAC                   : Yes$ V3 o! ]: }. c- y0 A9 {8 _
  7. Format settings, ReFrames                : 5 frames$ T: @* U6 h* k3 Y3 }) U
  8. Codec ID                                 : V_MPEG4/ISO/AVC
    ) v/ q/ ~2 w$ e4 [+ D0 {
  9. Duration                                 : 1h 20mn9 J3 Y( w2 |/ V& G
  10. Bit rate                                 : 10.1 Mbps( u8 a8 r( a) c) W, [8 l2 J
  11. Width                                    : 1 456 pixels
    , j. ^5 d! h  u+ _8 H6 I
  12. Height                                   : 1 080 pixels& ?  A, X$ Y5 }5 f8 L* F
  13. Display aspect ratio                     : 4:3
    ! V6 C7 f- ]* L! {6 D! W
  14. Frame rate mode                          : Constant) `3 e/ f8 C- Q0 Y/ S
  15. Frame rate                               : 23.976 fps, [) ~" I( j3 l2 k8 {! T. g5 f
  16. Color space                              : YUV
    , M6 q5 m: d# @& O- S
  17. Chroma subsampling                       : 4:2:0$ b, L2 w+ N/ ~9 u6 V
  18. Bit depth                                : 8 bits( g2 p4 J( W; {; s) k
  19. Scan type                                : Progressive
    * J( C- O" R0 q! H$ u' a$ _
  20. Bits/(Pixel*Frame)                       : 0.2682 G0 U: [& G; K$ c
  21. Stream size                              : 5.58 GiB (85%)! q! [' L, A) e" H  g; n% [. f
  22. Writing library                          : x264 core 128 r2216 198a7ea5 ^# e5 `5 n2 w3 T
  23. Encoding settings                        : cabac=1 / ref=5 / deblock=1:0:0 / analyse=0x3:0x113 / me=umh / subme=8 / psy=1 / psy_rd=1.00:0.00 / mixed_ref=1 / me_range=16 / chroma_me=1 / trellis=1 / 8x8dct=1 / cqm=0 / deadzone=21,11 / fast_pskip=1 / chroma_qp_offset=-2 / threads=12 / lookahead_threads=2 / sliced_threads=0 / nr=0 / decimate=1 / interlaced=0 / bluray_compat=0 / constrained_intra=0 / bframes=3 / b_pyramid=2 / b_adapt=2 / b_bias=0 / direct=3 / weightb=1 / open_gop=0 / weightp=2 / keyint=240 / keyint_min=24 / scenecut=40 / intra_refresh=0 / rc_lookahead=50 / rc=2pass / mbtree=1 / bitrate=10109 / ratetol=1.0 / qcomp=0.60 / qpmin=0 / qpmax=69 / qpstep=4 / cplxblur=20.0 / qblur=0.5 / ip_ratio=1.40 / aq=1:1.00
    1 ?' f- F7 f! n  O5 V' O: C
  24. Language                                 : English5 i* v$ J1 d8 S5 X4 C' u- }
  25. Default                                  : Yes0 d9 a. p# {, j# B
  26. Forced                                   : No
    + G: S" L+ [' u
  27. ' h& g% k+ l- H9 h8 e
  28. Audio: i( O0 ]& q/ D) V* B: F. m
  29. ID                                       : 2+ m" X& M0 v* G% v
  30. Format                                   : DTS" ~) c: f- Y/ E4 N2 [
  31. Format/Info                              : Digital Theater Systems
    9 [$ X7 X- i+ x! S$ l7 |
  32. Mode                                     : 16) D- w; q; T, M; `/ w; l
  33. Format settings, Endianness              : Big6 I5 G1 h% |8 M" ?5 d5 a
  34. Codec ID                                 : A_DTS
    0 [5 \! Z: \% e, j. ]+ `
  35. Duration                                 : 1h 20mn
    4 \) w( m* b. A# C5 Y
  36. Bit rate mode                            : Constant
    $ H6 [& |7 J, i9 {: ]2 l; F
  37. Bit rate                                 : 1 509 Kbps
    5 e% `0 l3 I$ ?0 M- }* O" q
  38. Channel(s)                               : 6 channels
    / c2 U, c: O# I! S! W4 S' ]" [
  39. Channel(s)_Original                      : 2 channels9 x$ @$ Y  i8 p/ u' b8 O
  40. Channel positions                        : Front: L R
    ) s' [! U9 l1 R9 c$ R( Q0 H# v
  41. Sampling rate                            : 48.0 KHz
    1 Q4 G! F/ Z% E% p
  42. Bit depth                                : 24 bits
    8 z+ V$ Q$ z# j1 L& i" a+ _
  43. Compression mode                         : Lossy2 |" U& T1 V9 Z" [
  44. Stream size                              : 872 MiB (13%)8 f/ m9 |* c4 C  s
  45. Language                                 : English6 \8 }& w; e% g+ N" i# m/ x- h, s
  46. Default                                  : Yes
    % |) z% \/ e7 W& E7 ^! o, _' D
  47. Forced                                   : No+ ^- ~9 O! p- s3 x

  48. 8 ~/ d3 M$ M/ z
  49. Text4 w( r" E1 R1 M/ W$ i" g" S
  50. ID                                       : 3
    7 Y) D: L; L, v4 i# j
  51. Format                                   : UTF-88 I, i( P4 r9 B
  52. Codec ID                                 : S_TEXT/UTF8
    . r% @6 ]% J$ D) j
  53. Codec ID/Info                            : UTF-8 Plain Text
    # I8 R1 K: A0 U3 C# Q6 A5 p/ Q( Y+ e- I
  54. Language                                 : English
    8 {2 Q6 n* k& r! K+ D
  55. Default                                  : No
    # ?6 L% N- L3 K  \& H
  56. Forced                                   : No
复制代码

. y# O0 J1 ~3 h5 \ Rope.1948.1080p.BluRay.X264-AMIABLE.mkv.jpg + Q8 r/ s0 g& U' B- Z* O1 j
游客,如果您要查看本帖隐藏内容请回复  捐助论坛可免回复查看隐藏内容 详情请点击
最近访问 头像模式 列表模式
HD一条街,身边的一条街。
发表于 2015-12-1 09:33:23 | 显示全部楼层
看题目像是惊悚片噢,下载看看
HD一条街,身边的一条街。
发表于 2015-12-1 09:34:42 | 显示全部楼层
谢谢分享,题材很好的悬疑片
HD一条街,身边的一条街。
发表于 2015-12-1 10:29:28 | 显示全部楼层
希区柯克的无穷想象力让人佩服
HD一条街,身边的一条街。
发表于 2015-12-1 12:25:37 | 显示全部楼层
多谢楼主分享
HD一条街,身边的一条街。
发表于 2015-12-1 13:37:41 | 显示全部楼层
谢谢分享,看看
HD一条街,身边的一条街。
发表于 2015-12-1 20:16:48 | 显示全部楼层
好老的片子啦,支持一下!!!
HD一条街,身边的一条街。
头像被屏蔽
发表于 2015-12-1 23:26:48 | 显示全部楼层
提示: 作者被禁止或删除 内容自动屏蔽
HD一条街,身边的一条街。
发表于 2015-12-2 00:04:49 | 显示全部楼层
感觉年代好老额,不看了
HD一条街,身边的一条街。
发表于 2015-12-2 08:09:03 来自手机 | 显示全部楼层
希区柯克的长镜头拍摄手法确实令人叫绝。
HD一条街,身边的一条街。

手机版|小黑屋|有问题发邮件到admin#(换成@)hd1tj.org|微博|免责申明|HD一条街

GMT+8, 2017-4-23 13:39

Powered by Discuz! X3.1

© 2001-2013 Comsenz Inc.

快速回复 返回顶部 返回列表