开启辅助访问 切换到窄版

HD一条街论坛

 找回密码
 加入我们
查看: 325|回复: 16

[1080p] 【希区柯克10大经典悬疑】夺魂索.Rope.1948.1080p.BluRay.X264-AMIABLE 6.56G

[复制链接]
发表于 2015-12-1 08:59:54 | 显示全部楼层 |阅读模式
本帖最后由 秦焉 于 2015-12-1 08:59 编辑 2 @7 y( d0 r8 K& |( p  r: {2 Y
3 m5 H) G5 i6 Y$ L  d( T8 ^
p2154845412.jpg $ O4 x: k$ Z" K( H- R; i
◎译  名 Rope
. T# z" Z9 O0 Z$ B◎片  名 夺魂索 / 绳索 / Alfred Hitchcock's Rope
1 G1 H9 E$ T/ K$ S  c6 F( J◎年  代 19487 j$ v0 G/ w/ h8 ?; E7 k" z
◎国  家 美国7 C+ U% m/ U  r2 i
◎类  别 悬疑 / 惊悚 / 犯罪
& V% r' k$ J. Z: a' ]) z3 q◎语  言 英语
6 N; M' \" E/ [) V◎上映日期 1948-08-286 ~# J" v( ~' S1 h1 q: v" Z3 V
◎IMDb评分  8.0/10 from 90,411 users   + y) u1 p' H; R* Z9 Z
◎IMDb链接  http://www.imdb.com/title/tt0040746/2 r' X: i- K, L/ F8 Y
◎豆瓣评分 8.0/10 from 9,864 users4 ^0 N  ]; y/ E9 H+ e7 @
◎豆瓣链接 http://movie.douban.com/subject/1301230/
4 }( B3 a2 i" x, L7 m3 ?+ R) T1 J; M◎片  长 80 分钟6 m% j2 @# C9 F. A2 ?* H/ p
◎导  演 阿尔弗雷德·希区柯克 Alfred Hitchcock( I2 y; Z  r7 q7 r! m$ L/ o2 k
◎主  演 詹姆斯·斯图尔特 James Stewart
6 B3 y: J, E! O2 ?$ s4 A                   约翰·道尔 John Dall
& D1 v- h$ T  J- s                   法利·格兰杰 Farley Granger
8 i+ `, l2 d. C1 `# H                   琼·钱德勒 Joan Chandler
0 n- Z" E' |. {- J5 ?5 o                   道格拉斯·迪克 Douglas Dick
% A( r6 F7 z+ O0 x1 n
( U2 Y5 w9 B! h+ S* E) J- g: t+ N! A◎剧情简介
" g2 ~7 B/ s$ v  t* n4 }( Q) M       博兰顿(约翰达尔John Dall 饰)和菲利普(法利格兰杰 Farley Granger 饰)都是哈佛的高才生,一天,都是同性恋的两人合谋杀害了同学戴维,并藏尸于一个大箱子中。或许是出于炫耀,他们做出了一个惊人的举动。那就是用装着戴维尸体的箱子当餐桌,邀请了戴维的父母、未婚妻、同学和茹伯特教授(詹姆斯斯图尔特 James Stewart 饰)来赴宴。他们谎称戴维外出了,和客人们在戴维的“棺材”上进行着宴会。胆小的菲利普从宴会开始就开始坐立不安,但是博兰顿却不慌不忙,在客人中滔滔不绝。然而,聪明的茹伯特教授从博兰顿的谈话中渐渐察觉出事有蹊跷……
0 A. u/ z% Z5 X; m
6 L/ R% t; D& x% Y2 T; Q: z! l% ]. t' B2 s+ v) ~$ R
◎幕后花絮1 B. r3 ~- N8 U
% N' _2 C! o  O% u; A: ~$ r3 F
       本片根据著名案件改编,是希区柯克的一次大胆实验。希区柯克尤其钟爱长镜头,《夺魂索》中他把长镜头发挥到了极致,全片几乎不用剪辑,完全打破了蒙太奇的规则,没有切换,没有正反打,一个镜头从头到尾。影片的场面调度不容一点差错,好比舞台表演。希区柯克本人对它有特殊的感情。多年后,他要求销毁电影胶片,使观众长达20年无法看到本片。影史罕见的“一部电影只用一个镜头”的大胆实验,同时也是希区柯克的第一部彩色片。导演以流畅的镜头运动和无缝的剪接手法,将几个长达十多分钟的镜头巧妙地连接在一起。多数拍摄的衔接处采用了人物背部的全暗特写,但是仍有几处特意的镜头转换,很有冲击力。整部影片属于话剧加实验电影。该题材来自一个真实事件,1959年拍成《朱门孽种》(Compulsion,又译《凶杀学生》);1991年拍成《情迷意乱》(Swoon)。* y) J: r( W# b7 n4 f
, F. ^3 t( t! z0 |5 l! }
◎制作手法
$ N2 C7 _$ B) W" y2 M7 ^! i$ A. N& l/ W* o$ _
       电影预告片由于希区考克在本片采用单一镜头的手法拍摄,但是当时一卷35毫米长度的电影底片只能录约10分钟。所以整部影片分成10个部份连续拍摄,每一部份的时间略少于10分钟。摄影时,一旦前一卷胶卷用完,就将摄影机停机,镜头对准某位演员(或者沙发、墙角)的背影,再换上新的胶卷。此时是彩色电影的早期,摄影机非常庞大,为了迁就摄影机的行动,镜头外的道具摆设其实不停的被搬移。9 j! i  j& K. d: W" G# |1 {1 n1 x. p
       《夺魂索》的悬疑,不在对事件的存疑,而是对剧中人物心理变化的不确定。所以事件的谜底一开始就让观众知道,让观众可以全心贯注于观察剧中人物,后来希区考克另一部经典《迷魂记》也采取这样的风格。在《夺魂索》中,观众耳里听到的对白,不见得是眼中所看到的人事物。亚弗列德·希区考克用镜头掌控观众的视线──以及心理情绪。此种方式与希区考克另一部经典《后窗》不同,《后窗》大部分是以男主角的主观镜头(SUBJECT)呈现。
5 U+ Y3 z* O# a" T5 K7 B3 E5 l* c) _9 I0 r
  1. Video
    8 M' O5 B% r$ u
  2. ID                                       : 1* T6 j( |2 j" v: g& O' o" z
  3. Format                                   : AVC5 B: ?1 ~& q# L% j* o
  4. Format/Info                              : Advanced Video Codec0 ^5 k* z* `1 h1 d
  5. Format profile                           : [email protected]- a( k3 M' E/ U  S2 M
  6. Format settings, CABAC                   : Yes
    ! p0 J% j% n8 v+ E9 ^3 f
  7. Format settings, ReFrames                : 5 frames
    / |; e% v' a* R5 |
  8. Codec ID                                 : V_MPEG4/ISO/AVC
    , J7 V3 L; d. \. w2 `
  9. Duration                                 : 1h 20mn1 c; _) X* ~4 R( k* g# j6 a
  10. Bit rate                                 : 10.1 Mbps
    8 y3 K) P  r/ K* ^# w! W! v' [
  11. Width                                    : 1 456 pixels/ D* U6 H, }8 D) r
  12. Height                                   : 1 080 pixels
    : d5 g' F' x# \2 q
  13. Display aspect ratio                     : 4:3
    7 K; g* g; v) s5 _& l: ]
  14. Frame rate mode                          : Constant
    5 D& R" z- S6 K0 x. s5 ~( @. Q# v
  15. Frame rate                               : 23.976 fps; I# j; e1 `& T
  16. Color space                              : YUV
    : M' @* X. T) v* e4 V
  17. Chroma subsampling                       : 4:2:08 j3 O+ L1 e! j' j0 i$ e% O
  18. Bit depth                                : 8 bits
    6 m# L( b3 d, ?0 a8 q2 m3 n2 [
  19. Scan type                                : Progressive
    # k2 Y+ {; s+ x' V' N! G
  20. Bits/(Pixel*Frame)                       : 0.268
    # _6 }- d5 j' Z5 A. i- W
  21. Stream size                              : 5.58 GiB (85%), F4 C; q2 ~1 u8 d3 L  h
  22. Writing library                          : x264 core 128 r2216 198a7ea' r2 v" c7 A6 M: K+ s/ U1 _/ j
  23. Encoding settings                        : cabac=1 / ref=5 / deblock=1:0:0 / analyse=0x3:0x113 / me=umh / subme=8 / psy=1 / psy_rd=1.00:0.00 / mixed_ref=1 / me_range=16 / chroma_me=1 / trellis=1 / 8x8dct=1 / cqm=0 / deadzone=21,11 / fast_pskip=1 / chroma_qp_offset=-2 / threads=12 / lookahead_threads=2 / sliced_threads=0 / nr=0 / decimate=1 / interlaced=0 / bluray_compat=0 / constrained_intra=0 / bframes=3 / b_pyramid=2 / b_adapt=2 / b_bias=0 / direct=3 / weightb=1 / open_gop=0 / weightp=2 / keyint=240 / keyint_min=24 / scenecut=40 / intra_refresh=0 / rc_lookahead=50 / rc=2pass / mbtree=1 / bitrate=10109 / ratetol=1.0 / qcomp=0.60 / qpmin=0 / qpmax=69 / qpstep=4 / cplxblur=20.0 / qblur=0.5 / ip_ratio=1.40 / aq=1:1.00
    $ |* z7 A0 @5 N
  24. Language                                 : English
    % O& \3 v9 y, f8 x2 W- f! y. q
  25. Default                                  : Yes5 |2 [3 c6 A& a# {- Q+ z# L
  26. Forced                                   : No
    " {! `' ], r  ?. |1 L; f2 n

  27. 3 V# o2 D5 D: I% `$ w6 o
  28. Audio: `! b& a2 J' L4 A7 {& @- E, `
  29. ID                                       : 2$ V0 a% J9 r' d3 ]" z  G  g& q
  30. Format                                   : DTS
    ! n2 q' Z- d  b7 D- ]: z
  31. Format/Info                              : Digital Theater Systems
    * t0 O3 Q- F; H! {$ f( d, a
  32. Mode                                     : 16' T; d5 Y, ?! E% J2 {  Q
  33. Format settings, Endianness              : Big
    ( P8 S5 w- f; a: F+ p. c
  34. Codec ID                                 : A_DTS
    : L; z, x4 G3 {& r4 x
  35. Duration                                 : 1h 20mn0 F8 I% L9 H4 }; R+ Q; o
  36. Bit rate mode                            : Constant+ Q/ s, E! D# h9 @  Z
  37. Bit rate                                 : 1 509 Kbps
    6 |; \/ Q! x4 `3 B0 H9 H+ d
  38. Channel(s)                               : 6 channels
    & {, K& F* x5 ~2 s, E2 V
  39. Channel(s)_Original                      : 2 channels, K* x% M! a9 S
  40. Channel positions                        : Front: L R
    8 J# v/ m' k7 k' D7 T2 w
  41. Sampling rate                            : 48.0 KHz3 K. t/ o$ X! d) r/ J. F/ G, _
  42. Bit depth                                : 24 bits
    % ~* X2 B7 t& w" H
  43. Compression mode                         : Lossy
    " c5 {1 Q+ k- f' w$ ~5 h
  44. Stream size                              : 872 MiB (13%)
    % K7 N2 e. g: O9 j
  45. Language                                 : English
    5 t, [1 E/ k/ j* J; _8 }3 z" m
  46. Default                                  : Yes
    0 s5 ^, a0 A% u% _" k
  47. Forced                                   : No* g  p4 m0 }. z! G% L1 _) p4 `
  48. - ^3 Q0 u4 Q+ p  D% ]! S
  49. Text- f& Z! o. n) W: I' b
  50. ID                                       : 34 @$ [& \/ \" U, W
  51. Format                                   : UTF-8
    ( w4 F( ~) J, ]
  52. Codec ID                                 : S_TEXT/UTF8
    9 l/ z; B: ]/ |) d. |  u# ?
  53. Codec ID/Info                            : UTF-8 Plain Text; K0 ]" h# `! C- R9 N
  54. Language                                 : English
    . z! D1 ?; G- n
  55. Default                                  : No
    # ~" K* ?9 O" P  q" F- v+ D
  56. Forced                                   : No
复制代码
7 x% w! z" _* G; P
Rope.1948.1080p.BluRay.X264-AMIABLE.mkv.jpg
6 H! e9 N; G  D6 C; W, I
游客,如果您要查看本帖隐藏内容请回复  捐助论坛可免回复查看隐藏内容 详情请点击
最近访问 头像模式 列表模式
HD一条街,身边的一条街。
发表于 2015-12-1 09:33:23 | 显示全部楼层
看题目像是惊悚片噢,下载看看
HD一条街,身边的一条街。
发表于 2015-12-1 09:34:42 | 显示全部楼层
谢谢分享,题材很好的悬疑片
HD一条街,身边的一条街。
发表于 2015-12-1 10:29:28 | 显示全部楼层
希区柯克的无穷想象力让人佩服
HD一条街,身边的一条街。
发表于 2015-12-1 12:25:37 | 显示全部楼层
多谢楼主分享
HD一条街,身边的一条街。
发表于 2015-12-1 13:37:41 | 显示全部楼层
谢谢分享,看看
HD一条街,身边的一条街。
发表于 2015-12-1 20:16:48 | 显示全部楼层
好老的片子啦,支持一下!!!
HD一条街,身边的一条街。
头像被屏蔽
发表于 2015-12-1 23:26:48 | 显示全部楼层
提示: 作者被禁止或删除 内容自动屏蔽
HD一条街,身边的一条街。
发表于 2015-12-2 00:04:49 | 显示全部楼层
感觉年代好老额,不看了
HD一条街,身边的一条街。
发表于 2015-12-2 08:09:03 来自手机 | 显示全部楼层
希区柯克的长镜头拍摄手法确实令人叫绝。
HD一条街,身边的一条街。
您需要登录后才可以回帖 登录 | 加入我们

本版积分规则

手机版|小黑屋|有问题发邮件到admin#(换成@)hd1tj.org|微博|免责申明|HD一条街

GMT+8, 2017-2-27 00:48

Powered by Discuz! X3.1

© 2001-2013 Comsenz Inc.

快速回复 返回顶部 返回列表