开启辅助访问 切换到窄版

HD一条街论坛

 找回密码
 立即注册
查看: 275|回复: 16

[1080p] 【希区柯克10大经典悬疑】夺魂索.Rope.1948.1080p.BluRay.X264-AMIABLE 6.56G

[复制链接]
发表于 2015-12-1 08:59:54 | 显示全部楼层 |阅读模式
本帖最后由 秦焉 于 2015-12-1 08:59 编辑 ; t. M6 Y2 s: z! G3 P

8 X2 X% @3 B, k# T& P" S- D p2154845412.jpg ' D+ y% G0 `9 s& p3 k; h
◎译  名 Rope6 i6 [' i9 J' b* B. s6 y' G, p8 t
◎片  名 夺魂索 / 绳索 / Alfred Hitchcock's Rope0 E0 y) ]( o" L
◎年  代 19482 q4 d, _. ?8 l. E- l9 i
◎国  家 美国8 v4 B, U- O- O! Y* j1 N; i
◎类  别 悬疑 / 惊悚 / 犯罪
+ ^# h& t3 \8 K2 ?* D1 A4 ]; v6 J◎语  言 英语
/ _0 k8 x0 z5 ?/ a% [2 l% y. a% B# e6 ^◎上映日期 1948-08-28$ x, m, h8 N( }% Z4 t
◎IMDb评分  8.0/10 from 90,411 users   
" `6 Y/ F* u& D3 h6 N, p! v5 _◎IMDb链接  http://www.imdb.com/title/tt0040746/  j) _2 y: }5 T/ m7 c, l: r- I0 K1 }
◎豆瓣评分 8.0/10 from 9,864 users
/ Y: r. g1 S( Z- G+ Z◎豆瓣链接 http://movie.douban.com/subject/1301230/
+ s# _% l5 H  `3 w- D◎片  长 80 分钟% @, Z; p/ s) F0 x/ O9 {9 s
◎导  演 阿尔弗雷德·希区柯克 Alfred Hitchcock. a% V" M6 P* V) m$ [
◎主  演 詹姆斯·斯图尔特 James Stewart2 I, j" z! Q3 k% }/ W
                   约翰·道尔 John Dall ; o- ]5 i# }/ P, S
                   法利·格兰杰 Farley Granger. s- \- P3 t/ Q4 Z6 j
                   琼·钱德勒 Joan Chandler
8 l6 N! d5 q, _1 ^% H" J9 G# z* k                   道格拉斯·迪克 Douglas Dick
- I8 N6 h- z( X) L4 O' L* C& Y0 R1 L6 q' `% {8 E
◎剧情简介
7 x) U4 w. r; Q4 }; y# C       博兰顿(约翰达尔John Dall 饰)和菲利普(法利格兰杰 Farley Granger 饰)都是哈佛的高才生,一天,都是同性恋的两人合谋杀害了同学戴维,并藏尸于一个大箱子中。或许是出于炫耀,他们做出了一个惊人的举动。那就是用装着戴维尸体的箱子当餐桌,邀请了戴维的父母、未婚妻、同学和茹伯特教授(詹姆斯斯图尔特 James Stewart 饰)来赴宴。他们谎称戴维外出了,和客人们在戴维的“棺材”上进行着宴会。胆小的菲利普从宴会开始就开始坐立不安,但是博兰顿却不慌不忙,在客人中滔滔不绝。然而,聪明的茹伯特教授从博兰顿的谈话中渐渐察觉出事有蹊跷……
( k, K8 u7 |9 s. }
' L0 q/ d4 H) L0 |3 \
6 t- U& Y7 n2 d: _# J$ E8 I◎幕后花絮
2 n! s* P& c# r4 [& F7 E3 E6 W7 L0 K; n. a) X
       本片根据著名案件改编,是希区柯克的一次大胆实验。希区柯克尤其钟爱长镜头,《夺魂索》中他把长镜头发挥到了极致,全片几乎不用剪辑,完全打破了蒙太奇的规则,没有切换,没有正反打,一个镜头从头到尾。影片的场面调度不容一点差错,好比舞台表演。希区柯克本人对它有特殊的感情。多年后,他要求销毁电影胶片,使观众长达20年无法看到本片。影史罕见的“一部电影只用一个镜头”的大胆实验,同时也是希区柯克的第一部彩色片。导演以流畅的镜头运动和无缝的剪接手法,将几个长达十多分钟的镜头巧妙地连接在一起。多数拍摄的衔接处采用了人物背部的全暗特写,但是仍有几处特意的镜头转换,很有冲击力。整部影片属于话剧加实验电影。该题材来自一个真实事件,1959年拍成《朱门孽种》(Compulsion,又译《凶杀学生》);1991年拍成《情迷意乱》(Swoon)。
! z4 i( I+ G7 G  Q
- T0 W& G9 z/ J; T◎制作手法  h; f9 D' o6 S! ]5 T7 O9 b

0 V" o" v, w" O& u' G5 U       电影预告片由于希区考克在本片采用单一镜头的手法拍摄,但是当时一卷35毫米长度的电影底片只能录约10分钟。所以整部影片分成10个部份连续拍摄,每一部份的时间略少于10分钟。摄影时,一旦前一卷胶卷用完,就将摄影机停机,镜头对准某位演员(或者沙发、墙角)的背影,再换上新的胶卷。此时是彩色电影的早期,摄影机非常庞大,为了迁就摄影机的行动,镜头外的道具摆设其实不停的被搬移。, T5 m0 S: W5 P) Q" J) a; a" }7 i
       《夺魂索》的悬疑,不在对事件的存疑,而是对剧中人物心理变化的不确定。所以事件的谜底一开始就让观众知道,让观众可以全心贯注于观察剧中人物,后来希区考克另一部经典《迷魂记》也采取这样的风格。在《夺魂索》中,观众耳里听到的对白,不见得是眼中所看到的人事物。亚弗列德·希区考克用镜头掌控观众的视线──以及心理情绪。此种方式与希区考克另一部经典《后窗》不同,《后窗》大部分是以男主角的主观镜头(SUBJECT)呈现。
0 \% L' Z. C1 i. s' ]; Q! c$ v
+ Q% q# [) y' j( L% y
  1. Video. g0 P+ N* x) }5 k7 g; d
  2. ID                                       : 1- E8 f8 k$ x8 v, N2 U4 g& n+ Q
  3. Format                                   : AVC
    * v% s; _2 F8 O8 h7 A$ b3 Z
  4. Format/Info                              : Advanced Video Codec
    9 T* \+ P0 ?  q; T8 V# Q3 ?( r
  5. Format profile                           : [email protected]% L0 q& `5 D' g+ J& ?
  6. Format settings, CABAC                   : Yes1 P; k/ R$ }% Y* u
  7. Format settings, ReFrames                : 5 frames
    - ?3 S% I4 H' W$ [* L1 Q
  8. Codec ID                                 : V_MPEG4/ISO/AVC! |1 N% J; p  X4 O; @4 V+ {
  9. Duration                                 : 1h 20mn
    1 y( D, j$ r( @' u, m# e
  10. Bit rate                                 : 10.1 Mbps
    1 g; K) G0 r/ ~( {9 C/ k6 e
  11. Width                                    : 1 456 pixels: y4 W, N1 x; Y" I) P
  12. Height                                   : 1 080 pixels
    * I) L4 D4 n4 n8 l- ]2 K* l; v: v
  13. Display aspect ratio                     : 4:3
    ) A% b1 h* ]7 u2 U4 s3 k7 P2 u
  14. Frame rate mode                          : Constant
    7 k' {8 o4 P6 s
  15. Frame rate                               : 23.976 fps
    2 b$ u4 H7 \- `2 U' t, T$ P
  16. Color space                              : YUV
    % {' b- c" h* g; y
  17. Chroma subsampling                       : 4:2:0$ r% u( D/ o* U2 ~4 d
  18. Bit depth                                : 8 bits
    4 z4 f/ Z! K: f" b: y) y5 [$ Y& D! W
  19. Scan type                                : Progressive6 H; P, ~6 T$ g& O% w8 ]
  20. Bits/(Pixel*Frame)                       : 0.268. H) X+ ~: K6 I/ H( k* i
  21. Stream size                              : 5.58 GiB (85%)7 \( V, o( G" u) O, s& x* O
  22. Writing library                          : x264 core 128 r2216 198a7ea+ G+ [6 f8 B. ?- d9 Z
  23. Encoding settings                        : cabac=1 / ref=5 / deblock=1:0:0 / analyse=0x3:0x113 / me=umh / subme=8 / psy=1 / psy_rd=1.00:0.00 / mixed_ref=1 / me_range=16 / chroma_me=1 / trellis=1 / 8x8dct=1 / cqm=0 / deadzone=21,11 / fast_pskip=1 / chroma_qp_offset=-2 / threads=12 / lookahead_threads=2 / sliced_threads=0 / nr=0 / decimate=1 / interlaced=0 / bluray_compat=0 / constrained_intra=0 / bframes=3 / b_pyramid=2 / b_adapt=2 / b_bias=0 / direct=3 / weightb=1 / open_gop=0 / weightp=2 / keyint=240 / keyint_min=24 / scenecut=40 / intra_refresh=0 / rc_lookahead=50 / rc=2pass / mbtree=1 / bitrate=10109 / ratetol=1.0 / qcomp=0.60 / qpmin=0 / qpmax=69 / qpstep=4 / cplxblur=20.0 / qblur=0.5 / ip_ratio=1.40 / aq=1:1.00  K, h# F7 s4 m; T
  24. Language                                 : English* l+ R0 Q8 i' M0 @
  25. Default                                  : Yes0 N. D: Q5 ]2 E, e9 k( L- H
  26. Forced                                   : No
    2 O( @$ M6 r2 ]$ E- d. P/ l

  27. 0 {1 d9 h3 c# z. l; t  Z: B( ?
  28. Audio6 C7 J5 [9 }% {: B+ T: j, y5 Z2 b
  29. ID                                       : 2
    2 t  }* N! Y) R# s/ V0 r
  30. Format                                   : DTS
    % _! N# n8 [% ^3 s
  31. Format/Info                              : Digital Theater Systems3 f/ s# L) d* n
  32. Mode                                     : 16
    ) X% \! y' R; h* L/ {! E  L
  33. Format settings, Endianness              : Big
    4 B/ I1 C4 V' y  ?' s# }
  34. Codec ID                                 : A_DTS0 w0 G. e: ^3 D1 o+ r7 t
  35. Duration                                 : 1h 20mn
    ! b7 A8 G& a' q
  36. Bit rate mode                            : Constant, n' t' A  T. f, c9 x7 z
  37. Bit rate                                 : 1 509 Kbps
      r7 \) ~* o0 ^' h9 H7 ?$ u, d
  38. Channel(s)                               : 6 channels. S% G9 l9 i- \- h
  39. Channel(s)_Original                      : 2 channels
    5 ^, ]! X* E, x6 b
  40. Channel positions                        : Front: L R# D* g- @/ \4 l$ F2 n0 D1 b& L
  41. Sampling rate                            : 48.0 KHz1 R7 ?3 X/ m# r! Z
  42. Bit depth                                : 24 bits
    & m8 V- E1 \, x/ ?
  43. Compression mode                         : Lossy& y/ `: Q# _  p9 r, u5 u* q
  44. Stream size                              : 872 MiB (13%)
    ; w/ p. z+ E9 f) z7 F: E
  45. Language                                 : English
    7 Y: T( y5 d1 C4 }
  46. Default                                  : Yes
    7 w  ?9 q, \( Q' G& w
  47. Forced                                   : No. ^% u6 _$ M2 d7 W- C' N" G

  48. 9 D- s' D$ Y, k1 m: b; P) G
  49. Text' ]/ ]6 O9 i2 G+ s) o( H
  50. ID                                       : 3
      \0 h8 l: I/ g$ t& n* Y4 [7 d
  51. Format                                   : UTF-8
    : y; N: f+ \8 D3 `
  52. Codec ID                                 : S_TEXT/UTF89 `8 B; v; z; p  K% }
  53. Codec ID/Info                            : UTF-8 Plain Text
    * h1 ]8 }$ K4 {& ~
  54. Language                                 : English" @7 `/ h1 S) M" m0 @" z5 }) O9 n2 T
  55. Default                                  : No
    ( p3 b& |5 T# ^& f4 N
  56. Forced                                   : No
复制代码

9 W5 {1 `5 X+ q- ^0 B& f Rope.1948.1080p.BluRay.X264-AMIABLE.mkv.jpg
: {0 J  k7 T* o+ J  D1 R
游客,如果您要查看本帖隐藏内容请回复  捐助论坛可免回复查看隐藏内容详情请点击
最近访问 头像模式 列表模式
HD一条街,身边的一条街。
发表于 2015-12-1 09:33:23 | 显示全部楼层
看题目像是惊悚片噢,下载看看
HD一条街,身边的一条街。
发表于 2015-12-1 09:34:42 | 显示全部楼层
谢谢分享,题材很好的悬疑片
HD一条街,身边的一条街。
发表于 2015-12-1 10:29:28 | 显示全部楼层
希区柯克的无穷想象力让人佩服
HD一条街,身边的一条街。
发表于 2015-12-1 12:25:37 | 显示全部楼层
多谢楼主分享
HD一条街,身边的一条街。
发表于 2015-12-1 13:37:41 | 显示全部楼层
谢谢分享,看看
HD一条街,身边的一条街。
发表于 2015-12-1 20:16:48 | 显示全部楼层
好老的片子啦,支持一下!!!
HD一条街,身边的一条街。
头像被屏蔽
发表于 2015-12-1 23:26:48 | 显示全部楼层
提示: 作者被禁止或删除 内容自动屏蔽
HD一条街,身边的一条街。
发表于 2015-12-2 00:04:49 | 显示全部楼层
感觉年代好老额,不看了
HD一条街,身边的一条街。
发表于 2015-12-2 08:09:03 来自手机 | 显示全部楼层
希区柯克的长镜头拍摄手法确实令人叫绝。
HD一条街,身边的一条街。
您需要登录后才可以回帖 登录 | 立即注册

本版积分规则

手机版|小黑屋|有问题发邮件到admin#(换成@)hd1tj.org|微博|免责申明|HD一条街

GMT+8, 2016-12-9 23:31

Powered by Discuz! X3.1

© 2001-2013 Comsenz Inc.

快速回复 返回顶部 返回列表