开启辅助访问 切换到窄版

HD一条街论坛

 找回密码
 立即注册
搜索
查看: 371|回复: 11

[1080p] 【希区柯克10大经典悬疑】后窗.Rear.Window.1954.1080p.BluRay.x264-AMIABLE 8.75G

[复制链接]
发表于 2015-12-1 08:58:19 | 显示全部楼层 |阅读模式
本帖最后由 秦焉 于 2015-12-1 12:40 编辑 * `8 G5 s% _6 Q' S
9 X" r; _0 ~, a4 x4 n" K+ |( L7 {
p1936538293.jpg 8 W6 P* N0 ~; t9 g# F5 `1 f
◎译  名 Rear Window) C- h. ]" Z2 S8 E
◎片  名 后窗 / Alfred Hitchcock's Rear Window / Fenêtre sur cour
! s' \7 x- G0 q  h) W$ i1 a3 `7 z◎年  代 19547 v% q& X" V+ U' w0 L' D
◎国  家 美国
' `& M) [! j6 Q' x) \5 R  ~+ h◎类  别 悬疑 / 惊悚8 L* ?( ]3 g; ?6 j% {! R% P
◎语  言 英语
. b3 H8 S' I$ x4 X) A, P◎上映日期 1954-08-01
4 P- M; M9 }+ R( N1 Q5 ~3 I◎IMDb评分  8.5/10 from 292,111 users
' _( ^! I+ r9 n, ~7 v4 y) ?◎IMDb链接  http://www.imdb.com/title/tt0047396/: J+ `0 U# R# a# Y
◎豆瓣评分 8.4/10 from 51,454 users2 Z0 |# z- G  b! L/ d
◎豆瓣链接 http://movie.douban.com/subject/1299080/
" P) i: E* }: \8 m◎片  长 112 分钟2 C, P1 }% Y$ w
◎导  演 阿尔弗雷德·希区柯克 Alfred Hitchcock* r$ N: u# V+ \
◎主  演 詹姆斯·斯图尔特 James Stewart
* d# C% `) D* z& Y# }                   格蕾丝·凯利 Grace Kelly) I' f( ^6 N3 J' |1 B
                   温戴尔·柯瑞 Wendell Corey/ C7 i* e) ~) n$ a3 ]9 B
                   瑟尔玛·瑞特 Thelma Ritter; ^5 R# Q8 h$ m4 H
                   雷蒙德·布尔 Raymond Burr
4 s9 D  I# g1 [3 X6 N! v$ g5 x$ E# Q+ W
◎剧情简介
4 S# p& g% e) D0 ]1 U5 ^5 m  w$ j  杰弗瑞(詹姆斯·斯图尔特 James Stewart饰)是一个摄影记者,他喜欢冒险,到各地周游拍摄。一次意外令他的脚受了伤,现在他必须安心在家养病,日常生活由护理工和时尚靓丽的女友(格蕾丝·凯利 Grace Kelly饰)料理。时值炎夏天气,为了清凉透气家家窗户大开,观察对面楼座上各色家里各色人物每天的生活成为杰弗瑞派遣无聊的妙方。 & i$ ?% y0 ~5 R1 z( K( \
  其中一个家庭是商人和他的妻子。妻子卧病在床,二人常常吵架。然而异常的事件接连发生了。杰弗瑞注意到商人在一个晚上出去了三回,次日早上整理一堆锯和刀。而邻居的小狗,也对楼下的花坛又刨又挖,不久被人残忍地拧断脖子。而商人的妻子,也已失踪了几天。 - q7 f- q2 X* k1 R- e( Z
  事件越来越离奇,让敏锐的杰弗瑞对商人起了疑。但是他的伤腿又无法行动,于是女友与好友一同加入了这个刺激的破案计划。9 {1 X0 w- a1 j1 ^, u$ p3 V3 M

0 j+ R  d, U4 D$ a9 I8 l◎幕后花絮' M% C- d6 R+ ^0 K& y

& a* {3 F) [$ p7 e  |  在历时一个月的拍摄过程中,饰演托索小姐的乔琴·达西全天都呆在片场,休息时间也住在电影人物居住的公寓内。2 M& Y. C1 h' Z. e
  影片除了接近尾声时一对夫妇的镜头和发现死狗的镜头外,其它镜头都是通过杰弗瑞公寓的窗户拍摄。拍摄过程中,希区柯克在杰弗瑞的公寓中工作。对面公寓中其他演员都戴着肉色耳机,以便希区柯克能直接与他们沟通。
) R, r5 ]* M+ z  为了能在四十五分钟内任意改变白天与黑夜,剧组使用了一千盏电弧灯来摹拟太阳光。在拍摄过程中,炽热的灯光让人难以忍受,工作人员不得不启动摄影棚的洒水系统来降温。+ `' G* W  C+ [- h" `
  希区柯克之所以决定由雷蒙德·伯尔扮演苏先生,是因为雷蒙德·伯尔只需稍加化妆,就很像希区柯克的制片人大卫·塞尔兹尼克。希区柯克觉得大卫对他的干涉过多,所以要借此报复一下[6]  。& J# q: {2 _( C5 ^2 t- v
  希区柯克为格蕾丝·凯莉亲自设计了《后窗》中的戏服;每一件道具都特别定制,从颜色到材质,都在剧本中敲定[7]  。
2 S1 Y8 w+ i3 w6 X
  C1 V  Z( v( l9 [" ^
9 U$ ]9 n6 k' n% C◎影片评价8 K% \. k& r* m; T) |" P: f
' ^; A: i/ x. `3 D2 r! @6 c5 j
  《后窗》是悬疑影片的代表作之一。该片成功地制造出恐怖与悬念的气氛,形象地发掘出个人内心深处隐藏着的偷窥心理与欲望(时光网评)  。影片包含了希区柯克擅长的所有技巧和手法,也是“偷窥”主题表现得最淋漓尽致的一部电影。该片不仅让观众看到生活和人性隐秘的一面,也给后来的许多电影导演提供了一个可以模仿的范本(《时代周报》评)。
$ B! T# r, d: R& V  《后窗》把偷窥与谋杀进行饶有兴味地组合,是希区柯克后期作品的典范。平凡生活背后的谋杀,带着些微阴暗面的幽默,精巧的故事设计,出人意料难以预测的结局,都深深打上了希区柯克作品的烙印。影片开头一大段偷窥的描绘悠闲自得,丝毫没有大部分惊险影片的凌厉之气。接下来的情节峰回路转跌宕起伏,所有的线索都等待着观众去推想。此外,杰弗瑞用闪光灯拖延间的情节设计也显示出了导演心思的巧妙(新浪网评)。# }8 N& L% C% F2 h1 Y
  《后窗》是世界最伟大的电影之一(《旧金山编年史》评)。它是一部机关重重的电影,但是观众又很难发现任何机关(《阿波罗电影导航》评)。该片不仅包含对于窥视欲的思考,还涉及了对于爱情的深刻理解。在电影中,观众可以看到寂寞的单身女人和音乐家,一对年轻恩爱的夫妻以及每天争吵的推销员夫妇,还有不断为结婚扯皮的杰弗瑞和丽莎。该片其实是一部爱情婚姻三部曲:未婚的人孤寂幽幻,新婚的人欢乐甜蜜,经受长久婚姻折磨的人则兴味索然(新浪网评)。4 V: O  Z, @; v3 x7 \% n9 K
  在《后窗》中,希区柯克将自己凝练的风格和坚持以电影语言叙事的方法发扬广大。开篇的第一个场景虽然没有任何文字方面的描述,但是观众却通过电影镜头了解到主人公的身份是一个摄影记者。这样的表现手法是最纯粹的电影叙事手法,然而凝练的风格不等于简单和单调。对于《后窗》中男主人公对面公寓楼里居民的活动,希区柯克数次通过镜头从全景到细节逐一展现,而大多数情节却和影片的故事主线——养伤的摄影家发现并追查一起杀妻案毫无关联。这部电影并没有快节奏的讲述一个惊险的犯罪故事,因为电影的主题除了谋杀案之外,还有男主人公在现实生活中的“偷窥”。尽管只有少量的镜头,但希区柯克却将不下十个小故事讲述的兴味盎然,展现出一幅浓缩了的社会图景(新浪网评)。' D* y* o1 v/ G$ G0 l
. @3 r+ q. _& V
5 ]3 |: P  f' \) S' D+ g0 P
, ]. h/ I4 a( e8 p
  1. Video; @4 }3 T  d" r7 q$ w& B
  2. ID                                       : 1' x6 O0 g; B3 _( e# ^
  3. Format                                   : AVC
    & W8 }+ O9 [& N+ ]5 s7 g2 H" U% ~; c
  4. Format/Info                              : Advanced Video Codec
    , \. \8 D0 y# L9 J
  5. Format profile                           : [email protected]
    - p$ G8 W1 w  `; P2 `6 v; q0 l) [* y( O
  6. Format settings, CABAC                   : Yes
    5 V4 H5 [: u) s
  7. Format settings, ReFrames                : 4 frames% f7 G. [8 C0 o- S% z
  8. Codec ID                                 : V_MPEG4/ISO/AVC
    * w- a. l8 Z0 ]* W
  9. Duration                                 : 1h 52mn! N" J9 O9 P* [, i, U
  10. Bit rate                                 : 9 614 Kbps
    - _# r0 p- E( |( o# _/ |
  11. Width                                    : 1 792 pixels2 F8 y5 x. m6 [5 o7 }6 q5 l+ w0 \
  12. Height                                   : 1 080 pixels
    & {/ [9 a8 c  m. `% L" j( ~- X$ x
  13. Display aspect ratio                     : 5:3. F7 ?0 G  q8 M) L/ G
  14. Frame rate mode                          : Constant
    : O  R9 }0 E8 d7 F+ t( E! _# U9 U2 i
  15. Frame rate                               : 23.976 fps7 R2 `7 B) A% J' d1 l4 Q
  16. Color space                              : YUV1 m; P+ E$ C4 h
  17. Chroma subsampling                       : 4:2:0
    ! y* E/ W5 B- s
  18. Bit depth                                : 8 bits
    9 s& ^. Y9 [/ n7 @- b- x* n
  19. Scan type                                : Progressive
    3 E, l. g9 r' I& Q4 X8 C
  20. Bits/(Pixel*Frame)                       : 0.207' f: V1 a) q6 B9 ]9 ^
  21. Stream size                              : 7.39 GiB (84%)
    ) I3 y0 H( R0 Y: R% O5 m
  22. Writing library                          : x264 core 128 r2216 198a7ea
    " V/ O7 O  x5 j
  23. Encoding settings                        : cabac=1 / ref=4 / deblock=1:0:0 / analyse=0x3:0x113 / me=umh / subme=8 / psy=1 / psy_rd=1.00:0.00 / mixed_ref=1 / me_range=16 / chroma_me=1 / trellis=1 / 8x8dct=1 / cqm=0 / deadzone=21,11 / fast_pskip=1 / chroma_qp_offset=-2 / threads=12 / lookahead_threads=2 / sliced_threads=0 / nr=0 / decimate=1 / interlaced=0 / bluray_compat=0 / constrained_intra=0 / bframes=3 / b_pyramid=2 / b_adapt=2 / b_bias=0 / direct=3 / weightb=1 / open_gop=0 / weightp=2 / keyint=240 / keyint_min=24 / scenecut=40 / intra_refresh=0 / rc_lookahead=50 / rc=2pass / mbtree=1 / bitrate=9614 / ratetol=1.0 / qcomp=0.60 / qpmin=0 / qpmax=69 / qpstep=4 / cplxblur=20.0 / qblur=0.5 / ip_ratio=1.40 / aq=1:1.009 M3 r  K" ]: l% Z6 F, \) K! E1 s
  24. Language                                 : English+ N9 Y8 B5 A* Q' F
  25. Default                                  : Yes+ N* x. T9 R" ?7 T# p+ M# |. Y
  26. Forced                                   : No
    6 ~- ?7 v* a2 I3 I, B
  27. / X9 ~( c7 h6 i9 r5 V
  28. Audio
    6 ]5 @* ^5 u$ h( m
  29. ID                                       : 2' ~; L1 c- F* r
  30. Format                                   : DTS
    9 d% `& |: G+ r" w; [
  31. Format/Info                              : Digital Theater Systems! x) R8 l3 e& S& E1 R: N. n7 G9 i, N( K
  32. Mode                                     : 168 O( |% ^1 @- b6 ?; P2 Z8 }
  33. Format settings, Endianness              : Big+ x7 k/ H/ ^/ Y1 J
  34. Codec ID                                 : A_DTS
    2 i0 L& P/ u0 W  `* l. P9 D
  35. Duration                                 : 1h 52mn
    ( [6 }% A) g, e1 p6 q& J4 v8 v  @
  36. Bit rate mode                            : Constant5 A7 s) \% l3 b, n' F
  37. Bit rate                                 : 1 509 Kbps
    2 s4 R: ]1 g2 U% u9 o* |
  38. Channel(s)                               : 6 channels
    6 i" g+ C% X# I5 I
  39. Channel(s)_Original                      : 2 channels
    , y2 L: y' V; ?7 w. n* C
  40. Channel positions                        : Front: L R6 R! Y, ?6 i8 E9 D/ t
  41. Sampling rate                            : 48.0 KHz
    9 E$ p2 S+ j" u3 q8 y' T5 Z
  42. Bit depth                                : 24 bits# U- {5 b  ?1 k& v3 C: K; e( O
  43. Compression mode                         : Lossy
    $ y) V+ u+ F; l
  44. Stream size                              : 1.19 GiB (14%)
    & E8 ?% u3 B& [! T
  45. Language                                 : English
    & Q5 I5 a1 }! c0 L+ l) m# o
  46. Default                                  : Yes
    ' o' |& V; s& x- n: P! P2 N
  47. Forced                                   : No
      W8 @# A  C& ?& ^; e9 d2 c
  48. - S' _2 E; I1 W9 S( A$ Q
  49. Text
    2 W1 K; }0 ^' d' U) ]
  50. ID                                       : 35 {" |5 H7 t2 ~& f' T
  51. Format                                   : UTF-8+ r4 E! ]5 c! z4 }  ^" v
  52. Codec ID                                 : S_TEXT/UTF8( y3 ^+ D  Z0 R" j8 _. j; l  Y- b$ u
  53. Codec ID/Info                            : UTF-8 Plain Text
    - c/ N  C' o/ E+ {+ B) _% W! g
  54. Language                                 : English
    , G; R/ Y. A1 G
  55. Default                                  : No
    . b4 s! E: _4 X; Y" u# Z
  56. Forced                                   : No
    ; H1 b, t, {% _% q, p
  57. , u3 m5 b4 r; E( h1 ?
  58. Menu9 r+ ~' E* X& d8 m3 o( |1 R
  59. 00:00:00.000                             : en:00:00:00.000, ?  b7 `$ l# O( C
  60. 00:01:36.388                             : en:00:01:36.388) S# n, r/ t& Q& F
  61. 00:08:29.384                             : en:00:08:29.384
    - I, `1 a( o% H$ M
  62. 00:15:37.895                             : en:00:15:37.8957 ^6 O  I+ E  L
  63. 00:21:26.285                             : en:00:21:26.285+ k# V4 j+ {7 W# Q3 `
  64. 00:27:13.423                             : en:00:27:13.423
    * A% k9 b/ ?/ J+ Q) E8 ]
  65. 00:32:01.211                             : en:00:32:01.211
    * m, p1 D: l" e6 `
  66. 00:36:38.863                             : en:00:36:38.863
    1 O. Z0 M# h& i; n5 _* D
  67. 00:43:05.041                             : en:00:43:05.041
    0 M% d; n# Z; l6 [/ C4 ]
  68. 00:53:40.426                             : en:00:53:40.426
    ' P& S7 z) O% S3 l, N( i6 ?
  69. 01:00:52.566                             : en:01:00:52.566
    0 w  ^5 c( T7 Z1 X; M. K* _& p) O
  70. 01:12:25.508                             : en:01:12:25.508) |6 Z  v( u1 h* q3 Q1 N- c' u% E
  71. 01:18:46.221                             : en:01:18:46.221% }0 v7 v. T  F( {- C
  72. 01:25:06.893                             : en:01:25:06.893
    + V/ o. i- d! j2 F8 N
  73. 01:37:26.299                             : en:01:37:26.299
    0 Y: Z" X- y& I8 `
  74. 01:44:56.081                             : en:01:44:56.081$ X( I" {: N) a' |$ {
  75. 01:50:35.921                             : en:01:50:35.921; D0 y. y8 |3 r$ y/ O3 R- |
复制代码
! K7 f6 f* h, m5 U1 S; q; x: r
Rear.Window.1954.1080p.BluRay.X264-AMIABLE.mkv.jpg % p/ t0 E& B/ V4 ?4 A1 H, Z: S+ P
游客,如果您要查看本帖隐藏内容请回复  捐助论坛可免回复查看隐藏内容 详情请点击
最近访问 头像模式 列表模式
HD一条街,身边的一条街。
发表于 2015-12-1 09:34:37 | 显示全部楼层
1954年的电影好吧,这个也下来看看
4 M2 P! v1 @- ]; ~+ I$ l9 c  f感觉18禁啊
HD一条街,身边的一条街。
发表于 2015-12-1 10:30:44 | 显示全部楼层
经典就是永远被模仿,从未被超越
HD一条街,身边的一条街。
发表于 2015-12-1 12:28:27 | 显示全部楼层
感谢楼主分享
HD一条街,身边的一条街。
发表于 2015-12-2 08:20:57 来自手机 | 显示全部楼层
这部是希区柯克的悬疑电影经典代表作,收藏起来。
HD一条街,身边的一条街。
发表于 2015-12-2 20:34:46 | 显示全部楼层
谢谢楼主免费分享老电影
HD一条街,身边的一条街。
lxf83th 该用户已被删除
发表于 2015-12-3 17:46:06 | 显示全部楼层
提示: 作者被禁止或删除 内容自动屏蔽
HD一条街,身边的一条街。
发表于 2015-12-4 23:19:47 | 显示全部楼层
被翻拍过好几次的经典
HD一条街,身边的一条街。
louise7255 该用户已被删除
发表于 2015-12-10 08:24:03 | 显示全部楼层
提示: 作者被禁止或删除 内容自动屏蔽
HD一条街,身边的一条街。
头像被屏蔽
发表于 2015-12-29 15:53:34 | 显示全部楼层
提示: 作者被禁止或删除 内容自动屏蔽
HD一条街,身边的一条街。

手机版|小黑屋|有问题发邮件到admin#(换成@)hd1tj.org|微博|免责申明|HD一条街

GMT+8, 2017-4-24 17:25

Powered by Discuz! X3.1

© 2001-2013 Comsenz Inc.

快速回复 返回顶部 返回列表