开启辅助访问 切换到窄版

HD一条街论坛

 找回密码
 加入我们
查看: 181|回复: 5

[1080p] 【希区柯克10大经典悬疑】电话谋杀案.Dial.M.for.Murder.1954.1080p.BluRay.X264-AMIABLE 6.94G

[复制链接]
发表于 2015-12-1 08:56:30 | 显示全部楼层 |阅读模式
本帖最后由 秦焉 于 2015-12-1 09:01 编辑 0 s) i7 S* `/ N) d
! Q& y' E" j' ]6 G! p8 n1 p+ B3 h
p1736837265.jpg
7 s0 b, d# _; K0 g9 u6 |◎译  名 Dial M for Murder1 _* n5 G2 F' X. N
◎片  名 电话谋杀案 / 电话情杀案
7 c7 T9 ?: T- P$ j5 R  z6 _/ w◎年  代 1954+ c# t+ r3 q* q. \/ e5 ]0 z
◎国  家 美国( P2 O# Z9 o3 s
◎类  别 悬疑 / 惊悚 / 犯罪
& y7 i! n$ N6 k+ r/ z  ~◎语  言 英语; N6 k" V% X: I& r
◎上映日期 1954-05-29(美国)
$ h* O4 S. P$ M. U0 _% \$ f◎IMDb评分  8.2/10 from 96,906 users  
4 k  |5 j8 N2 q7 `5 Z◎IMDb链接  http://www.imdb.com/title/tt0046912/
9 M2 _% F% f' @- I% o% ?◎豆瓣评分 8.6/10 from 15,140 users
. e" X: n& V! w) f" j4 y' o◎豆瓣链接 http://movie.douban.com/subject/1301231/6 l8 ~0 W# H6 Y4 d: A& G# z$ ]: T
◎片  长 105分钟 / 88分钟(葡萄牙)% o- o& F- n' x* m6 _0 x1 H1 ^
◎导  演 阿尔弗雷德·希区柯克 Alfred Hitchcock. R5 B- w* q! m  X4 j  j  E
◎主  演 雷·米兰德 Ray Milland; g* T3 L6 Y4 N  z' g
                   格蕾丝·凯利 Grace Kelly$ n7 a) N$ m+ V, P! c
                   罗伯特·卡明斯 Robert Cummings
1 A3 X# E1 y! y                   约翰·威廉姆斯 John Williams
& w1 f) ^% h: D3 p                   安东尼·道森 Anthony Dawson, o+ U) v. i! M1 q& w! |0 s! y
: t  v3 w( d6 j8 A* v4 F$ h- a
◎剧情简介- A* o8 P  V& u4 C. u

$ ~3 Y6 Z9 W7 Q2 I, l6 U       汤尼(雷·米兰德 Ray Milland饰)和玛戈(格蕾丝·凯利 Grace Kelly 饰)是貌合神离的一对夫妻。汤尼常常为了他的事业和爱好,把娇妻忘在一边,二人感情亮出红灯。而生活寂寥的玛戈和作家马克不可避免的擦出爱之火花,他们约会、通信,不料竟被汤尼发现。汤尼没有 声张,只是写了一封匿名信给妻子以示警告。然而现在马克竟然造访家中,为了一雪耻辱,加之图谋得到妻子玛戈的丰厚财产,汤尼暗生毒计。 汤尼向旧时同学列斯开出了一千英镑的价钱,让其参与他布下的一整套严密杀人计划。这套计划有设计精妙的凶手不在场证据,电话、钥匙,窗帘,统统成为这个阴谋的道具设置。然而计划终究赶不上变化,列斯不但得不到赏金,还要赔上自己的性命。而汤尼却也急中生了智……
* j( n1 Q( k. q, f) Y' _3 @# Y0 n# `% L/ N
◎幕后花絮
  N) b- t" E, w4 C1 x
/ ]: ^- d9 V  d3 C! R$ o- G       这部电影的拍摄日期只有36天,比《惊魂记》的拍摄周期还要短一天。& T  `% V# j$ u) B
       希区柯克这样形容他反对最佳女主角,格蕾丝·凯利:"她是一个外表冷若冰霜的金发女郎,内心里却欲火熊熊。"很快,格蕾丝·凯利就成为希区柯克一家最好的朋友。即使后来淡出影坛,每次格蕾丝·凯利和她的摩洛哥王子来好莱坞的时候,他们依然是被希区柯克邀请到家里就餐的少数几个人中的一对儿。
& B" `8 W5 n6 b3 h7 H       希区柯克在影片开始的13分钟出现在托尼大学聚餐会的一张照片中。0 [0 y, W: `' h& l1 N& f9 S
       希区柯克是IMDB排名上榜影片最多的导演,共有8部电影排进了前250名。+ r: ]3 Y) ?# ]. e" D% O; p3 d
       希区柯克在电影的开始部分让格蕾丝·凯利穿上明亮欢快的衣服,随着电影的推进,格蕾丝·凯利的衣服的颜色也越来越深。- |0 v* Z$ l9 r" p1 K" ~
       希区柯克和摄影师Robert Burks最初将电影拍成了立体电影,以这种手法来拍摄的话就得增强空间感和距离感。为了避免事物向观众猛扑过去的感觉,他们力图使场景的设置有纵深感,并且对重要的布景打上了灯光,如玛戈的钱包,或者是电话。这样做的惟一缺陷就在于,尽管在立体银幕上放映时一切正常,但在普通银幕或家庭放映时就会显得混乱拥挤。
! v; U1 z) o# G2 m
+ i, g; K0 i* m" K◎幕后制作
$ O  X# z. t4 z# \
$ ?" }: E( ?1 T" I& ]! q  1954年的《电话谋杀案》根据弗雷德里克·诺特(Frederick Knott)的舞台剧改编,电影并不被认为是希区柯克最好的作品,评论家总是倾向于那些更具心理分析和戏剧性的情节剧,但他们没有注意到,这部作品已被划归为经典作品之一。( s4 }7 z: D" z# _  p- [- z+ T$ Y3 ]; F
  《电话谋杀案》是首次采用立体电影技术拍摄的影片。该片可定义为希区柯克的一个“U形转弯”,影片的设计与反设计、假定与反假定的巧妙布局和解局足以使这部影片永留史册。整个故事情节的完整和周密,是编剧技巧的体现,也是希区柯克导演功力的证明。而谋杀开始之前一段计划与变化的冲突,是希区柯克最精彩的段落之一,展示出大师将紧张赋于幽默之中的高深功力。而最后的翻案也是丝丝入扣,毫不牵强但又十分精彩,构思之巧妙也是希区柯克影片中的极品。电影开头部分冗长的阐释似乎可以忽略,甚至恶棍的身份在20分钟的时间里被揭示出来也无关紧要。电影将会把你拉向悬念的边缘,并让你始终呆在那里。稍不留意,你就会跟不上峰回路转的情节。希区柯克的导演技巧在此片达到了完美的境地,对于那些执导神秘片的导演来说,此片是一个绝佳的范本。希区柯克只提供了对于谋杀极为关键的细节和举措,和恰倒好处的注意力。
1 T& s8 E% ~8 u0 S% s# j! U+ j( G0 n  希区柯克紧紧抓住了舞台上那种整洁的场景和渲染气氛的手法。他将室外的拍摄减到了极点,除了宾馆和汽车,拍摄地点几乎没有离开过那套公寓,一般这类场景易于引发幽闭恐怖症,但希区柯克却将场景布置得令人熟悉亲切。就像一出只需两块背景布、若干道具就能演下来的话剧,导演的功力可见一斑。而且,镜头的运用十分干净简洁,精心设计的对白增一分嫌多,少一分嫌少。如果说《绳索》只是一次简单的尝试,那《电话谋杀案》就是一场舞台表演的完美演绎。+ X- y5 o6 _* O  v+ \7 `+ F4 y
  这部作品同时是希区柯克事业上的一个标志--他终于找到了他的最佳女主角:格蕾丝·凯利。希区柯克喜欢启用那些金发碧眼的漂亮女演员担任主角,在这部戏中格蕾丝·凯利比任何人都更胜任这个主角的位置,她的面部表情在影片中非常细腻丰富,喜怒哀乐呈现得惟妙惟肖。于是,希区柯克从多角度对她的面部进行了拍摄。凯利塑造的角色虽身处危险境地,意志却越来越坚强。在此之后,希区柯克一系列伟大的作品诞生了,比如《后窗》。
! F* P+ x1 b+ B; Q' Y& O/ ?7 P& }7 F  男主角托尼的主演是奥斯卡影帝雷·米兰德,1945年凭借《失去的周末》一片获得奥斯卡小金人。抛去他在影片中扮演的坏蛋角色不说,雷·米兰德的演技还是挺棒的,时常挂在嘴角边的一丝不意察觉的微笑反映了托尼内心的老奸巨滑。
4 l  D# C0 W. j0 i& B4 K" }: g4 f4 m
- ^) |8 T! J" |0 R( O8 J
  1. Video1 m. g# p) E. B7 V, R6 D' G
  2. ID                                       : 1
    / ?3 G. ?0 @+ L5 e9 ^
  3. Format                                   : AVC+ c9 }2 n  X" F5 i7 ^; X9 E
  4. Format/Info                              : Advanced Video Codec6 q8 O* }- M! Z6 s
  5. Format profile                           : [email protected]
    . x/ p- V( G5 J; ~/ X+ s7 B
  6. Format settings, CABAC                   : Yes
      s2 C4 u9 X5 r& `3 j
  7. Format settings, ReFrames                : 4 frames" [, @: X, F8 E; n. O
  8. Codec ID                                 : V_MPEG4/ISO/AVC* a3 _2 T+ `7 v$ ^
  9. Duration                                 : 1h 45mn
      i% k8 U$ w; P/ k4 v  w
  10. Bit rate                                 : 9 625 Kbps: ?; K5 Y+ q5 @; u  d/ F9 l
  11. Width                                    : 1 920 pixels
    ' }9 n5 ^2 L7 I* N
  12. Height                                   : 1 080 pixels! T! `$ X$ l9 [! V0 u
  13. Display aspect ratio                     : 16:9; E$ w& w* ~# k' H
  14. Frame rate mode                          : Constant
    % T7 _' ]% h: n6 I, ~
  15. Frame rate                               : 23.976 fps( O, c/ A3 Z, ~2 w9 S3 t
  16. Color space                              : YUV2 q3 O  {/ s- ?9 s3 ^; g
  17. Chroma subsampling                       : 4:2:0
    $ R( g+ u( l. R9 {3 V: L# K
  18. Bit depth                                : 8 bits6 @8 H0 O  e. m# S- H
  19. Scan type                                : Progressive
    " y1 ~6 E( {8 Q' T, x% u5 ?
  20. Bits/(Pixel*Frame)                       : 0.194, f" D/ \* u; Z; ]$ {! M# f
  21. Stream size                              : 6.94 GiB (91%)' x! S$ O4 ^' a% {& M# g: C" N
  22. Writing library                          : x264 core 125 r2208 d9d22887 U0 N/ {! T* Y! A8 l' r
  23. Encoding settings                        : cabac=1 / ref=4 / deblock=1:0:0 / analyse=0x3:0x113 / me=umh / subme=8 / psy=1 / psy_rd=1.00:0.00 / mixed_ref=1 / me_range=16 / chroma_me=1 / trellis=1 / 8x8dct=1 / cqm=0 / deadzone=21,11 / fast_pskip=1 / chroma_qp_offset=-2 / threads=12 / lookahead_threads=2 / sliced_threads=0 / nr=0 / decimate=1 / interlaced=0 / bluray_compat=0 / constrained_intra=0 / bframes=3 / b_pyramid=2 / b_adapt=2 / b_bias=0 / direct=3 / weightb=1 / open_gop=0 / weightp=2 / keyint=240 / keyint_min=24 / scenecut=40 / intra_refresh=0 / rc_lookahead=50 / rc=2pass / mbtree=1 / bitrate=9625 / ratetol=1.0 / qcomp=0.60 / qpmin=0 / qpmax=69 / qpstep=4 / cplxblur=20.0 / qblur=0.5 / ip_ratio=1.40 / aq=1:1.00
    6 [- ?: p# |5 w  t; H
  24. Language                                 : English8 I& L5 I7 l2 ~# V- {
  25. Default                                  : Yes
    6 _/ U& s* Z3 x" Q
  26. Forced                                   : No, E3 |6 }* {! v# G
  27. : W% Z! ~- _: ^! C* r- K% p
  28. Audio
    # E! ^: L# }5 w! W
  29. ID                                       : 2+ V7 a9 A- \, h9 x' h. @
  30. Format                                   : DTS
    ; u9 m) R9 S5 r* y( y; Y
  31. Format/Info                              : Digital Theater Systems
    0 m$ N* e) c( V( G1 ^3 G6 c  m
  32. Mode                                     : 16, I0 _! X0 y, j6 Y' ?- V4 H; g6 [
  33. Format settings, Endianness              : Big
    + R/ Z  \5 a) n- f; r6 s2 ^) A
  34. Codec ID                                 : A_DTS+ M1 k9 X0 \% O7 S) v( k% H) \. O1 `# U( K
  35. Duration                                 : 1h 45mn
    * B' ~) G+ r  q8 k" q
  36. Bit rate mode                            : Constant
    + [; T; R$ h! J2 J* Z  O* P* |* o
  37. Bit rate                                 : 768 Kbps8 w2 U+ Y# t  {& n  k
  38. Channel(s)                               : 6 channels
    . u, o2 a, ^4 X' m+ Q0 U
  39. Channel(s)_Original                      : 1 channel2 V! T- Q4 A9 q/ N2 q$ B
  40. Channel positions                        : Front: C4 k! s/ ~. w% ]  w: n
  41. Sampling rate                            : 48.0 KHz5 R/ K1 P; f! {& J, A$ W/ o+ H
  42. Bit depth                                : 24 bits* N7 n+ Q+ M1 v$ j- d2 t
  43. Compression mode                         : Lossy
    3 \  v4 }$ _. X
  44. Stream size                              : 579 MiB (7%)
    ' h% P6 ~- t) _: h0 a6 e1 q0 H
  45. Language                                 : English  D. n1 O& m* b: E
  46. Default                                  : Yes
    $ t" E* |4 l" S+ [
  47. Forced                                   : No% L$ Q# c8 s9 k* H# R9 o- N
  48. * ~+ K) _" l* ?7 W
  49. Text% m+ c2 J) N( X  U- E; [& y
  50. ID                                       : 3
    0 d& t' K4 N  W3 @; Z, s
  51. Format                                   : UTF-8% L5 A: l6 m5 D5 q5 H
  52. Codec ID                                 : S_TEXT/UTF8# ?' M+ I  H" d+ ^3 a
  53. Codec ID/Info                            : UTF-8 Plain Text
      B! L$ e, ]4 `7 e+ t
  54. Language                                 : English* h2 x2 B2 H( O( d" v: R
  55. Default                                  : No
    + {  H- V! v/ N9 V" ^# x3 I
  56. Forced                                   : No
    7 t4 D& G8 Z5 Q$ [! Q5 B

  57. ; X) Q1 ?" e  b/ K
  58. Menu" z, T1 E9 ]) c! [2 l" O% r4 J+ ]/ l
  59. 00:00:00.000                             : en:00:00:00.000/ c( Y& L- M3 h. N$ F
  60. 00:01:09.069                             : en:00:01:09.069
    $ l' D3 M. e4 m3 b
  61. 00:06:54.331                             : en:00:06:54.331) q0 u9 K4 ^' @, L
  62. 00:08:49.529                             : en:00:08:49.5296 Y9 `3 R- ^' L- t
  63. 00:10:53.653                             : en:00:10:53.653- ^2 G) b4 z3 \1 i' w
  64. 00:13:53.708                             : en:00:13:53.708
    ; ~4 i1 e6 V' K1 f" f7 [
  65. 00:18:51.464                             : en:00:18:51.464
    " ]  h. o+ k& n; K! Y! F' A3 D
  66. 00:24:25.172                             : en:00:24:25.1722 [  H. |! C# X; S
  67. 00:29:52.958                             : en:00:29:52.9583 m. G) O0 r4 T$ z# Y9 B+ C
  68. 00:33:10.989                             : en:00:33:10.989
    " ?, p: y$ U9 n
  69. 00:39:06.344                             : en:00:39:06.344
    + ?* Z2 g) N3 S9 ?
  70. 00:42:15.950                             : en:00:42:15.950
    & B) Y/ F9 l% z, Z
  71. 00:46:44.552                             : en:00:46:44.552% D5 d8 h1 u3 W  Z0 y
  72. 00:50:32.655                             : en:00:50:32.655
    * B! S4 u* x0 A2 _1 M% _
  73. 00:53:34.211                             : en:00:53:34.211
    4 O( C, C6 r4 w3 f  V# E9 h& q
  74. 00:54:21.175                             : en:00:54:21.175
    ; E6 y5 V8 M" Q. K
  75. 00:59:40.702                             : en:00:59:40.702/ W- l$ @* G' _3 z6 T5 S! T
  76. 01:03:09.953                             : en:01:03:09.953$ b7 p+ e6 H, u1 X- t1 ~
  77. 01:07:11.736                             : en:01:07:11.736
    3 y' [& H0 [* {1 X/ S
  78. 01:12:02.318                             : en:01:12:02.3181 v. b8 e: g+ Z6 {. r4 @1 `* _
  79. 01:13:04.880                             : en:01:13:04.880/ A' T+ _" c2 E8 `5 L% @7 C# h
  80. 01:18:43.302                             : en:01:18:43.302" [% X0 l! b# ], D7 i) }
  81. 01:21:47.444                             : en:01:21:47.444
    & ^2 N) h$ f5 I& {
  82. 01:27:37.836                             : en:01:27:37.836
    5 M9 u: s- ?* V7 P
  83. 01:33:26.226                             : en:01:33:26.226
    6 K) l$ c4 w- r# Q# }& T% F
  84. 01:36:06.719                             : en:01:36:06.7196 L  T) n( v" B, f0 {) p, ]
  85. 01:41:03.349                             : en:01:41:03.3492 j$ M& ], D/ u% x
  86. 01:43:52.351                             : en:01:43:52.351
复制代码
/ M: {, E5 e0 N- {' ?$ R
Dial.M.for.Murder.1954.1080p.BluRay.X264-AMIABLE.mkv.jpg 0 k, g, V/ v0 G7 R1 r
游客,如果您要查看本帖隐藏内容请回复  捐助论坛可免回复查看隐藏内容 详情请点击
% ~: H& A" Z3 p/ z; N. }- B) c: X6 `
最近访问 头像模式 列表模式
HD一条街,身边的一条街。
发表于 2015-12-2 20:33:44 | 显示全部楼层
沙发支持一下 谢谢楼主免费分享
HD一条街,身边的一条街。
lxf83th 该用户已被删除
发表于 2015-12-3 17:44:04 | 显示全部楼层
提示: 作者被禁止或删除 内容自动屏蔽
HD一条街,身边的一条街。
发表于 2015-12-5 22:38:51 | 显示全部楼层
经典之作 谢谢分享
$ Y0 v5 ]- c- |9 H8 |# o
HD一条街,身边的一条街。
发表于 2015-12-28 08:18:44 | 显示全部楼层
Thanks for sharing
HD一条街,身边的一条街。
您需要登录后才可以回帖 登录 | 加入我们

本版积分规则

手机版|小黑屋|有问题发邮件到admin#(换成@)hd1tj.org|微博|免责申明|HD一条街

GMT+8, 2017-2-25 17:06

Powered by Discuz! X3.1

© 2001-2013 Comsenz Inc.

快速回复 返回顶部 返回列表