开启辅助访问 切换到窄版

HD一条街论坛

 找回密码
 立即注册
查看: 287|回复: 11

[720p] 龙门客栈 Dragon.Inn.1967.1080p.BluRay.x264-FAPCAVE 7.65G

[复制链接]
发表于 2015-11-3 21:37:48 | 显示全部楼层 |阅读模式
2500d451569c6c3ded25d76f2d5a8d3e90892943.jpg
- y; Q4 {( T( y. Q  s: X! Q' S- J/ i. {7 t
$ S7 o2 {: Q- c) I  j) T5 e
◎译  名 龙门客栈
0 j% u4 i$ e# B8 N- p. W◎片  名 龍門客棧: t  D! [" _2 i7 o2 l2 F; b# d
◎年  代 19675 f/ K( t/ Q/ Y! l) ?4 V
◎国  家 台湾
) K% s# A  K$ F: R2 \◎类  别 动作/冒险/武侠/古装& Q4 D2 y: Z# k% O: e: i& p7 x
◎语  言 汉语普通话
2 k/ b! G- ~) [" H8 D! Z◎上映日期 1967-10-21(台湾)
: Z$ W- U/ u- D9 _7 N/ {& E◎IMDb评分  7.6/10 from 742 users9 [) s7 U6 D* m; ?  G
◎IMDb链接  http://www.imdb.com/title/tt0060635/
; V; c. O6 g! T7 |. ^/ l/ A& ^◎豆瓣评分 8.0/10 from 3,514 users* z( e1 t$ |1 q* E. Z! w* V0 Q8 v: c
◎豆瓣链接 http://movie.douban.com/subject/1459054/
% Y" Q, S* F9 x3 x. N$ \" l' [◎片  长 112分钟
& [; _! g8 s! R◎导  演 胡金铨 King Hu  n" B, }+ R6 m& j" b
◎主  演 上官灵凤 Lingfeng Shangguan* J% \0 X2 y2 L) G4 _$ |4 R
      石隽 Chun Shih& R+ R- A7 M# s- c% ~7 J! y: g! N
      苗天 Tien Miao
- U0 E4 r4 R! F+ @0 H9 T/ s      徐枫 Feng Hsu
) ^! s% H! |. y& {2 Q. D" H      韩英杰 Ying-Chieh Han. ^) o6 e. j; L, i
      田鹏 Peng Tien) E9 h/ x/ p; Q: W( A
, |( O. {# B- R  H! q1 J  \$ v
◎简  介5 z  G9 L3 N1 C# M6 R
, F( m# P) D" K" p* [
  明朝中叶,宦官当权,兵部尚书于谦遭陷害入狱,满门抄斩,只剩下一儿一女被押送塞外龙门充军。东厂太监曹少钦(白鹰 饰)意欲斩草除根,派人截杀两个孩子,被于谦旧部朱骥阻拦。曹少钦又派心腹皮绍棠(苗天 饰)和毛宗宪(韩英杰 饰)赶到出关必经之地龙门客栈拦截。其时义士萧少镃(石隽 饰)也赶赴客栈与栈主会合商议搭救忠良之后,朱骥与其女扮男装的妹妹朱辉(上官灵凤 饰)也赶到客栈,三路人马碰头,怀着各自目的,试探彼此身份,很快变成一场混战,此时曹少钦也正飞速赶来龙门客栈,武功极高的他是义士们的最后宿敌……
  1. Video
    ( z. a2 m" L. @; ~7 h+ `6 A  a
  2. ID                                       : 1& N# j) ^6 P4 s
  3. Format                                   : AVC
    ; [# e; C% N( j" m
  4. Format/Info                              : Advanced Video Codec6 O2 K( ]0 P8 e
  5. Format profile                           : [email protected]
    / A6 ?: W0 o) X* u7 O; e
  6. Format settings, CABAC                   : Yes
    ) U$ E5 m* |& @$ J5 S4 }  W
  7. Format settings, ReFrames                : 5 frames
    ' c; \2 V6 p4 L" q1 ^
  8. Codec ID                                 : V_MPEG4/ISO/AVC
    ' g3 N7 A8 e" u" X2 N+ r
  9. Duration                                 : 1h 51mn
    ! ?) Y) U$ T( \! Z
  10. Bit rate                                 : 9 192 Kbps
    5 m3 _9 u+ X+ O% @0 e' C( R
  11. Width                                    : 1 920 pixels
    + J  P  I) F5 t8 t, m% [" c: I
  12. Height                                   : 816 pixels
    ; F# W+ O, w7 _' w* ]# F
  13. Display aspect ratio                     : 2.35:1! P+ v% g. F3 k3 C
  14. Frame rate mode                          : Constant
    $ m& i5 j: p' V$ X* z# \
  15. Frame rate                               : 23.976 fps
    % W$ x; O' [0 F3 O- k
  16. Color space                              : YUV. F' x7 d# z3 }- R1 e7 b" }
  17. Chroma subsampling                       : 4:2:0
    4 S: |8 L+ m6 h- Z
  18. Bit depth                                : 8 bits/ g9 B7 m) T( X1 B2 O% W& `' @
  19. Scan type                                : Progressive
    2 y3 f7 s3 D' l' o& Y8 f% i# [- Z
  20. Bits/(Pixel*Frame)                       : 0.245
    ) f) m) M! m0 i4 t, _) m
  21. Stream size                              : 7.00 GiB (92%), R9 b  O+ y. b
  22. Writing library                          : x264 core 148 r2638 7599210& m' A# \. ^! Y
  23. Encoding settings                        : cabac=1 / ref=5 / deblock=1:0:0 / analyse=0x3:0x133 / me=umh / subme=7 / psy=1 / psy_rd=1.00:0.00 / mixed_ref=1 / me_range=16 / chroma_me=1 / trellis=1 / 8x8dct=1 / cqm=0 / deadzone=21,11 / fast_pskip=0 / chroma_qp_offset=-2 / threads=12 / lookahead_threads=2 / sliced_threads=0 / nr=0 / decimate=1 / interlaced=0 / bluray_compat=0 / constrained_intra=0 / bframes=3 / b_pyramid=2 / b_adapt=2 / b_bias=0 / direct=3 / weightb=1 / open_gop=0 / weightp=2 / keyint=250 / keyint_min=23 / scenecut=40 / intra_refresh=0 / rc_lookahead=50 / rc=2pass / mbtree=1 / bitrate=9192 / ratetol=1.0 / qcomp=0.60 / qpmin=0 / qpmax=69 / qpstep=4 / cplxblur=20.0 / qblur=0.5 / ip_ratio=1.40 / aq=1:1.00! g2 F; J; u6 B" o
  24. Language                                 : English* H. t7 c5 q: a2 ^* Q+ E& a4 ~
  25. Default                                  : Yes- s5 t8 \) q2 _  n8 j& m9 |, u7 U* f
  26. Forced                                   : No! N. @7 f9 [, X0 Y, v% i
  27. DURATION                                 : 01:51:18.797000000
    ; ]  W; l8 D8 E! R& `( W" R
  28. NUMBER_OF_FRAMES                         : 160131& m9 E: N$ U) M8 |9 w2 h
  29. NUMBER_OF_BYTES                          : 7674323023
    - o9 g! i0 i* D. ^" W) d
  30. _STATISTICS_WRITING_APP                  : mkvmerge v7.7.0 (\'Six Voices\') 32bit built on Feb 28 2015 23:23:00. C/ A( g/ r( k- }- W' T, }6 ^
  31. _STATISTICS_WRITING_DATE_UTC             : 2015-10-28 11:38:02+ C; Z  H4 E( e. c/ s+ R6 [) X# P
  32. _STATISTICS_TAGS                         : BPS DURATION NUMBER_OF_FRAMES NUMBER_OF_BYTES( ^. e" q( K( `7 r
  33. : N0 O; O! ?( @- |6 C' J' v
  34. Audio4 q7 E5 V7 A3 I0 Q1 _2 z
  35. ID                                       : 2" X' J$ d2 h* F! ~' B( m- W! o  L
  36. Format                                   : AC-3
    5 L) P( B; F3 {4 a# N1 F7 v
  37. Format/Info                              : Audio Coding 3( w2 P/ r% D, D) l: ?
  38. Mode extension                           : CM (complete main)
    1 S  m% j* P: z4 u4 z! p
  39. Format settings, Endianness              : Big( `1 g# r3 q% _" o. K" i; C" W
  40. Codec ID                                 : A_AC3
    " e) u) l+ }% C/ t4 D) c$ A2 a( u
  41. Duration                                 : 1h 51mn
    4 c. f' V: q. J) C
  42. Bit rate mode                            : Constant( q/ K$ d* D4 x2 @
  43. Bit rate                                 : 640 Kbps
    8 U4 I: h9 \. V+ V8 ~- ~
  44. Channel(s)                               : 1 channel$ v! }/ k7 b4 S
  45. Channel positions                        : Front: C) X" W  b- _7 L3 v9 O
  46. Sampling rate                            : 48.0 KHz
    * V( I$ ~. V( w
  47. Compression mode                         : Lossy
    3 S, O0 S% O' s! v9 j$ r6 [
  48. Stream size                              : 510 MiB (7%)( \* L# @( y" r7 e  Y6 n
  49. Language                                 : Chinese; \4 |2 w  \% n4 {5 a! A+ u& X; Y1 j
  50. Default                                  : Yes1 Y: l- }& Z  L9 [
  51. Forced                                   : No
    % J7 |7 c: Y$ ^
  52. 1 D5 R; l$ W* L  N* `
  53. Text1 _  r0 E6 `+ W' Q
  54. ID                                       : 3
    8 W  B% f: p5 a1 m: D9 p+ \
  55. Format                                   : UTF-8' y! o! S3 ~* w) N0 x6 g' q) y
  56. Codec ID                                 : S_TEXT/UTF8
    & f" c- u. C# |' V- v) F
  57. Codec ID/Info                            : UTF-8 Plain Text& H. o5 I% G7 S# r
  58. Language                                 : English* w0 J7 p4 {. P9 E  m2 b8 M
  59. Default                                  : Yes  f; }3 U. x: O/ o1 O
  60. Forced                                   : No6 V8 N$ t8 |0 Y# ]/ N% L- d4 ]
  61. & C' s) Y, v. c8 `0 E' N
  62. Menu
    9 u/ U7 M. ]# t! ^
  63. 00:00:00.000                             : en:00:00:00.000' U! `# U, x, i
  64. 00:09:09.716                             : en:00:09:09.716
    + m1 X$ C, @& a( y, _
  65. 00:16:47.715                             : en:00:16:47.715+ B, Q5 x- K; F
  66. 00:27:46.248                             : en:00:27:46.248
    ' p, o4 C2 r2 `5 ^0 ]
  67. 00:37:09.269                             : en:00:37:09.2694 i; u& _2 `4 p8 V0 {
  68. 00:46:54.687                             : en:00:46:54.687' h* M: |2 f' y. F7 u+ P
  69. 00:55:55.894                             : en:00:55:55.894$ z' T/ ?/ u. w  Q
  70. 01:01:26.057                             : en:01:01:26.0575 C) N1 H/ N3 x% }/ i# G) I
  71. 01:14:24.418                             : en:01:14:24.418
    + q( k* K' b" [
  72. 01:22:48.630                             : en:01:22:48.630& Z6 k0 |' ?8 ~$ B& U/ m
  73. 01:33:16.674                             : en:01:33:16.674
复制代码
  @, N3 z% f9 V2 [" n

1 F% b1 e# P0 y# c; i1 i5 A

: d2 Q8 E; a  O/ z6 l. X                               
登录/注册后可看大图
* y7 P. C, X) p- m3 \
5 u2 M( W2 v, h( L- J( F
% x1 D. ]( F' X6 g- w1 C& u  F! R
游客,如果您要查看本帖隐藏内容请回复  捐助论坛可免回复查看隐藏内容详情请点击
最近访问 头像模式 列表模式
HD一条街,身边的一条街。
发表于 2015-11-3 22:00:01 | 显示全部楼层
非常的好! 謝謝!!
HD一条街,身边的一条街。
发表于 2015-11-4 07:32:57 | 显示全部楼层
感觉这部电影挺好看的,下载看一下。
HD一条街,身边的一条街。
发表于 2015-11-4 07:56:13 | 显示全部楼层
67年的片子出了蓝光!!!太厉害了。
HD一条街,身边的一条街。
发表于 2015-11-4 08:38:42 | 显示全部楼层
谢谢楼主分享
HD一条街,身边的一条街。
发表于 2015-11-4 09:25:49 | 显示全部楼层
好老的电影,下载来看看
HD一条街,身边的一条街。
发表于 2015-11-4 09:39:48 | 显示全部楼层
经典啊,看看,谢谢分享
HD一条街,身边的一条街。
发表于 2015-11-4 19:22:18 | 显示全部楼层
六十年代的片子,看看,感謝分享~~
HD一条街,身边的一条街。
发表于 2015-11-4 22:49:41 | 显示全部楼层
感谢大大分享经典电影 这个版本太强大
HD一条街,身边的一条街。
发表于 2015-11-5 08:59:36 来自手机 | 显示全部楼层
老片出高清版,大家有福了。
HD一条街,身边的一条街。
您需要登录后才可以回帖 登录 | 立即注册

本版积分规则

手机版|小黑屋|有问题发邮件到admin#(换成@)hd1tj.org|微博|免责申明|HD一条街

GMT+8, 2016-12-7 20:33

Powered by Discuz! X3.1

© 2001-2013 Comsenz Inc.

快速回复 返回顶部 返回列表