开启辅助访问 切换到窄版

HD一条街论坛

 找回密码
 立即注册
搜索
查看: 448|回复: 11

[720p] 龙门客栈 Dragon.Inn.1967.1080p.BluRay.x264-FAPCAVE 7.65G

[复制链接]
发表于 2015-11-3 21:37:48 | 显示全部楼层 |阅读模式
2500d451569c6c3ded25d76f2d5a8d3e90892943.jpg : L( V4 l$ N* j8 J' i* G( P  v

. f5 e5 w! i. j1 z7 G6 ~% C& L
1 b( ]* I6 t, o% `. F◎译  名 龙门客栈+ \' ~1 C4 U) u  T1 e& l+ W1 ^
◎片  名 龍門客棧% V% z( r# i3 c' _# H1 b2 b6 O# L
◎年  代 1967
% u: u  E& h% _7 W◎国  家 台湾
& x; e( C" `+ G4 Q% U0 f7 p. J◎类  别 动作/冒险/武侠/古装
6 }' T4 z* Z4 T$ q4 e1 W+ ?◎语  言 汉语普通话
+ O5 H3 J4 W- ?" r2 n/ T◎上映日期 1967-10-21(台湾)
' a  E# k8 p# e◎IMDb评分  7.6/10 from 742 users
, W' M6 w3 j4 N$ q# g# O◎IMDb链接  http://www.imdb.com/title/tt0060635/
, [; \! t* ?9 H1 _; \( m◎豆瓣评分 8.0/10 from 3,514 users
* V4 |3 D8 L% I2 y) N: S◎豆瓣链接 http://movie.douban.com/subject/1459054/
: C5 {, n  h* f6 z& H◎片  长 112分钟
( m% Z$ T% {, k- f◎导  演 胡金铨 King Hu
, E0 I- j2 W- X  g  p* B1 M+ K◎主  演 上官灵凤 Lingfeng Shangguan8 n4 ?2 w$ L3 J' G( R9 A
      石隽 Chun Shih7 V, {* ~3 S' ^9 q0 L* K
      苗天 Tien Miao1 L( T2 Z) t: k5 d
      徐枫 Feng Hsu/ t  Y% ], B( H  r
      韩英杰 Ying-Chieh Han
; T# N, ~1 b8 r3 a& ]      田鹏 Peng Tien7 i& o, x/ r3 o" C& A2 r7 D& K! V

; a" a6 v/ v3 }8 o  Z4 N◎简  介
7 {" w6 }$ z- E! w1 W$ b$ A/ ^- q% ?  y* v  n6 z* L
  明朝中叶,宦官当权,兵部尚书于谦遭陷害入狱,满门抄斩,只剩下一儿一女被押送塞外龙门充军。东厂太监曹少钦(白鹰 饰)意欲斩草除根,派人截杀两个孩子,被于谦旧部朱骥阻拦。曹少钦又派心腹皮绍棠(苗天 饰)和毛宗宪(韩英杰 饰)赶到出关必经之地龙门客栈拦截。其时义士萧少镃(石隽 饰)也赶赴客栈与栈主会合商议搭救忠良之后,朱骥与其女扮男装的妹妹朱辉(上官灵凤 饰)也赶到客栈,三路人马碰头,怀着各自目的,试探彼此身份,很快变成一场混战,此时曹少钦也正飞速赶来龙门客栈,武功极高的他是义士们的最后宿敌……
  1. Video
    ; }9 i; T2 U5 @/ m4 I' w) ?! H
  2. ID                                       : 1! j2 J8 E- m) y& Y" \4 S$ e9 H
  3. Format                                   : AVC: d/ b4 X, q& v3 M1 d5 l0 q# q7 {
  4. Format/Info                              : Advanced Video Codec  d+ c8 `' G5 ]/ _+ u; c0 X
  5. Format profile                           : [email protected]
    3 [$ J0 S. p) J: y
  6. Format settings, CABAC                   : Yes
    5 Q( h& }; [  K9 E8 f# f
  7. Format settings, ReFrames                : 5 frames
    : w' M% Q1 x- [6 R8 @8 P. s" |* e
  8. Codec ID                                 : V_MPEG4/ISO/AVC5 {4 g, u6 U0 z+ f) h
  9. Duration                                 : 1h 51mn, G  G7 s* k2 A7 I
  10. Bit rate                                 : 9 192 Kbps
    . g; o7 W) n4 E8 L- A* x' w) q
  11. Width                                    : 1 920 pixels
    , p2 Z& {& _4 O) F0 z% t
  12. Height                                   : 816 pixels
    ' a& }! U- J2 G4 n; h/ f
  13. Display aspect ratio                     : 2.35:18 ]% K, L$ S% ~5 ^! {; P9 {0 L
  14. Frame rate mode                          : Constant0 ^" Y0 K' I) p
  15. Frame rate                               : 23.976 fps1 p; b1 h& Z7 ?# i
  16. Color space                              : YUV
    ( D/ j4 I* ^8 {
  17. Chroma subsampling                       : 4:2:0% \; o  J% w  q7 ?3 E2 \: @, p
  18. Bit depth                                : 8 bits
    4 B: B6 N0 ]0 z
  19. Scan type                                : Progressive3 y/ n( M3 U" v/ X; ]
  20. Bits/(Pixel*Frame)                       : 0.245
    ! F* d+ c' c+ ]
  21. Stream size                              : 7.00 GiB (92%)8 `8 }  |; n' y6 w+ u: c
  22. Writing library                          : x264 core 148 r2638 75992106 ]; I" H" G* a/ R' [
  23. Encoding settings                        : cabac=1 / ref=5 / deblock=1:0:0 / analyse=0x3:0x133 / me=umh / subme=7 / psy=1 / psy_rd=1.00:0.00 / mixed_ref=1 / me_range=16 / chroma_me=1 / trellis=1 / 8x8dct=1 / cqm=0 / deadzone=21,11 / fast_pskip=0 / chroma_qp_offset=-2 / threads=12 / lookahead_threads=2 / sliced_threads=0 / nr=0 / decimate=1 / interlaced=0 / bluray_compat=0 / constrained_intra=0 / bframes=3 / b_pyramid=2 / b_adapt=2 / b_bias=0 / direct=3 / weightb=1 / open_gop=0 / weightp=2 / keyint=250 / keyint_min=23 / scenecut=40 / intra_refresh=0 / rc_lookahead=50 / rc=2pass / mbtree=1 / bitrate=9192 / ratetol=1.0 / qcomp=0.60 / qpmin=0 / qpmax=69 / qpstep=4 / cplxblur=20.0 / qblur=0.5 / ip_ratio=1.40 / aq=1:1.00) y; C% C" \8 P  `+ z4 l
  24. Language                                 : English9 }; ?% P" w9 ~
  25. Default                                  : Yes
    5 C8 w* I* V0 c- H5 v9 Y! f
  26. Forced                                   : No* M# h1 p. e0 y% s. Y, j! ]
  27. DURATION                                 : 01:51:18.797000000$ D  {: w( Q: m% d* ?4 |
  28. NUMBER_OF_FRAMES                         : 160131- s' C6 y" H2 f( o
  29. NUMBER_OF_BYTES                          : 7674323023
    + e! @! r; d  z/ G4 ^  H, d' \
  30. _STATISTICS_WRITING_APP                  : mkvmerge v7.7.0 (\'Six Voices\') 32bit built on Feb 28 2015 23:23:004 |% M8 L8 T5 u$ ?
  31. _STATISTICS_WRITING_DATE_UTC             : 2015-10-28 11:38:02
    " Q" h# R) q( d$ m
  32. _STATISTICS_TAGS                         : BPS DURATION NUMBER_OF_FRAMES NUMBER_OF_BYTES' Q0 Y& O. O$ R8 F

  33. ! i: U0 d1 f  M4 E
  34. Audio
    ' ~  w# ~* V* X! N9 V# }: V
  35. ID                                       : 2
    $ j' h( P7 r) V' _- l9 A6 o5 A& b! X
  36. Format                                   : AC-3: w" ]/ v( g, i! t1 ]
  37. Format/Info                              : Audio Coding 3! N$ \5 C- ?6 S; N9 a
  38. Mode extension                           : CM (complete main)
    7 C: C3 c5 x/ R- ?6 v
  39. Format settings, Endianness              : Big
    2 ]& c, c% q6 z9 q& X$ w+ R; o  R+ Y
  40. Codec ID                                 : A_AC3
    2 s2 F' ^; L! s$ V8 ]
  41. Duration                                 : 1h 51mn% r* v. Z, y/ V2 R( F9 c7 ]
  42. Bit rate mode                            : Constant
      d) g/ \' f0 n: Q
  43. Bit rate                                 : 640 Kbps
    / Q3 o$ d2 s  O9 i
  44. Channel(s)                               : 1 channel" O8 N1 M4 J' U: q3 U) }8 r' w" j
  45. Channel positions                        : Front: C
    : Z. y0 B9 V( B; V  N0 G5 H- Z& {+ U
  46. Sampling rate                            : 48.0 KHz$ M7 F3 A8 e% [% T4 o$ M/ `1 E
  47. Compression mode                         : Lossy
    % p( F8 P$ z( d# m6 \6 U8 Y, B7 M
  48. Stream size                              : 510 MiB (7%)7 w  S8 w& p4 L, O+ T
  49. Language                                 : Chinese6 j* b& i; Y' x; V9 k, y& _
  50. Default                                  : Yes6 Q$ V; c% n; U, A
  51. Forced                                   : No
    . A$ e2 O$ }) L& `0 ~0 @+ y2 O
  52. ' ~% y. D+ l/ o& p; p" M$ C
  53. Text
    6 {6 L; K4 j% u; @$ J8 [
  54. ID                                       : 38 t( T, z$ a+ X7 x" \5 C
  55. Format                                   : UTF-8
    - q" R' T. a2 q( o
  56. Codec ID                                 : S_TEXT/UTF8% U4 C1 c  |* g$ j- W' Y6 p
  57. Codec ID/Info                            : UTF-8 Plain Text2 y! e: r/ n. ~
  58. Language                                 : English
    " v: x& c( @$ W% p# f- t' l# T5 e% j
  59. Default                                  : Yes
    ; a, d# g0 e# ~8 u/ D- k" D/ ^2 c
  60. Forced                                   : No% I+ B, p( |5 ~( q" C7 K

  61. ) ~: E$ v3 Q1 m. }6 M# z( a' r5 H
  62. Menu8 A3 L# x& u) G5 z* y
  63. 00:00:00.000                             : en:00:00:00.000# ~4 l  F( o- R5 v! ]- M: x7 H) J% M
  64. 00:09:09.716                             : en:00:09:09.7166 R) `7 }$ b& ]2 h. }& F2 X" A) }
  65. 00:16:47.715                             : en:00:16:47.715
      d4 G/ s5 ^4 j* q; T( c/ K
  66. 00:27:46.248                             : en:00:27:46.248
    + S  R- `/ ]0 \! ~, A& C
  67. 00:37:09.269                             : en:00:37:09.269$ L9 ?8 C+ O& E8 b1 m' {3 |, t# ^
  68. 00:46:54.687                             : en:00:46:54.687- S- G7 o2 n( a; r1 h
  69. 00:55:55.894                             : en:00:55:55.894
    % _5 [% [5 `; ]0 u: v
  70. 01:01:26.057                             : en:01:01:26.057
    ( Y' X# M) w6 A$ t) S  [) F
  71. 01:14:24.418                             : en:01:14:24.418
    % a1 z$ k+ t- b8 E5 D3 |0 J
  72. 01:22:48.630                             : en:01:22:48.630
    7 q3 M: ~% |: e! g; H
  73. 01:33:16.674                             : en:01:33:16.674
复制代码
; U6 Z  e& W& {
1 F0 f+ ]2 v1 O( S* O) @

* E) K0 |" n1 U  i! m6 F, {                               
登录/注册后可看大图
+ O& t& k2 h: l3 W6 |
& D; |9 {1 ~: W) h, K2 q/ w

) O1 B: F' o/ v. o' F! C( C* ]
游客,如果您要查看本帖隐藏内容请回复  捐助论坛可免回复查看隐藏内容 详情请点击
最近访问 头像模式 列表模式
HD一条街,身边的一条街。
发表于 2015-11-3 22:00:01 | 显示全部楼层
非常的好! 謝謝!!
HD一条街,身边的一条街。
发表于 2015-11-4 07:32:57 | 显示全部楼层
感觉这部电影挺好看的,下载看一下。
HD一条街,身边的一条街。
发表于 2015-11-4 07:56:13 | 显示全部楼层
67年的片子出了蓝光!!!太厉害了。
HD一条街,身边的一条街。
发表于 2015-11-4 08:38:42 | 显示全部楼层
谢谢楼主分享
HD一条街,身边的一条街。
发表于 2015-11-4 09:25:49 | 显示全部楼层
好老的电影,下载来看看
HD一条街,身边的一条街。
发表于 2015-11-4 09:39:48 | 显示全部楼层
经典啊,看看,谢谢分享
HD一条街,身边的一条街。
发表于 2015-11-4 19:22:18 | 显示全部楼层
六十年代的片子,看看,感謝分享~~
HD一条街,身边的一条街。
发表于 2015-11-4 22:49:41 | 显示全部楼层
感谢大大分享经典电影 这个版本太强大
HD一条街,身边的一条街。
发表于 2015-11-5 08:59:36 来自手机 | 显示全部楼层
老片出高清版,大家有福了。
HD一条街,身边的一条街。

手机版|小黑屋|有问题发邮件到admin#(换成@)hd1tj.org|微博|免责申明|HD一条街

GMT+8, 2017-4-30 22:47

Powered by Discuz! X3.1

© 2001-2013 Comsenz Inc.

快速回复 返回顶部 返回列表