开启辅助访问 切换到窄版

HD一条街论坛

 找回密码
 立即注册
搜索
查看: 173|回复: 5

[其它] [115][十万火急][DVDRip/1.59G][粤语][MKV][1997年刘青云/方中信/李若彤/刘松仁/黄卓玲主演]

[复制链接]
发表于 2015-5-27 17:01:22 | 显示全部楼层 |阅读模式

) V$ g2 S5 x, A: p                               
登录/注册后可看大图
' x  {, [( v/ B& v8 ?7 z

+ y0 ]3 d2 {$ u. O
$ ~: \% J% j& ^% L◎译  名 Lifeline
9 W. X) W5 p) Z/ y6 x: R◎片  名 十万火急
. K3 m: U- j, K. S& f) H+ [◎年  代 1997
% J# Y: }2 z/ `) k( K- s: F! i◎国  家 香港
9 \3 D' e1 Q( y( g: K$ X◎类  别 惊悚/动作' M  M! F- t, W- [0 {9 a
◎语  言 粤语
8 {: {9 w9 v  t! \9 O◎上映日期 1997-01-03
  W, v- A# @4 ]# m◎IMDb评分  6.9/10 from 368 users+ m5 Q' c1 p2 m" g$ g/ C
◎IMDb链接  http://www.imdb.com/title/tt0120115/
. Y, t; K7 {3 Z# W0 E6 d◎豆瓣评分 7.3/10 from 4,165 users
% e! h" h% ^1 ^8 x$ I! X7 M4 B◎豆瓣链接 http://movie.douban.com/subject/1304045/
  `' `8 @# D2 _! n: \. k- ?◎片  长 108 分钟+ u2 y$ b, t3 ?. z
◎导  演 杜琪峰
" h0 |; u0 Q: W9 f/ e( B◎主  演 刘青云( W) @; w" `* `& {
      方中信! u$ _: D* D, m
      李若彤% R. [# }8 d$ {9 B  p  D( |
      刘松仁% [, e% M: i5 a7 J) u
      黄卓玲
  r5 h* M: o0 s% Z      黄浩然
5 h, ^: j* q( ]# V      林雪
/ V* a) n. \% n5 P% j4 O: w      元彬
9 P+ w' g. j  E# [1 A( n      陈启泰: d$ f3 p5 A5 |, g9 y
" C' G+ h, B6 R
◎简  介
4 }& H$ _+ O% w! V# L1 o* y: L; n5 R8 H
  消防队长云(刘青云饰)是个刻己尽责的救火队员,每当意外发生,他都要和队员赶到火场。新调来的上司(方中信饰)决心以严谨纪律重整阵容,他的苛刻要求招致一众消防员的不满。但在生活上,他们各自并不如意。上司重遇前妻,形同陌路。一心为事业的女见习队长(黄卓菱饰)也与丈夫貌合神离。云在一次现场抢救过程中,搭救了Carmen(李若彤饰)。
" p7 ]( T6 h) m" x6 p  面对那场突然爆发的灾难性的五级大火,对消防员自身构成危险,所有人必须离开火场,火场內藏有大量危险品及引致大爆炸,並且释放出大量有毒气体,而火场內仍有生还者待救。身处生死边缘的消防队员们,仍决定奋不顾身继续救人,最后他们能否成功?
; ]' \* A! V3 y# ~2 t6 Y1 g6 Z9 T
  @5 I, _: N  H) [: ?" E/ q! C3 y◎获奖情况
' V. N. f! |2 ?, F
' |. ^) F) K6 G" _! o  第17届香港电影金像奖 (1998)0 s  \! m! n: A; C1 P( y, L
  最佳电影(提名) 方逸华
) V7 Y. d$ D" \, y2 ^7 a  最佳导演(提名) 杜琪峰% g0 N+ D9 O( d6 r8 [
  最佳新演员(提名) 黄卓玲
9 i# v' F/ r3 x- R8 U  最佳剪接 黄永明9 R" J  Q) Q) H& i1 p
  最佳动作设计(提名) 元彬
  O) m$ h7 D. J  r1 V  最佳音响效果
  1. Format                                   : Matroska
    8 o4 W% X+ z4 ?3 `; ^( ^
  2. Format version                           : Version 2( _* f( b. p& _7 J+ s1 b1 T. m! ^
  3. File size                                : 1.59 GiB
    9 I2 ^3 T1 I. F, K. C. M+ r
  4. Duration                                 : 1h 43mn
    : V# p. l7 A  c. T7 V/ |' G
  5. Overall bit rate                         : 2 185 Kbps8 y0 j  G0 H! g" ^0 ~' x
  6. Writing application                      : HandBrake 0.10.1 20150308008 J/ N% p" P+ v
  7. Writing library                          : Lavf55.12.02 g3 @% Z( e" C8 p  J" k9 c1 Z
  8. 1 T# B) M* s' x5 t& i
  9. Video
    " z9 W5 Z2 G% T+ o; K
  10. ID                                       : 1% K' c! {4 s4 {) d) Y2 u
  11. Format                                   : AVC' G: Q5 \  j4 E& n6 E
  12. Format/Info                              : Advanced Video Codec
    0 `$ I/ t% s" j5 x9 V+ n% [
  13. Format profile                           : [email protected]6 n# G* c# s: H' @/ E  Y
  14. Format settings, CABAC                   : Yes. ^- J, Q8 j' L! K" x2 I% s5 T
  15. Format settings, ReFrames                : 16 frames
    . k- j/ j1 P2 F
  16. Codec ID                                 : V_MPEG4/ISO/AVC
    $ h% l4 m1 R& I, ]  K
  17. Duration                                 : 1h 43mn
    & B. a' q, C! Z' f0 Z- E. B
  18. Bit rate                                 : 1 758 Kbps
    5 c: b. P& r. ^1 ^) o2 c# H" h
  19. Width                                    : 714 pixels
    3 L' h5 e) r+ C2 U4 D
  20. Height                                   : 390 pixels
    ! S2 n, S: q& N+ F- T
  21. Display aspect ratio                     : 1.85:17 x8 `3 ?0 k* i, U& R. p) X
  22. Frame rate mode                          : Constant
    : {9 C  E& }' D) E; v' U
  23. Frame rate                               : 29.970 fps+ k0 J* _9 ?( B1 d5 S0 [0 H; U/ {; B
  24. Color space                              : YUV
    & D- _& H, R! J) F9 L9 u; C. W8 z* j
  25. Chroma subsampling                       : 4:2:0
    # |- t: |% |+ z% g" X3 G
  26. Bit depth                                : 8 bits
    5 }# q6 L1 G; c, x2 h8 Z0 ?$ I
  27. Scan type                                : Progressive
    ( G+ g! O) e4 a0 l+ K
  28. Bits/(Pixel*Frame)                       : 0.211: X3 d9 `" R7 a
  29. Stream size                              : 1.28 GiB (80%)3 F; n, E1 t! O; F3 ?2 ^9 R
  30. Writing library                          : x264 core 142 r2479 dd79a61/ @6 v- ?2 H  Y. w
  31. Encoding settings                        : cabac=1 / ref=16 / deblock=1:-1:-1 / analyse=0x3:0x133 / me=tesa / subme=11 / psy=1 / psy_rd=1.00:0.15 / mixed_ref=1 / me_range=24 / chroma_me=1 / trellis=2 / 8x8dct=1 / cqm=0 / deadzone=21,11 / fast_pskip=0 / chroma_qp_offset=-3 / threads=6 / lookahead_threads=1 / sliced_threads=0 / nr=0 / decimate=1 / interlaced=0 / bluray_compat=0 / constrained_intra=0 / bframes=16 / b_pyramid=2 / b_adapt=2 / b_bias=0 / direct=3 / weightb=1 / open_gop=0 / weightp=2 / keyint=300 / keyint_min=30 / scenecut=40 / intra_refresh=0 / rc_lookahead=60 / rc=crf / mbtree=1 / crf=16.0 / qcomp=0.60 / qpmin=0 / qpmax=69 / qpstep=4 / ip_ratio=1.40 / aq=1:1.00* @; B( B6 H0 K) U# b/ J
  32. Default                                  : Yes# ?8 |( {) X+ s$ T0 @  o3 U
  33. Forced                                   : No
    0 B' O1 d. J( a. q3 M" z
  34. Color primaries                          : BT.601 NTSC4 z- `3 l# F- q5 @
  35. Transfer characteristics                 : BT.709
    1 j+ `# |+ J  M( D: f7 m8 ^
  36. Matrix coefficients                      : BT.601% O3 H  o! }) P$ N% P9 n
  37. Color range                              : Limited1 B: l0 D) S+ k

  38. 3 l5 H! T4 o! w, C
  39. Audio: \3 L, F( p2 w+ ^6 `8 D. ?
  40. ID                                       : 2
    6 y9 d" V; H. _
  41. Format                                   : AC-3
    ( H6 ?9 X$ {  d1 V! i+ E' n& z4 a
  42. Format/Info                              : Audio Coding 37 {0 H6 ~- Z; g; p2 q+ e1 B
  43. Mode extension                           : CM (complete main)& u7 d- U  p# G/ z8 M6 S! V
  44. Format settings, Endianness              : Big
    % o6 i+ q+ x$ j' F
  45. Codec ID                                 : A_AC36 X; `- S& t) D8 z& u7 P* N
  46. Duration                                 : 1h 43mn- Z" V$ R/ \( P1 d* t; H
  47. Bit rate mode                            : Constant. t/ N: D: d8 D
  48. Bit rate                                 : 384 Kbps3 p6 l# g; X7 M, L- M4 S9 i2 Q: Q9 j
  49. Channel(s)                               : 6 channels
    9 G0 E5 ~8 [8 W% L5 }; z
  50. Channel positions                        : Front: L C R, Side: L R, LFE
    5 ~( F8 N9 I- L) Z# p+ B- G
  51. Sampling rate                            : 48.0 KHz' c7 E( W2 `8 o# q' B6 R) U+ \
  52. Bit depth                                : 16 bits
    % b1 D- P6 R! L9 ^8 h* K2 b; B9 i
  53. Compression mode                         : Lossy% S* k4 k/ }, N! O& @( a/ @
  54. Stream size                              : 285 MiB (18%)
    * @) O" R; r9 u8 H  P& D
  55. Title                                    : Surround$ T- W/ f$ |7 c" u
  56. Language                                 : Chinese
    $ _! Q  h5 B/ _' ]! r) @
  57. Default                                  : Yes
    , G0 @: P$ w& t$ B+ E, D1 o: N
  58. Forced                                   : No
复制代码
1 }) @0 X& n. K
) I+ v, j. L4 S+ N
% _) q* O% G$ |% Q  H# p/ H, ^
                               
登录/注册后可看大图

' |, r" c8 w$ w0 Y
9 e4 T  i3 e# P+ L
                               
登录/注册后可看大图
, h0 I. D# q' L

( E. {9 |; M. O- Y                               
登录/注册后可看大图

0 g3 O! t$ K) Q9 y
' X' p$ P. ~( h% D* S1 c+ |3 u
                               
登录/注册后可看大图

- w. d$ z8 b% A/ \1 e, h9 Y$ ^
8 U$ ~9 w) \. Q" S, B+ n
                               
登录/注册后可看大图

, N% k. w7 Y2 x: K
4 ~- V1 d& a5 H5 E
                               
登录/注册后可看大图
1 k+ [! @4 X0 D  y6 P( [

* V) U, l, [6 g0 X; a& n% h( N% l2 d$ T$ `5 q
115网盘
8 L+ _  b$ f' K4 Z5 Y) G- }2 V
) w4 G( t# g4 a0 J4 ?
游客,如果您要查看本帖隐藏内容请回复  捐助论坛可免回复查看隐藏内容 详情请点击
最近访问 头像模式 列表模式
HD一条街,身边的一条街。
发表于 2015-5-27 18:05:48 | 显示全部楼层
其实我一直觉得楼主的品味不错!呵呵!
HD一条街,身边的一条街。
yuanyuxin623 该用户已被删除
发表于 2015-5-27 18:14:46 | 显示全部楼层
提示: 作者被禁止或删除 内容自动屏蔽
HD一条街,身边的一条街。
发表于 2015-6-12 13:23:31 | 显示全部楼层
楼主发贴辛苦了,谢谢楼主分享!
HD一条街,身边的一条街。
发表于 2015-6-27 13:06:34 | 显示全部楼层
分享高清资源,就来HD一条街!
HD一条街,身边的一条街。

手机版|小黑屋|有问题发邮件到admin#(换成@)hd1tj.org|微博|免责申明|HD一条街

GMT+8, 2017-4-25 12:37

Powered by Discuz! X3.1

© 2001-2013 Comsenz Inc.

快速回复 返回顶部 返回列表