开启辅助访问 切换到窄版

HD一条街论坛

 找回密码
 加入我们
查看: 130|回复: 5

[其它] [115][十万火急][DVDRip/1.59G][粤语][MKV][1997年刘青云/方中信/李若彤/刘松仁/黄卓玲主演]

[复制链接]
发表于 2015-5-27 17:01:22 | 显示全部楼层 |阅读模式
6 I$ x( E( ~4 _- b, S
                               
登录/注册后可看大图
3 g! C1 h7 m  z  a2 T  }

" s" m' r  b# u- p2 ^9 Z9 |
' Z" Q; p1 ~, {( F# j) Z◎译  名 Lifeline% n- Q# _1 M2 t% `
◎片  名 十万火急2 N* R4 n0 t/ h% @6 W3 P* K. P3 q1 `
◎年  代 19970 V$ f% k1 W; z$ Q& J
◎国  家 香港
. O5 f6 O, ]; l. p◎类  别 惊悚/动作
/ L. `% f/ ?4 g5 m, w◎语  言 粤语
/ o% b! ]7 G/ ]3 \◎上映日期 1997-01-03% U$ F2 i0 T8 u: b
◎IMDb评分  6.9/10 from 368 users$ q- W0 Q1 W5 e. d+ t! F8 c8 m
◎IMDb链接  http://www.imdb.com/title/tt0120115/; ^7 i* l' B/ s- ]) ^0 ^$ A9 R# v
◎豆瓣评分 7.3/10 from 4,165 users
/ h: z4 a) b1 a! L◎豆瓣链接 http://movie.douban.com/subject/1304045/
5 B2 D; q1 C5 B0 h  g◎片  长 108 分钟9 k' k- C) {7 d
◎导  演 杜琪峰
3 r) u' ~. H, |◎主  演 刘青云8 m: X' S9 D5 u7 \* j6 X; e
      方中信, f  F$ E% S5 |" \+ I  p8 h6 V
      李若彤
. A" w' w+ C0 x; c, {( Y! ^9 O) B4 s, L      刘松仁
+ l2 X% v9 ^, L) M% ~      黄卓玲) F) l3 t& u8 Y; `( J% ]
      黄浩然0 K( X3 u7 {/ N# s
      林雪6 M; d1 m' G& ~$ |
      元彬
; H( V7 C) c" n( K$ L1 e% R6 G      陈启泰
' Q1 c. l2 @- I& Z+ H' a$ F% ]  h% n3 d  C4 E5 a. ^( Q
◎简  介
* J( F; m* A3 a" u/ Z, X  q! X" U: B1 U7 U
  消防队长云(刘青云饰)是个刻己尽责的救火队员,每当意外发生,他都要和队员赶到火场。新调来的上司(方中信饰)决心以严谨纪律重整阵容,他的苛刻要求招致一众消防员的不满。但在生活上,他们各自并不如意。上司重遇前妻,形同陌路。一心为事业的女见习队长(黄卓菱饰)也与丈夫貌合神离。云在一次现场抢救过程中,搭救了Carmen(李若彤饰)。
  w4 W5 h" e- `4 E# h& l0 z! Q  面对那场突然爆发的灾难性的五级大火,对消防员自身构成危险,所有人必须离开火场,火场內藏有大量危险品及引致大爆炸,並且释放出大量有毒气体,而火场內仍有生还者待救。身处生死边缘的消防队员们,仍决定奋不顾身继续救人,最后他们能否成功?
# T( l  Q; a: Q& Q
7 E; k& _! N' J◎获奖情况8 F& [% \; ?3 s% {

+ t3 B2 `3 `3 R  第17届香港电影金像奖 (1998)
, ?+ y( l3 o2 J. w% i  最佳电影(提名) 方逸华
. p/ ^, s4 g: ?# g* v8 n  最佳导演(提名) 杜琪峰
9 U' Y* Y! `! n: n; R/ x# s5 e  最佳新演员(提名) 黄卓玲9 @7 L& C' B& O) V: G$ C0 x% {/ w
  最佳剪接 黄永明5 Y- o# b# N# t+ J+ j
  最佳动作设计(提名) 元彬: Z2 F( W! y  j7 o. s$ z# s
  最佳音响效果
  1. Format                                   : Matroska
    1 n- a9 F  @% l7 j8 x7 E
  2. Format version                           : Version 2
    3 A, z8 g  w2 A9 J+ @& D+ L3 L* e  ~) B
  3. File size                                : 1.59 GiB3 p, _- s: k( ^% z; G  r+ e8 r
  4. Duration                                 : 1h 43mn
    8 N/ u. i/ G( v) e4 k* O
  5. Overall bit rate                         : 2 185 Kbps
      @' K0 ^8 R3 `' K4 s. V' U
  6. Writing application                      : HandBrake 0.10.1 20150308007 _& N2 I, U- @7 h
  7. Writing library                          : Lavf55.12.05 P$ j0 E. ]: |. M2 d
  8. + B/ K2 H9 G7 [
  9. Video
    ; o% A6 f8 _9 ?- {9 |7 a/ p4 s
  10. ID                                       : 1) j1 y# T) E' P/ ^
  11. Format                                   : AVC7 T# J$ \' u4 N
  12. Format/Info                              : Advanced Video Codec8 P4 ?. g; L# m3 e8 D! ~" u
  13. Format profile                           : [email protected]
    * r/ g% R: d- _' e/ W/ {
  14. Format settings, CABAC                   : Yes1 G" B6 R% z8 ]
  15. Format settings, ReFrames                : 16 frames
    ; Y7 [2 Y0 C! a8 O  P" o  {3 W/ \: a$ ?4 [
  16. Codec ID                                 : V_MPEG4/ISO/AVC
    ! \8 V+ [1 [$ C* e2 v$ P
  17. Duration                                 : 1h 43mn
    0 L  E5 _# b9 H/ |# o0 ^' Q2 n' C
  18. Bit rate                                 : 1 758 Kbps& {  T$ W# b% {2 [5 b) I' {9 \: X5 Q
  19. Width                                    : 714 pixels
    2 {( ?3 K. c1 G& A+ n  }
  20. Height                                   : 390 pixels& x- Q! r/ S! F0 s/ q
  21. Display aspect ratio                     : 1.85:1, t/ D7 [6 ]8 E  W& N2 \8 l
  22. Frame rate mode                          : Constant0 r9 a- g+ x' N: B& S8 p- u9 U
  23. Frame rate                               : 29.970 fps
    5 s5 o# p& X% h
  24. Color space                              : YUV. O; V, j- B# y' \
  25. Chroma subsampling                       : 4:2:0
    0 Y* k! f/ M% R' a$ j( ]
  26. Bit depth                                : 8 bits
    0 C# A: D9 c% L  z; l
  27. Scan type                                : Progressive
    * u% Z; L1 T6 K( _! B% E
  28. Bits/(Pixel*Frame)                       : 0.2119 v# y/ f  K2 ]4 k. S0 a
  29. Stream size                              : 1.28 GiB (80%)! l+ G9 \3 G4 o8 G3 V0 _) b& P" V+ `
  30. Writing library                          : x264 core 142 r2479 dd79a61" Q1 @, ~( l' G& Y. H* F! X
  31. Encoding settings                        : cabac=1 / ref=16 / deblock=1:-1:-1 / analyse=0x3:0x133 / me=tesa / subme=11 / psy=1 / psy_rd=1.00:0.15 / mixed_ref=1 / me_range=24 / chroma_me=1 / trellis=2 / 8x8dct=1 / cqm=0 / deadzone=21,11 / fast_pskip=0 / chroma_qp_offset=-3 / threads=6 / lookahead_threads=1 / sliced_threads=0 / nr=0 / decimate=1 / interlaced=0 / bluray_compat=0 / constrained_intra=0 / bframes=16 / b_pyramid=2 / b_adapt=2 / b_bias=0 / direct=3 / weightb=1 / open_gop=0 / weightp=2 / keyint=300 / keyint_min=30 / scenecut=40 / intra_refresh=0 / rc_lookahead=60 / rc=crf / mbtree=1 / crf=16.0 / qcomp=0.60 / qpmin=0 / qpmax=69 / qpstep=4 / ip_ratio=1.40 / aq=1:1.00' L$ ]6 o3 m( R# O  [; f- M
  32. Default                                  : Yes
    , J0 }- u- N6 p( H- i4 b0 y! }
  33. Forced                                   : No
    ; \; ~5 |$ J. w6 G5 E2 y0 x
  34. Color primaries                          : BT.601 NTSC- P9 g3 E) c, n/ @" L. {& S2 N
  35. Transfer characteristics                 : BT.709
    7 _8 _9 f- [5 C  \, N' q- U5 L
  36. Matrix coefficients                      : BT.6016 W: H  w2 E5 u' e- D2 H% W9 d2 m
  37. Color range                              : Limited
    7 x* A0 J) }% f' L- W* Q4 K
  38. " \4 f. I; P* ~+ i$ h
  39. Audio
    7 l3 u0 |5 d8 X. r3 ]
  40. ID                                       : 2
    8 B  n2 ]# p. f6 ?
  41. Format                                   : AC-3! a( e$ O: h, P1 w% x/ a8 A
  42. Format/Info                              : Audio Coding 3( q% {) S4 p- T' F. N
  43. Mode extension                           : CM (complete main)# p) @4 r: p& c. F/ K2 w0 m4 w
  44. Format settings, Endianness              : Big
    1 G2 _7 W3 h0 a! Z+ b9 C
  45. Codec ID                                 : A_AC3
    0 e) d* H/ Z; A* |6 L# a- q
  46. Duration                                 : 1h 43mn
    & h  }3 u, m# H4 `* d+ l) f
  47. Bit rate mode                            : Constant& F2 k, X! z9 x5 n% K2 q" h' p
  48. Bit rate                                 : 384 Kbps0 m5 P5 c% A/ w0 H( u- E
  49. Channel(s)                               : 6 channels
    5 E* M  [5 g% l, J7 R) y3 p7 M
  50. Channel positions                        : Front: L C R, Side: L R, LFE
    + y& S, f3 |, m/ I) i7 |3 g! q
  51. Sampling rate                            : 48.0 KHz
    , `2 D. z3 ?5 a: ]( @1 l3 f8 Y' i
  52. Bit depth                                : 16 bits
    3 D% Y+ q3 L/ s+ k, K
  53. Compression mode                         : Lossy
    2 Y2 |. a- j* Q  r0 U! L6 S( d4 j8 {& I
  54. Stream size                              : 285 MiB (18%)) f: g& @* o- E6 m3 u- H
  55. Title                                    : Surround
    ! I4 U7 n7 z/ n8 Z2 D3 ~2 f
  56. Language                                 : Chinese
    $ X: ]% ?0 d/ m) q5 M
  57. Default                                  : Yes
    $ G% J5 t, ?8 D3 u8 ]
  58. Forced                                   : No
复制代码
7 Z/ ]% K' t+ s: r

& y4 W8 p2 ^3 T% I; e! K% _: R

) V/ }& g* D* q6 n3 h8 D                               
登录/注册后可看大图

2 D  \9 q8 S9 i: J4 W4 s+ K

8 b' [5 Y' l; ?4 c7 @3 N; t                               
登录/注册后可看大图
( x# {* h3 l; A/ J+ l  z
7 i' U' p+ n' V2 e; T  G. x
                               
登录/注册后可看大图

9 t1 c/ o! b) U) O
" Q2 j1 J0 n5 A3 _9 r
                               
登录/注册后可看大图
5 W% y* j/ g6 c" z
1 z% p# ^( {' A: A
                               
登录/注册后可看大图

% C7 d( u9 A7 i- O; y; @! T

% t% |) U" M: `9 _) H                               
登录/注册后可看大图

6 Q! G; x& V- x7 E( q) x6 j) y! E4 L8 O* T  s; p6 j
2 h6 ?0 E5 c( r4 P& B6 O
115网盘  n5 I+ M* Z; x1 U3 `( |% ^

( _2 }" S6 d: ?
游客,如果您要查看本帖隐藏内容请回复  捐助论坛可免回复查看隐藏内容 详情请点击
最近访问 头像模式 列表模式
HD一条街,身边的一条街。
发表于 2015-5-27 18:05:48 | 显示全部楼层
其实我一直觉得楼主的品味不错!呵呵!
HD一条街,身边的一条街。
yuanyuxin623 该用户已被删除
发表于 2015-5-27 18:14:46 | 显示全部楼层
提示: 作者被禁止或删除 内容自动屏蔽
HD一条街,身边的一条街。
发表于 2015-6-12 13:23:31 | 显示全部楼层
楼主发贴辛苦了,谢谢楼主分享!
HD一条街,身边的一条街。
发表于 2015-6-27 13:06:34 | 显示全部楼层
分享高清资源,就来HD一条街!
HD一条街,身边的一条街。
您需要登录后才可以回帖 登录 | 加入我们

本版积分规则

手机版|小黑屋|有问题发邮件到admin#(换成@)hd1tj.org|微博|免责申明|HD一条街

GMT+8, 2017-1-24 17:09

Powered by Discuz! X3.1

© 2001-2013 Comsenz Inc.

快速回复 返回顶部 返回列表